Tags
Language
Tags

Cassandra Wilson - New Moon Daughter (1995)

Posted By: popsakov
Cassandra Wilson - New Moon Daughter (1995)

Cassandra Wilson - New Moon Daughter (1995)
EAC Rip | FLAC (Img) + Cue + Log ~ 372 Mb | MP3 CBR320 ~ 163 Mb
Full Scans ~ 128 Mb | 01:07:36 | RAR 5% Recovery
Contemporary Jazz, Vocal Jazz | Blue Note #CDP 7243 8 37183 2 0

New Moon Daughter is a studio album by American jazz singer Cassandra Wilson, released in 1995 on Blue Note. It reached No. 1 on the Billboard Top Jazz Albums chart in 1996.

Singer Cassandra Wilson, who has had a rather diverse career that has ranged from the free funk of M-Base to standards à la Betty Carter, has in recent times adopted a folk-oriented style a little reminiscent of Nina Simone. On New Moon Daughter her repertoire ranges from U2 to Son House, from Hoagy Carmichael to Hank Williams ("I'm So Lonesome I Could Cry"); it is certainly the only album ever that contains both the Monkees' "Last Train to Clarksville" and "Strange Fruit." This CD is a surprise best-seller, for Wilson's voice actually sounds quite bored and emotionally detached. She deserves great credit for stretching herself, but one has to dig deep to find any warmth in her overly cool approach.

~ Scott Yanow, All Music
Cassandra Wilson - New Moon Daughter (1995)


***************

Cassandra Wilson - New Moon Daughter (1995)

Cassandra Wilson - New Moon Daughter (1995)

Track List:

01. Strange Fruit [0:05:36.20]
02. Love Is Blindness [0:04:53.10]
03. Solomon Sang [0:05:56.27]
04. Death Letter [0:04:13.63]
05. Skylark [0:04:08.52]
06. Find Him [0:04:39.60]
07. I'm So Lonesome I Could Cry [0:04:51.33]
08. Last Train To Clarksville [0:05:16.60]
09. Until [0:06:30.25]
10. A Little Warm Death [0:05:45.20]
11. Memphis [0:05:05.25]
12. Harvest Moon [0:05:15.30]
13. 32-20 [0:05:23.37]

Personnel:
Cassandra Wilson – vocals, acoustic guitar
Cyro Baptista – percussion, Jew's-Harp, shaker
Dougie Bowne – percussion, drums, whistle, vibraphone
Jeff Haynes – percussion, bongos
Gary Breit – Hammond organ
Kevin Breit – acoustic & electric guitar, banjo, bouzouki
Brandon Ross – acoustic & electric guitar
Gib Wharton – pedal steel guitar
Chris Whitley – guitar (1)
Charles Burnham – violin
Tony Cedras– accordion
Graham Haynes, Lawrence "Butch" Morris – cornet
Lonnie Plaxico, Mark Peterson – bass
Peepers – background vocals

Exact Audio Copy V1.2 from 12. August 2016

EAC extraction logfile from 14. October 2016, 0:00

Cassandra Wilson / New Moon Daughter

Used drive : ATAPI iHAS124 D Adapter: 1 ID: 1

Read mode : Secure
Utilize accurate stream : Yes
Defeat audio cache : Yes
Make use of C2 pointers : No

Read offset correction : 6
Overread into Lead-In and Lead-Out : No
Fill up missing offset samples with silence : Yes
Delete leading and trailing silent blocks : No
Null samples used in CRC calculations : Yes
Used interface : Native Win32 interface for Win NT & 2000

Used output format : User Defined Encoder
Selected bitrate : 1024 kBit/s
Quality : High
Add ID3 tag : No
Command line compressor : C:\Program Files (x86)\Exact Audio Copy\FLAC\FLAC.EXE
Additional command line options : -6 -V -T "ARTIST=%artist%" -T "TITLE=%title%" -T "ALBUM=%albumtitle%" -T "DATE=%year%" -T "TRACKNUMBER=%tracknr%" -T "GENRE=%genre%" -T "COMMENT=%comment%" -T "BAND=%albuminterpret%" -T "ALBUMARTIST=%albuminterpret%" -T "COMPOSER=%composer%" %haslyrics%–tag-from-file=LYRICS="%lyricsfile%"%haslyrics% -T "DISCNUMBER=%cdnumber%" -T "TOTALDISCS=%totalcds%" -T "TOTALTRACKS=%numtracks%" %hascover%–picture="%coverfile%"%hascover% %source% -o %dest%


TOC of the extracted CD

Track | Start | Length | Start sector | End sector
––––––––––––––––––––––––––––-
1 | 0:00.00 | 5:36.20 | 0 | 25219
2 | 5:36.20 | 4:53.10 | 25220 | 47204
3 | 10:29.30 | 5:56.27 | 47205 | 73931
4 | 16:25.57 | 4:13.63 | 73932 | 92969
5 | 20:39.45 | 4:08.52 | 92970 | 111621
6 | 24:48.22 | 4:39.60 | 111622 | 132606
7 | 29:28.07 | 4:51.33 | 132607 | 154464
8 | 34:19.40 | 5:16.60 | 154465 | 178224
9 | 39:36.25 | 6:30.25 | 178225 | 207499
10 | 46:06.50 | 5:45.20 | 207500 | 233394
11 | 51:51.70 | 5:05.25 | 233395 | 256294
12 | 56:57.20 | 5:15.30 | 256295 | 279949
13 | 62:12.50 | 5:23.37 | 279950 | 304211


Range status and errors

Selected range

Filename C:\mm\Cassandra Wilson\1995 - New Moon Doughter [CDP 7243 8 37183 2 0]\Cassandra Wilson - New Moon Daughter.wav

Peak level 100.0 %
Extraction speed 9.9 X
Range quality 100.0 %
Test CRC 4FC1130F
Copy CRC 4FC1130F
Copy OK

No errors occurred


AccurateRip summary

Track 1 accurately ripped (confidence 200) [9DE866F5] (AR v2)
Track 2 accurately ripped (confidence 200) [F365C8AE] (AR v2)
Track 3 accurately ripped (confidence 200) [BC44F057] (AR v2)
Track 4 accurately ripped (confidence 200) [DEB0B41D] (AR v2)
Track 5 accurately ripped (confidence 200) [27F003F8] (AR v2)
Track 6 accurately ripped (confidence 200) [5F9A0D3A] (AR v2)
Track 7 accurately ripped (confidence 200) [72A07C40] (AR v2)
Track 8 accurately ripped (confidence 200) [4F9914AC] (AR v2)
Track 9 accurately ripped (confidence 200) [0EBD468A] (AR v2)
Track 10 accurately ripped (confidence 200) [99E720C2] (AR v2)
Track 11 accurately ripped (confidence 200) [9E558F93] (AR v2)
Track 12 accurately ripped (confidence 200) [CAD71BA9] (AR v2)
Track 13 accurately ripped (confidence 200) [95CABDB2] (AR v2)

All tracks accurately ripped

End of status report

–– CUETools DB Plugin V2.1.6

[CTDB TOCID: pWF.tQwQwWT79e_t.XfhFXh966E-] found
Submit result: pWF.tQwQwWT79e_t.XfhFXh966E- has been confirmed
Track | CTDB Status
1 | (478/481) Accurately ripped
2 | (478/481) Accurately ripped
3 | (477/481) Accurately ripped
4 | (477/481) Accurately ripped
5 | (477/481) Accurately ripped
6 | (480/481) Accurately ripped
7 | (476/481) Accurately ripped
8 | (479/481) Accurately ripped
9 | (476/481) Accurately ripped
10 | (475/481) Accurately ripped
11 | (473/481) Accurately ripped
12 | (474/481) Accurately ripped, or (2/481) differs in 29 samples @03:20:08,03:23:11
13 | (470/481) Accurately ripped, or (2/481) differs in 19 samples @00:26:42,00:32:54,04:24:71,04:51:68,05:16:49

[CUETools log; Date: 12.11.2016 13:06:45; Version: 2.1.5]
[CTDB TOCID: pWF.tQwQwWT79e_t.XfhFXh966E-] found.
Track | CTDB Status
1 | (493/496) Accurately ripped
2 | (493/496) Accurately ripped
3 | (492/496) Accurately ripped
4 | (491/496) Accurately ripped
5 | (492/496) Accurately ripped
6 | (495/496) Accurately ripped
7 | (491/496) Accurately ripped
8 | (494/496) Accurately ripped
9 | (491/496) Accurately ripped
10 | (490/496) Accurately ripped
11 | (487/496) Accurately ripped
12 | (489/496) Accurately ripped
13 | (484/496) Accurately ripped
[AccurateRip ID: 002001be-014088e3-b50fd80d] found.
Track [ CRC | V2 ] Status
01 [c60e7785|9de866f5] (200+200/452) Accurately ripped
02 [32368034|f365c8ae] (200+200/453) Accurately ripped
03 [5c3844a3|bc44f057] (200+200/453) Accurately ripped
04 [fbaf7da3|deb0b41d] (200+200/452) Accurately ripped
05 [024e7e9a|27f003f8] (200+200/453) Accurately ripped
06 [598675aa|5f9a0d3a] (200+200/452) Accurately ripped
07 [81c33629|72a07c40] (200+200/452) Accurately ripped
08 [cc305579|4f9914ac] (200+200/455) Accurately ripped
09 [42d3efa2|0ebd468a] (200+200/450) Accurately ripped
10 [6953f643|99e720c2] (200+200/452) Accurately ripped
11 [67251108|9e558f93] (200+200/453) Accurately ripped
12 [4ce0a7ae|cad71ba9] (200+200/454) Accurately ripped
13 [c54339f7|95cabdb2] (200+200/455) Accurately ripped
Offsetted by -664:
01 [a828b555] (003/452) Accurately ripped
02 [8e96256c] (003/453) Accurately ripped
03 [2282340b] (003/453) Accurately ripped
04 [5e22b7fb] (003/452) Accurately ripped
05 [f6db851a] (003/453) Accurately ripped
06 [2325a282] (003/452) Accurately ripped
07 [039e23c1] (003/452) Accurately ripped
08 [6f807731] (003/455) Accurately ripped
09 [6044707f] (003/450) Accurately ripped
10 [1d67770e] (003/452) Accurately ripped
11 [3e081360] (003/453) Accurately ripped
12 [a5561a0e] (003/454) Accurately ripped
13 [da8cf57f] (003/455) Accurately ripped
Offsetted by -1340:
01 [8b436c8d] (000/452) No match (V2 was not tested)
02 [a425c900] (000/453) No match (V2 was not tested)
03 [9c302c67] (000/453) No match (V2 was not tested)
04 [3791dc3f] (000/452) No match (V2 was not tested)
05 [17eca2da] (000/453) No match (V2 was not tested)
06 [a4d8a686] (000/452) No match (V2 was not tested)
07 [ef251ee5] (000/452) No match (V2 was not tested)
08 [8af89985] (000/455) No match (V2 was not tested)
09 [3e264430] (000/450) No match (V2 was not tested)
10 [a49fae01] (000/452) No match (V2 was not tested)
11 [bf5b23a4] (000/453) No match (V2 was not tested)
12 [1fc7809e] (000/454) No match (V2 was not tested)
13 [02bab90b] (000/455) No match (V2 was not tested)
Offsetted by -1154:
01 [7bbc12c1] (000/452) No match (V2 was not tested)
02 [6dbde26e] (000/453) No match (V2 was not tested)
03 [3fa1a1a1] (000/453) No match (V2 was not tested)
04 [83513275] (000/452) No match (V2 was not tested)
05 [65ed3a7a] (000/453) No match (V2 was not tested)
06 [ffa51f5c] (000/452) No match (V2 was not tested)
07 [893a4ceb] (000/452) No match (V2 was not tested)
08 [c48c9013] (000/455) No match (V2 was not tested)
09 [fb4189bb] (000/450) No match (V2 was not tested)
10 [acc067be] (000/452) No match (V2 was not tested)
11 [6d924bda] (000/453) No match (V2 was not tested)
12 [910637b6] (000/454) No match (V2 was not tested)
13 [5dec3ccd] (000/455) No match (V2 was not tested)
Offsetted by -700:
01 [ab2a218d] (000/452) No match (V2 was not tested)
02 [ba262080] (000/453) No match (V2 was not tested)
03 [3cae4ee7] (000/453) No match (V2 was not tested)
04 [c31675bf] (000/452) No match (V2 was not tested)
05 [7c67cada] (000/453) No match (V2 was not tested)
06 [4b612806] (000/452) No match (V2 was not tested)
07 [40a24c65] (000/452) No match (V2 was not tested)
08 [d7f87905] (000/455) No match (V2 was not tested)
09 [12da355a] (000/450) No match (V2 was not tested)
10 [6a944b6b] (000/452) No match (V2 was not tested)
11 [3d583d24] (000/453) No match (V2 was not tested)
12 [0b49f69e] (000/454) No match (V2 was not tested)
13 [13390d8b] (000/455) No match (V2 was not tested)
Offsetted by -694:
01 [aaa9e4d9] (002/452) Accurately ripped
02 [5d8e2152] (002/453) Accurately ripped
03 [62fc4a6d] (002/453) Accurately ripped
04 [079880c9] (002/452) Accurately ripped
05 [6625bf3a] (002/453) Accurately ripped
06 [6f573c70] (002/452) Accurately ripped
07 [0bcc459f] (002/452) Accurately ripped
08 [1be478b7] (002/455) Accurately ripped
09 [e777854d] (000/450) No match (V2 was not tested)
10 [5d86529c] (002/452) Accurately ripped
11 [e820362e] (002/453) Accurately ripped
12 [7a4bfc86] (002/454) Accurately ripped
13 [89c70989] (002/455) Accurately ripped
Offsetted by -181:
01 [ffd59ebb] (000/452) No match
02 [f0ca6775] (000/453) No match
03 [ae07cbae] (000/453) No match
04 [690730a0] (000/452) No match
05 [f716dd4a] (000/453) No match
06 [f2070dd7] (000/452) No match
07 [6651027e] (000/452) No match
08 [cb365eaa] (000/455) No match
09 [2dd871f1] (000/450) No match
10 [ae174e86] (000/452) No match
11 [f1e9e305] (000/453) No match
12 [0d78f582] (000/454) No match
13 [a232b2de] (000/455) No match (V2 was not tested)
Offsetted by -179:
01 [aa558a7f] (000/452) No match
02 [274267bb] (000/453) No match
03 [1021ca30] (000/453) No match
04 [7fdd344e] (000/452) No match
05 [4500d96a] (000/453) No match
06 [535914a5] (000/452) No match (V2 was not tested)
07 [ff5f003c] (000/452) No match
08 [e1da5e90] (000/455) No match
09 [cb2f1ae6] (000/450) No match
10 [aa995049] (000/452) No match
11 [d581e0b3] (000/453) No match
12 [87cef77a] (000/454) No match
13 [1f0cb188] (000/455) No match
Offsetted by -178:
01 [7f958061] (000/452) No match
02 [427e67de] (000/453) No match
03 [412ec971] (000/453) No match
04 [0b483625] (000/452) No match
05 [ebf5d77a] (000/453) No match (V2 was not tested)
06 [8402180c] (000/452) No match
07 [4be5ff1b] (000/452) No match
08 [ed2c5e83] (000/455) No match
09 [99571ade] (000/450) No match
10 [a8da512b] (000/452) No match
11 [474ddf8a] (000/453) No match
12 [c4f9f876] (000/454) No match
13 [5d79b0dd] (000/455) No match
Offsetted by -132:
01 [d113aefd] (000/452) No match (V2 was not tested)
02 [27466e28] (000/453) No match (V2 was not tested)
03 [1184a71f] (000/453) No match (V2 was not tested)
04 [18828ac7] (000/452) No match (V2 was not tested)
05 [ebfb7e5a] (000/453) No match (V2 was not tested)
06 [4260b48e] (000/452) No match (V2 was not tested)
07 [0c27cb2d] (000/452) No match (V2 was not tested)
08 [f5e85c2d] (000/455) No match (V2 was not tested)
09 [59a504b5] (000/450) No match (V2 was not tested)
10 [58be7ab0] (000/452) No match (V2 was not tested)
11 [b9f5aa2c] (000/453) No match (V2 was not tested)
12 [c2b425be] (000/454) No match (V2 was not tested)
13 [950f9223] (000/455) No match (V2 was not tested)
Offsetted by -36:
01 [c90fe3bd] (000/452) No match (V2 was not tested)
02 [5dc67b48] (000/453) No match (V2 was not tested)
03 [76645f7f] (000/453) No match (V2 was not tested)
04 [60a33b67] (000/452) No match (V2 was not tested)
05 [87dac45a] (000/453) No match (V2 was not tested)
06 [81c1fb2e] (000/452) No match (V2 was not tested)
07 [bec75ecd] (000/452) No match (V2 was not tested)
08 [34a8574d] (000/455) No match (V2 was not tested)
09 [e463a5bc] (000/450) No match (V2 was not tested)
10 [ace2d46d] (000/452) No match (V2 was not tested)
11 [66753acc] (000/453) No match (V2 was not tested)
12 [b2d4843e] (000/454) No match (V2 was not tested)
13 [fdef5203] (000/455) No match (V2 was not tested)
Offsetted by -18:
01 [c78f2da1] (000/452) No match (V2 was not tested)
02 [47fe7dbe] (000/453) No match (V2 was not tested)
03 [e94e5211] (000/453) No match (V2 was not tested)
04 [2e295c85] (000/452) No match (V2 was not tested)
05 [4514a17a] (000/453) No match (V2 was not tested)
06 [eda4386c] (000/452) No match (V2 was not tested)
07 [20454a7b] (000/452) No match (V2 was not tested)
08 [006c5663] (000/455) No match (V2 was not tested)
09 [14854d36] (000/450) No match (V2 was not tested)
10 [8b21e54b] (000/452) No match (V2 was not tested)
11 [66cd25ea] (000/453) No match (V2 was not tested)
12 [ffda95f6] (000/454) No match (V2 was not tested)
13 [619945fd] (000/455) No match (V2 was not tested)
Offsetted by 6:
01 [c58e3ad1] (000/452) No match (V2 was not tested)
02 [d59e8106] (000/453) No match (V2 was not tested)
03 [82864029] (000/453) No match (V2 was not tested)
04 [403188ad] (000/452) No match (V2 was not tested)
05 [ec0c72fa] (000/453) No match (V2 was not tested)
06 [7d7c8a14] (000/452) No match (V2 was not tested)
07 [4ced2f63] (000/452) No match (V2 was not tested)
08 [101c552b] (000/455) No match (V2 was not tested)
09 [1889ef06] (000/450) No match (V2 was not tested)
10 [5e13fbfb] (000/452) No match (V2 was not tested)
11 [11ed0a12] (000/453) No match (V2 was not tested)
12 [bbe2ad96] (000/454) No match (V2 was not tested)
13 [3bd135f5] (000/455) No match (V2 was not tested)

Track Peak [ CRC32 ] [W/O NULL] [ LOG ]
– 99,9 [4FC1130F] [3D68EFF3] CRC32
01 99,9 [76925302] [FD3D06E4]
02 99,9 [1099B9AC] [7C773B45]
03 99,9 [16C92BF9] [126B0C5E]
04 99,9 [EDDD523C] [009D09F5]
05 92,6 [A5890A54] [3918F02A]
06 99,9 [13BBAE91] [DDBE4C2C]
07 99,9 [23A03349] [E934D302]
08 99,9 [AE5C32A9] [3B24604E]
09 95,8 [0CEDD672] [11EC0DEA]
10 99,9 [E22F0E74] [D0F94A85]
11 99,9 [14489B7F] [91CDE74E]
12 93,4 [B08549DC] [F7FF11B6]
13 99,9 [CE284F95] [B34F0494]

Cassandra Wilson - New Moon Daughter (1995)


All thanks go to sergych

>>> Cassandra Wilson in my Blog <<<

DOWNLOAD: