Tags
Language
Tags

Cat Stevens - Cat Stevens aka On The Road To Find Out (In Search Of The Centre Of The Universe) (2001) 4CD Box Set [Re-Up]

Posted By: Designol
Cat Stevens - Cat Stevens aka On The Road To Find Out (In Search Of The Centre Of The Universe) (2001) 4CD Box Set [Re-Up]

Cat Stevens - Cat Stevens (2001) 4CD Box Set
aka On The Road To Find Out (In Search Of The Centre Of The Universe)

EAC | FLAC | Tracks (Cue&Log) ~ 1.61 Gb | Mp3 (CBR320) ~ 645 Mb | Scans ~ 120 Mb
Label: A&M, Universal | # 314 585 285-2 | Time: 04:41:20
Singer/Songwriter, Folk, Psychedelic, Folk-Rock, Soft Rock

Completists will be happy to own many of the rarities on this four-disc set, including Stevens's first demo session, an unreleased 1970 duet with Elton John, a cover of Fats Domino's "Blue Monday," and several choice live cuts from the late '70s. And it's nice to have an overview of the artist's entire career–from late '60s pop-star wannabe to '70s folk-rock superstar–in one place. But the difference between early Cat Stevens (despite composing hits for others) and post-Tea for the Tillerman Stevens is substantial. The two follow-up LPs were part of a trilogy of brilliance–both musically and lyrically–and any Stevens collection must start there. Nevertheless, surprises and some gems are to be found throughout all four discs–even his most recent recording (as Yusuf Islam) isn't bad. This box set also offers a choice opportunity to reassess a deserving career. (All royalties go to New York City relief victims and orphans and homeless families in underdeveloped countries.)

Bill Holdship, Amazon.com Editorial Review

On the Road to Find Out is the first multi-volume package to comprehensively examine the artistry of singer/songwriter Cat Stevens (aka Yusuf Islam). In addition to the obligatory hits, this collection also includes key album tracks, as well as 17 sides that make their digital debut here. The set is broken into four segments/discs with straightforward subtitles, each of which uncovers a specific era in the development of not only the artist, but of the person. The journey begins in The City and consists mostly of material from the first two Cat Stevens albums: Matthew & Son and New Masters. Notable inclusions are the debut album's title track as well as "The First Cut Is the Deepest" and "I Love My Dog." One very welcome addition is "Honey Man" – a collaborative effort featuring Elton John – which is being issued here for the very first time. Cat Stevens' stint with Island/A&M Records commences on The Search. The real breakthrough albums – Tea for the Tillerman and Teaser and the Firecat – are represented by tracks such as "Sad Lisa" and the achingly tender "How Can I Tell You," as well as the anticipated hits "Wild World" and "Peace Train." Of note to collectors will be "If You Want to Sing out Sing Out" and "Don't Be Shy" from the motion picture Harold and Maude, as well as previously unreleased demos for "The Joke," "Time/Fill My Eyes," "Love Lives in the Sky," and "The Day They Make Me Czar." The Hurt includes tracks from Catch Bull at Four, Foreigner, and Buddha and the Chocolate Box. Among the rarities from this era are "Crab Dance" – a 45 B-side to "Sitting" – as well as "Bad Penny" and "Lady D'arbanville" from the Japan-only live release Saturnight (Live in Tokyo). The final entry, aptly titled The Last, recalls a few significant contributions from Numbers, Izitso, and Back to Earth, as well three rare live tracks: "Hard Headed Woman," "Tuesday's Dead," and "Ruins" from a live show February 22, 1976, at William and Mary College on the Majikat Earth Tour. This version of "Father and Son" has added significance, as it would be the final live performance that Yusuf Islam would make as Cat Stevens. Ironically, the final song on the album is the title track from Islam's 1997 release, God Is the Light. The packaging is lavish and includes a 96-page liner notes booklet abounding with rare photos as well as essays and a track-by-track analysis from Islam himself. The discs are packaged in separate cardboard digi-packs. The sound is spectacular throughout, with the most noticeable improvement on the Matthew & Son and New Masters sides.

Review by Lindsay Planer, Allmusic.com

Cat Stevens - Cat Stevens aka On The Road To Find Out (In Search Of The Centre Of The Universe) (2001) 4CD Box Set [Re-Up]

Cat Stevens - Cat Stevens aka On The Road To Find Out (In Search Of The Centre Of The Universe) (2001) 4CD Box Set [Re-Up]



Tracklist:

CD1 - The City (01:05:34)

01. Back To The Good Old Times (2:50)
02. I Love My Dog (2:21)
03. Portobello Road (2:28)
04. Here Comes My Baby (2:58)
05. Matthew & Son (2:48)
06. The Tramp (2:10)
07. I'm Gonna Get Me A Gun (2:15)
08. School Is Out (3:00)
09. A Bad Night (3:14)
10. The Laughing Apple (2:39)
11. Kitty (2:23)
12. Blackness Of Night (2:32)
13. The First Cut Is The Deepest (3:04)
14. Northern Wind (2:51)
15. Moonstone (2:18)
16. Come On Baby (Shift That Log) (3:54)
17. Lonely City (When Do You Laugh?) (2:42)
18. Here Comes My Wife (3:01)
19. The View From The Top (3:35)
20. Where Are You (3:04)
21. If Only Mother Can Seem Me Now (3:05)
22. Honey Man (3:11)
23. The Joke (3:13)


CD2 - The Search (01:16:14)

01. Time - Fill My Eyes (4:10)
02. Lady D'Arbanville (3:45)
03. Trouble (2:48)
04. Pop Star (4:15)
05. Katmandu (3:23)
06. Lilywhite (3:46)
07. I've Got A Thing About Seeing My Grandson Grow Old (2:44)
08. Where Do The Children Play (3:54)
09. Wild World (3:20)
10. Sad Lisa (3:45)
11. On The Road To Find Out (5:13)
12. Father And Son (3:42)
13. Love Lives In The Sky (3:14)
14. Don't Be Shy (2:53)
15. If You Want To Sing Out, Sing Out (2:48)
16. The Day They Make Me Tsar (2:37)
17. The Wind (1:42)
18. Moonshadow (2:53)
19. Morning Has Broken (3:20)
20. How Can I Tell You (4:28)
21. Peace Train (4:13)
22. I Want To Live In A Wigwam (3:23)


CD3 The Hurt (01:10:26)

01. Crab Dance (3:03)
02. Sitting (3:15)
03. Silent Sunlight (3:01)
04. Angelsea (4:33)
05. Can't Keep It In (3:00)
06. 18th Avenue (Kanas City Nightmare) (4:18)
07. The Hurt (4:20)
08. Foreigner Suite (18:18)
09. Oh Very Young (2:39)
10. Music (4:24)
11. Sun - C79 (4:39)
12. King Of Trees (5:10)
13. Bad Penny (Live) (3:23)
14. Lady D'Arbanville (Live) (3:53)
15. Another Saturday Night (2:31)


CD4 - The Last (01:09:06)

01. Whistlestar (3:47)
02. Novim's Nightmare (3:53)
03. Majik Of Majiks (4:32)
04. Banapple Gas (3:11)
05. Blue Monday (2:23)
06. Doves (2:20)
07. Hard Headed Woman (4:14)
08. Tuesdays Dead (Live) (4:15)
09. Ruins (Live) (3:44)
10. Old Schoolyard (2:45)
11. Life (4:55)
12. I Never Wanted To Be A Star (3:05)
13. Child For A Day (4:25)
14. Just Another Night (3:49)
15. Daytime (3:59)
16. Last Love Song (3:30)
17. Never (3:04)
18. Father & Son (Live) (3:38)
19. God Is The Light (3:37)


Exact Audio Copy V1.0 beta 3 from 29. August 2011

EAC extraction logfile from 23. May 2014, 0:33

Cat Stevens / The Boxset CD01 The City

Used drive : HL-DT-STDVDRAM GSA-T50L Adapter: 1 ID: 0

Read mode : Secure
Utilize accurate stream : Yes
Defeat audio cache : Yes
Make use of C2 pointers : No

Read offset correction : 667
Overread into Lead-In and Lead-Out : No
Fill up missing offset samples with silence : Yes
Delete leading and trailing silent blocks : No
Null samples used in CRC calculations : Yes
Used interface : Native Win32 interface for Win NT & 2000
Gap handling : Appended to previous track

Used output format : User Defined Encoder
Selected bitrate : 1024 kBit/s
Quality : High
Add ID3 tag : No
Command line compressor : C:\Program Files\FLAC\flac.exe
Additional command line options : -8 -V -T "ARTIST=%artist%" -T "TITLE=%title%" -T "ALBUM=%albumtitle%" -T "DATE=%year%" -T "TRACKNUMBER=%tracknr%" -T "GENRE=%genre%" -T "PERFORMER=%albuminterpret%" -T "COMPOSER=%composer%" %haslyrics%–tag-from-file=LYRICS="%lyricsfile%"%haslyrics% -T "ALBUMARTIST=%albumartist%" -T "DISCNUMBER=%cdnumber%" -T "TOTALDISCS=%totalcds%" -T "TOTALTRACKS=%numtracks%" -T "COMMENT=%comment%" %source% -o %dest%


TOC of the extracted CD

Track | Start | Length | Start sector | End sector
––––––––––––––––––––––––––––-
1 | 0:00.00 | 2:49.55 | 0 | 12729
2 | 2:49.55 | 2:21.02 | 12730 | 23306
3 | 5:10.57 | 2:28.30 | 23307 | 34436
4 | 7:39.12 | 2:57.50 | 34437 | 47761
5 | 10:36.62 | 2:47.68 | 47762 | 60354
6 | 13:24.55 | 2:10.30 | 60355 | 70134
7 | 15:35.10 | 2:14.60 | 70135 | 80244
8 | 17:49.70 | 2:59.42 | 80245 | 93711
9 | 20:49.37 | 3:13.38 | 93712 | 108224
10 | 24:03.00 | 2:39.02 | 108225 | 120151
11 | 26:42.02 | 2:22.45 | 120152 | 130846
12 | 29:04.47 | 2:32.15 | 130847 | 142261
13 | 31:36.62 | 3:03.53 | 142262 | 156039
14 | 34:40.40 | 2:51.00 | 156040 | 168864
15 | 37:31.40 | 2:17.62 | 168865 | 179201
16 | 39:49.27 | 3:53.45 | 179202 | 196721
17 | 43:42.72 | 2:41.63 | 196722 | 208859
18 | 46:24.60 | 3:01.27 | 208860 | 222461
19 | 49:26.12 | 3:35.18 | 222462 | 238604
20 | 53:01.30 | 3:03.65 | 238605 | 252394
21 | 56:05.20 | 3:05.15 | 252395 | 266284
22 | 59:10.35 | 3:10.40 | 266285 | 280574
23 | 62:21.00 | 3:13.32 | 280575 | 295081


Track 1

Filename C:\FLAC\01 Back To The Good Old Times.wav

Pre-gap length 0:00:02.00

Peak level 77.9 %
Extraction speed 2.3 X
Track quality 100.0 %
Test CRC 57F0016A
Copy CRC 57F0016A
Accurately ripped (confidence 14) [9D86BF8A] (AR v2)
Copy OK

Track 2

Filename C:\FLAC\02 I Love My Dog.wav

Pre-gap length 0:00:02.60

Peak level 88.0 %
Extraction speed 2.3 X
Track quality 100.0 %
Test CRC 1A5B1850
Copy CRC 1A5B1850
Accurately ripped (confidence 14) [C364067D] (AR v2)
Copy OK

Track 3

Filename C:\FLAC\03 Portobello Road.wav

Pre-gap length 0:00:01.73

Peak level 75.9 %
Extraction speed 2.0 X
Track quality 99.9 %
Test CRC 7D7780B0
Copy CRC 7D7780B0
Accurately ripped (confidence 14) [609E3E5F] (AR v2)
Copy OK

Track 4

Filename C:\FLAC\04 Here Comes My Baby.wav

Pre-gap length 0:00:02.00

Peak level 84.6 %
Extraction speed 2.7 X
Track quality 100.0 %
Test CRC 2A514185
Copy CRC 2A514185
Accurately ripped (confidence 14) [0D0633A6] (AR v2)
Copy OK

Track 5

Filename C:\FLAC\05 Matthew & Son.wav

Pre-gap length 0:00:03.06

Peak level 80.1 %
Extraction speed 2.8 X
Track quality 100.0 %
Test CRC 2C57300B
Copy CRC 2C57300B
Accurately ripped (confidence 14) [D618D9D8] (AR v2)
Copy OK

Track 6

Filename C:\FLAC\06 The Tramp.wav

Pre-gap length 0:00:03.04

Peak level 58.6 %
Extraction speed 2.7 X
Track quality 100.0 %
Test CRC 98595637
Copy CRC 98595637
Accurately ripped (confidence 14) [EB418829] (AR v2)
Copy OK

Track 7

Filename C:\FLAC\07 I'm Gonna Get Me A Gun.wav

Pre-gap length 0:00:02.90

Peak level 78.8 %
Extraction speed 2.4 X
Track quality 99.9 %
Test CRC A155A6CA
Copy CRC A155A6CA
Accurately ripped (confidence 14) [13B4FA05] (AR v2)
Copy OK

Track 8

Filename C:\FLAC\08 School Is Out.wav

Pre-gap length 0:00:02.54

Peak level 74.2 %
Extraction speed 3.2 X
Track quality 100.0 %
Test CRC 54F940C5
Copy CRC 54F940C5
Accurately ripped (confidence 14) [9B7D5CBD] (AR v2)
Copy OK

Track 9

Filename C:\FLAC\09 A Bad Night.wav

Pre-gap length 0:00:02.56

Peak level 85.6 %
Extraction speed 2.9 X
Track quality 99.9 %
Test CRC 71DA6D70
Copy CRC 71DA6D70
Accurately ripped (confidence 14) [C380D34B] (AR v2)
Copy OK

Track 10

Filename C:\FLAC\10 The Laughing Apple.wav

Pre-gap length 0:00:02.60

Peak level 77.4 %
Extraction speed 2.8 X
Track quality 99.9 %
Test CRC 7E286C30
Copy CRC 7E286C30
Accurately ripped (confidence 14) [B4547001] (AR v2)
Copy OK

Track 11

Filename C:\FLAC\11 Kitty.wav

Pre-gap length 0:00:02.60

Peak level 78.6 %
Extraction speed 3.3 X
Track quality 100.0 %
Test CRC B26BDAFC
Copy CRC B26BDAFC
Accurately ripped (confidence 14) [77C652E4] (AR v2)
Copy OK

Track 12

Filename C:\FLAC\12 Blackness Of Night.wav

Pre-gap length 0:00:02.56

Peak level 78.8 %
Extraction speed 3.6 X
Track quality 100.0 %
Test CRC 4083704B
Copy CRC 4083704B
Accurately ripped (confidence 14) [D491495C] (AR v2)
Copy OK

Track 13

Filename C:\FLAC\13 The First Cut Is The Deepest.wav

Pre-gap length 0:00:02.60

Peak level 84.3 %
Extraction speed 3.8 X
Track quality 100.0 %
Test CRC 4B004437
Copy CRC 4B004437
Accurately ripped (confidence 14) [99743172] (AR v2)
Copy OK

Track 14

Filename C:\FLAC\14 Northern Wind.wav

Pre-gap length 0:00:02.57

Peak level 83.2 %
Extraction speed 3.2 X
Track quality 99.9 %
Test CRC CB4498D6
Copy CRC CB4498D6
Accurately ripped (confidence 14) [960BB0BB] (AR v2)
Copy OK

Track 15

Filename C:\FLAC\15 Moonstone.wav

Pre-gap length 0:00:02.57

Peak level 81.6 %
Extraction speed 3.8 X
Track quality 100.0 %
Test CRC 8FD8C9B4
Copy CRC 8FD8C9B4
Accurately ripped (confidence 14) [779F565C] (AR v2)
Copy OK

Track 16

Filename C:\FLAC\16 Come On Baby (Shift That Log).wav

Pre-gap length 0:00:02.26

Peak level 92.3 %
Extraction speed 4.2 X
Track quality 100.0 %
Test CRC DF4E48A8
Copy CRC DF4E48A8
Accurately ripped (confidence 14) [0B424F04] (AR v2)
Copy OK

Track 17

Filename C:\FLAC\17 Lonely City (When Do You Laugh).wav

Pre-gap length 0:00:02.56

Peak level 76.9 %
Extraction speed 4.1 X
Track quality 100.0 %
Test CRC 346E8447
Copy CRC 346E8447
Accurately ripped (confidence 14) [F283F01A] (AR v2)
Copy OK

Track 18

Filename C:\FLAC\18 Here Comes My Wife.wav

Pre-gap length 0:00:02.53

Peak level 77.4 %
Extraction speed 4.3 X
Track quality 100.0 %
Test CRC 08FF5C59
Copy CRC 08FF5C59
Accurately ripped (confidence 14) [0F4C7843] (AR v2)
Copy OK

Track 19

Filename C:\FLAC\19 The View From The Top.wav

Pre-gap length 0:00:02.56

Peak level 100.0 %
Extraction speed 4.5 X
Track quality 100.0 %
Test CRC 4E421E5A
Copy CRC 4E421E5A
Accurately ripped (confidence 14) [EE6FA433] (AR v2)
Copy OK

Track 20

Filename C:\FLAC\20 Where Are You.wav

Pre-gap length 0:00:02.60

Peak level 99.9 %
Extraction speed 4.4 X
Track quality 100.0 %
Test CRC BE95ED9D
Copy CRC BE95ED9D
Accurately ripped (confidence 14) [4BCA394F] (AR v2)
Copy OK

Track 21

Filename C:\FLAC\21 If Only Mother Can Seem Me Now.wav

Pre-gap length 0:00:02.60

Peak level 69.7 %
Extraction speed 4.6 X
Track quality 100.0 %
Test CRC 34831EA6
Copy CRC 34831EA6
Accurately ripped (confidence 14) [8126CC96] (AR v2)
Copy OK

Track 22

Filename C:\FLAC\22 Honey Man.wav

Pre-gap length 0:00:02.60

Peak level 99.7 %
Extraction speed 4.0 X
Track quality 99.9 %
Test CRC A3565CD3
Copy CRC A3565CD3
Accurately ripped (confidence 14) [7C49B922] (AR v2)
Copy OK

Track 23

Filename C:\FLAC\23 The Joke.wav

Pre-gap length 0:00:01.80

Peak level 70.6 %
Extraction speed 4.8 X
Track quality 100.0 %
Test CRC 4201908A
Copy CRC 4201908A
Accurately ripped (confidence 14) [9B221215] (AR v2)
Copy OK


All tracks accurately ripped

No errors occurred

End of status report

==== Log checksum 7B40E3FE0C02B537C6C797A1E611C8D4DE5B3137306F4E9431BD8327F4BDDC7D ====

––––––––––––––––––––––––––––––

Exact Audio Copy V1.0 beta 3 from 29. August 2011

EAC extraction logfile from 23. May 2014, 0:33

Cat Stevens / The Boxset CD01 The City

Used drive : HL-DT-STDVDRAM GSA-T50L Adapter: 1 ID: 0

Read mode : Secure
Utilize accurate stream : Yes
Defeat audio cache : Yes
Make use of C2 pointers : No

Read offset correction : 667
Overread into Lead-In and Lead-Out : No
Fill up missing offset samples with silence : Yes
Delete leading and trailing silent blocks : No
Null samples used in CRC calculations : Yes
Used interface : Native Win32 interface for Win NT & 2000
Gap handling : Appended to previous track

Used output format : User Defined Encoder
Selected bitrate : 1024 kBit/s
Quality : High
Add ID3 tag : No
Command line compressor : C:\Program Files\FLAC\flac.exe
Additional command line options : -8 -V -T "ARTIST=%artist%" -T "TITLE=%title%" -T "ALBUM=%albumtitle%" -T "DATE=%year%" -T "TRACKNUMBER=%tracknr%" -T "GENRE=%genre%" -T "PERFORMER=%albuminterpret%" -T "COMPOSER=%composer%" %haslyrics%–tag-from-file=LYRICS="%lyricsfile%"%haslyrics% -T "ALBUMARTIST=%albumartist%" -T "DISCNUMBER=%cdnumber%" -T "TOTALDISCS=%totalcds%" -T "TOTALTRACKS=%numtracks%" -T "COMMENT=%comment%" %source% -o %dest%


TOC of the extracted CD

Track | Start | Length | Start sector | End sector
––––––––––––––––––––––––––––-
1 | 0:00.00 | 2:49.55 | 0 | 12729
2 | 2:49.55 | 2:21.02 | 12730 | 23306
3 | 5:10.57 | 2:28.30 | 23307 | 34436
4 | 7:39.12 | 2:57.50 | 34437 | 47761
5 | 10:36.62 | 2:47.68 | 47762 | 60354
6 | 13:24.55 | 2:10.30 | 60355 | 70134
7 | 15:35.10 | 2:14.60 | 70135 | 80244
8 | 17:49.70 | 2:59.42 | 80245 | 93711
9 | 20:49.37 | 3:13.38 | 93712 | 108224
10 | 24:03.00 | 2:39.02 | 108225 | 120151
11 | 26:42.02 | 2:22.45 | 120152 | 130846
12 | 29:04.47 | 2:32.15 | 130847 | 142261
13 | 31:36.62 | 3:03.53 | 142262 | 156039
14 | 34:40.40 | 2:51.00 | 156040 | 168864
15 | 37:31.40 | 2:17.62 | 168865 | 179201
16 | 39:49.27 | 3:53.45 | 179202 | 196721
17 | 43:42.72 | 2:41.63 | 196722 | 208859
18 | 46:24.60 | 3:01.27 | 208860 | 222461
19 | 49:26.12 | 3:35.18 | 222462 | 238604
20 | 53:01.30 | 3:03.65 | 238605 | 252394
21 | 56:05.20 | 3:05.15 | 252395 | 266284
22 | 59:10.35 | 3:10.40 | 266285 | 280574
23 | 62:21.00 | 3:13.32 | 280575 | 295081


Track 1

Filename C:\FLAC\01 Back To The Good Old Times.wav

Pre-gap length 0:00:02.00

Peak level 77.9 %
Extraction speed 2.3 X
Track quality 100.0 %
Test CRC 57F0016A
Copy CRC 57F0016A
Accurately ripped (confidence 14) [9D86BF8A] (AR v2)
Copy OK

Track 2

Filename C:\FLAC\02 I Love My Dog.wav

Pre-gap length 0:00:02.60

Peak level 88.0 %
Extraction speed 2.3 X
Track quality 100.0 %
Test CRC 1A5B1850
Copy CRC 1A5B1850
Accurately ripped (confidence 14) [C364067D] (AR v2)
Copy OK

Track 3

Filename C:\FLAC\03 Portobello Road.wav

Pre-gap length 0:00:01.73

Peak level 75.9 %
Extraction speed 2.0 X
Track quality 99.9 %
Test CRC 7D7780B0
Copy CRC 7D7780B0
Accurately ripped (confidence 14) [609E3E5F] (AR v2)
Copy OK

Track 4

Filename C:\FLAC\04 Here Comes My Baby.wav

Pre-gap length 0:00:02.00

Peak level 84.6 %
Extraction speed 2.7 X
Track quality 100.0 %
Test CRC 2A514185
Copy CRC 2A514185
Accurately ripped (confidence 14) [0D0633A6] (AR v2)
Copy OK

Track 5

Filename C:\FLAC\05 Matthew & Son.wav

Pre-gap length 0:00:03.06

Peak level 80.1 %
Extraction speed 2.8 X
Track quality 100.0 %
Test CRC 2C57300B
Copy CRC 2C57300B
Accurately ripped (confidence 14) [D618D9D8] (AR v2)
Copy OK

Track 6

Filename C:\FLAC\06 The Tramp.wav

Pre-gap length 0:00:03.04

Peak level 58.6 %
Extraction speed 2.7 X
Track quality 100.0 %
Test CRC 98595637
Copy CRC 98595637
Accurately ripped (confidence 14) [EB418829] (AR v2)
Copy OK

Track 7

Filename C:\FLAC\07 I'm Gonna Get Me A Gun.wav

Pre-gap length 0:00:02.90

Peak level 78.8 %
Extraction speed 2.4 X
Track quality 99.9 %
Test CRC A155A6CA
Copy CRC A155A6CA
Accurately ripped (confidence 14) [13B4FA05] (AR v2)
Copy OK

Track 8

Filename C:\FLAC\08 School Is Out.wav

Pre-gap length 0:00:02.54

Peak level 74.2 %
Extraction speed 3.2 X
Track quality 100.0 %
Test CRC 54F940C5
Copy CRC 54F940C5
Accurately ripped (confidence 14) [9B7D5CBD] (AR v2)
Copy OK

Track 9

Filename C:\FLAC\09 A Bad Night.wav

Pre-gap length 0:00:02.56

Peak level 85.6 %
Extraction speed 2.9 X
Track quality 99.9 %
Test CRC 71DA6D70
Copy CRC 71DA6D70
Accurately ripped (confidence 14) [C380D34B] (AR v2)
Copy OK

Track 10

Filename C:\FLAC\10 The Laughing Apple.wav

Pre-gap length 0:00:02.60

Peak level 77.4 %
Extraction speed 2.8 X
Track quality 99.9 %
Test CRC 7E286C30
Copy CRC 7E286C30
Accurately ripped (confidence 14) [B4547001] (AR v2)
Copy OK

Track 11

Filename C:\FLAC\11 Kitty.wav

Pre-gap length 0:00:02.60

Peak level 78.6 %
Extraction speed 3.3 X
Track quality 100.0 %
Test CRC B26BDAFC
Copy CRC B26BDAFC
Accurately ripped (confidence 14) [77C652E4] (AR v2)
Copy OK

Track 12

Filename C:\FLAC\12 Blackness Of Night.wav

Pre-gap length 0:00:02.56

Peak level 78.8 %
Extraction speed 3.6 X
Track quality 100.0 %
Test CRC 4083704B
Copy CRC 4083704B
Accurately ripped (confidence 14) [D491495C] (AR v2)
Copy OK

Track 13

Filename C:\FLAC\13 The First Cut Is The Deepest.wav

Pre-gap length 0:00:02.60

Peak level 84.3 %
Extraction speed 3.8 X
Track quality 100.0 %
Test CRC 4B004437
Copy CRC 4B004437
Accurately ripped (confidence 14) [99743172] (AR v2)
Copy OK

Track 14

Filename C:\FLAC\14 Northern Wind.wav

Pre-gap length 0:00:02.57

Peak level 83.2 %
Extraction speed 3.2 X
Track quality 99.9 %
Test CRC CB4498D6
Copy CRC CB4498D6
Accurately ripped (confidence 14) [960BB0BB] (AR v2)
Copy OK

Track 15

Filename C:\FLAC\15 Moonstone.wav

Pre-gap length 0:00:02.57

Peak level 81.6 %
Extraction speed 3.8 X
Track quality 100.0 %
Test CRC 8FD8C9B4
Copy CRC 8FD8C9B4
Accurately ripped (confidence 14) [779F565C] (AR v2)
Copy OK

Track 16

Filename C:\FLAC\16 Come On Baby (Shift That Log).wav

Pre-gap length 0:00:02.26

Peak level 92.3 %
Extraction speed 4.2 X
Track quality 100.0 %
Test CRC DF4E48A8
Copy CRC DF4E48A8
Accurately ripped (confidence 14) [0B424F04] (AR v2)
Copy OK

Track 17

Filename C:\FLAC\17 Lonely City (When Do You Laugh).wav

Pre-gap length 0:00:02.56

Peak level 76.9 %
Extraction speed 4.1 X
Track quality 100.0 %
Test CRC 346E8447
Copy CRC 346E8447
Accurately ripped (confidence 14) [F283F01A] (AR v2)
Copy OK

Track 18

Filename C:\FLAC\18 Here Comes My Wife.wav

Pre-gap length 0:00:02.53

Peak level 77.4 %
Extraction speed 4.3 X
Track quality 100.0 %
Test CRC 08FF5C59
Copy CRC 08FF5C59
Accurately ripped (confidence 14) [0F4C7843] (AR v2)
Copy OK

Track 19

Filename C:\FLAC\19 The View From The Top.wav

Pre-gap length 0:00:02.56

Peak level 100.0 %
Extraction speed 4.5 X
Track quality 100.0 %
Test CRC 4E421E5A
Copy CRC 4E421E5A
Accurately ripped (confidence 14) [EE6FA433] (AR v2)
Copy OK

Track 20

Filename C:\FLAC\20 Where Are You.wav

Pre-gap length 0:00:02.60

Peak level 99.9 %
Extraction speed 4.4 X
Track quality 100.0 %
Test CRC BE95ED9D
Copy CRC BE95ED9D
Accurately ripped (confidence 14) [4BCA394F] (AR v2)
Copy OK

Track 21

Filename C:\FLAC\21 If Only Mother Can Seem Me Now.wav

Pre-gap length 0:00:02.60

Peak level 69.7 %
Extraction speed 4.6 X
Track quality 100.0 %
Test CRC 34831EA6
Copy CRC 34831EA6
Accurately ripped (confidence 14) [8126CC96] (AR v2)
Copy OK

Track 22

Filename C:\FLAC\22 Honey Man.wav

Pre-gap length 0:00:02.60

Peak level 99.7 %
Extraction speed 4.0 X
Track quality 99.9 %
Test CRC A3565CD3
Copy CRC A3565CD3
Accurately ripped (confidence 14) [7C49B922] (AR v2)
Copy OK

Track 23

Filename C:\FLAC\23 The Joke.wav

Pre-gap length 0:00:01.80

Peak level 70.6 %
Extraction speed 4.8 X
Track quality 100.0 %
Test CRC 4201908A
Copy CRC 4201908A
Accurately ripped (confidence 14) [9B221215] (AR v2)
Copy OK


All tracks accurately ripped

No errors occurred

End of status report

==== Log checksum 7B40E3FE0C02B537C6C797A1E611C8D4DE5B3137306F4E9431BD8327F4BDDC7D ====

[CUETools log; Date: 08.11.2018 17:44:22; Version: 2.1.4]
[CTDB TOCID: TeuZepeLPr4K32AoJTNqMBCBIxA-] found.
Track | CTDB Status
1 | (57/57) Accurately ripped
2 | (57/57) Accurately ripped
3 | (57/57) Accurately ripped
4 | (57/57) Accurately ripped
5 | (57/57) Accurately ripped
6 | (57/57) Accurately ripped
7 | (57/57) Accurately ripped
8 | (57/57) Accurately ripped
9 | (57/57) Accurately ripped
10 | (57/57) Accurately ripped
11 | (57/57) Accurately ripped
12 | (57/57) Accurately ripped
13 | (57/57) Accurately ripped
14 | (57/57) Accurately ripped
15 | (57/57) Accurately ripped
16 | (56/57) Accurately ripped
17 | (56/57) Accurately ripped
18 | (55/57) Accurately ripped
19 | (55/57) Accurately ripped
20 | (57/57) Accurately ripped
21 | (57/57) Accurately ripped
22 | (55/57) Accurately ripped
23 | (56/57) Accurately ripped
[AccurateRip ID: 0033b74e-0365faf8-4d0f5e17] found.
Track [ CRC | V2 ] Status
01 [59e3fcd8|9d86bf8a] (24+24/77) Accurately ripped
02 [4eee784d|c364067d] (24+24/78) Accurately ripped
03 [02999c38|609e3e5f] (24+24/78) Accurately ripped
04 [f070cb65|0d0633a6] (24+24/78) Accurately ripped
05 [c475d453|d618d9d8] (24+24/77) Accurately ripped
06 [ba81b8fd|eb418829] (24+24/77) Accurately ripped
07 [9d070735|13b4fa05] (24+24/77) Accurately ripped
08 [4ce657dc|9b7d5cbd] (24+24/77) Accurately ripped
09 [8b978406|c380d34b] (24+24/77) Accurately ripped
10 [3367adaf|b4547001] (24+24/77) Accurately ripped
11 [125e63c9|77c652e4] (24+24/77) Accurately ripped
12 [f5b7bcf9|d491495c] (23+24/77) Accurately ripped
13 [763b8dec|99743172] (23+24/77) Accurately ripped
14 [5de5fc71|960bb0bb] (23+24/77) Accurately ripped
15 [b1e392ce|779f565c] (22+24/75) Accurately ripped
16 [b0e20237|0b424f04] (22+23/74) Accurately ripped
17 [c1c5b2c6|f283f01a] (21+23/72) Accurately ripped
18 [07068472|0f4c7843] (22+23/74) Accurately ripped
19 [e981230d|ee6fa433] (22+24/75) Accurately ripped
20 [786c62e5|4bca394f] (23+24/74) Accurately ripped
21 [78313b18|8126cc96] (23+24/74) Accurately ripped
22 [417bcb24|7c49b922] (23+24/75) Accurately ripped
23 [97366e2a|9b221215] (23+24/74) Accurately ripped
Offsetted by -664:
01 [e948b780] (10/77) Accurately ripped
02 [b2acfbc5] (11/78) Accurately ripped
03 [de0fda38] (11/78) Accurately ripped
04 [2f721ac5] (11/78) Accurately ripped
05 [17036ffb] (10/77) Accurately ripped
06 [95cbbf85] (10/77) Accurately ripped
07 [a933e4cd] (10/77) Accurately ripped
08 [02ced8e4] (10/77) Accurately ripped
09 [58611ea6] (10/77) Accurately ripped
10 [01604f27] (10/77) Accurately ripped
11 [775d13a1] (10/77) Accurately ripped
12 [ff1699f1] (11/77) Accurately ripped
13 [609039d4] (11/77) Accurately ripped
14 [16f15f59] (11/77) Accurately ripped
15 [225b0976] (10/75) Accurately ripped
16 [2866449f] (10/74) Accurately ripped
17 [6bb9606e] (10/72) Accurately ripped
18 [5bd7f1da] (10/74) Accurately ripped
19 [7120ed7d] (10/75) Accurately ripped
20 [1d974b1d] (10/74) Accurately ripped
21 [c65a72a0] (10/74) Accurately ripped
22 [2fc3ff34] (10/75) Accurately ripped
23 [e535893b] (09/74) Accurately ripped
Offsetted by -10:
01 [d6a70bfe] (02/77) Accurately ripped
02 [84de0fdf] (02/78) Accurately ripped
03 [cc12e8b8] (02/78) Accurately ripped
04 [f9df144d] (02/78) Accurately ripped
05 [1b4b3d39] (02/77) Accurately ripped
06 [361932eb] (02/77) Accurately ripped
07 [3f23767f] (02/77) Accurately ripped
08 [4bc8b02a] (02/77) Accurately ripped
09 [4f72749e] (02/77) Accurately ripped
10 [414d59c1] (02/77) Accurately ripped
11 [fcc1d703] (02/77) Accurately ripped
12 [3766a92b] (02/77) Accurately ripped
13 [101f8742] (02/77) Accurately ripped
14 [248a6607] (02/77) Accurately ripped
15 [77702af4] (02/75) Accurately ripped
16 [83a58aed] (02/74) Accurately ripped
17 [3d645b2c] (02/72) Accurately ripped
18 [e6600868] (02/74) Accurately ripped
19 [73420051] (02/75) Accurately ripped
20 [0b1a86c7] (02/74) Accurately ripped
21 [0fbb1ac6] (02/74) Accurately ripped
22 [3bd1b340] (02/75) Accurately ripped
23 [2ca98154] (02/74) Accurately ripped

Track Peak [ CRC32 ] [W/O NULL] [ LOG ]
– 99,9 [D5B7E217] [9399A61E]
01 77,9 [57F0016A] [C7282565] CRC32
02 88,0 [1A5B1850] [F149059A] CRC32
03 75,9 [7D7780B0] [0BBB50CF] CRC32
04 84,6 [2A514185] [4924D63E] CRC32
05 80,1 [2C57300B] [70E97C97] CRC32
06 58,6 [98595637] [C9FE3F26] CRC32
07 78,8 [A155A6CA] [5267D658] CRC32
08 74,2 [54F940C5] [AD8DBA94] CRC32
09 85,6 [71DA6D70] [8191AA93] CRC32
10 77,4 [7E286C30] [CA0B226C] CRC32
11 78,6 [B26BDAFC] [FBFC5A63] CRC32
12 78,8 [4083704B] [3F907D67] CRC32
13 84,3 [4B004437] [5680BAE8] CRC32
14 83,2 [CB4498D6] [4FA80EBA] CRC32
15 81,6 [8FD8C9B4] [C26E731A] CRC32
16 92,3 [DF4E48A8] [4B7862F6] CRC32
17 76,9 [346E8447] [8A623A23] CRC32
18 77,4 [08FF5C59] [6F99957E] CRC32
19 99,9 [4E421E5A] [7409C4B6] CRC32
20 99,9 [BE95ED9D] [F1CBB599] CRC32
21 69,7 [34831EA6] [0E1DE32B] CRC32
22 99,7 [A3565CD3] [73E9AB51] CRC32
23 70,6 [4201908A] [97160F5D] CRC32

foobar2000 1.2 / Dynamic Range Meter 1.1.1
log date: 2018-11-10 20:42:29

––––––––––––––––––––––––––––––––––––––––
Analyzed: Cat Stevens / The Boxset CD01 The City
––––––––––––––––––––––––––––––––––––––––

DR Peak RMS Duration Track
––––––––––––––––––––––––––––––––––––––––
DR9 -2.17 dB -13.47 dB 2:50 01-Back To The Good Old Times
DR8 -1.10 dB -12.21 dB 2:21 02-I Love My Dog
DR10 -2.39 dB -15.94 dB 2:28 03-Portobello Road
DR10 -1.45 dB -13.32 dB 2:58 04-Here Comes My Baby
DR9 -1.92 dB -14.56 dB 2:48 05-Matthew & Son
DR8 -4.64 dB -14.26 dB 2:10 06-The Tramp
DR9 -2.06 dB -13.46 dB 2:15 07-I'm Gonna Get Me A Gun
DR8 -2.58 dB -12.75 dB 3:00 08-School Is Out
DR9 -1.35 dB -13.64 dB 3:14 09-A Bad Night
DR11 -2.22 dB -15.26 dB 2:39 10-The Laughing Apple
DR10 -2.09 dB -14.14 dB 2:23 11-Kitty
DR10 -2.07 dB -14.37 dB 2:32 12-Blackness Of Night
DR9 -1.48 dB -13.71 dB 3:04 13-The First Cut Is The Deepest
DR10 -1.59 dB -13.96 dB 2:51 14-Northern Wind
DR11 -1.77 dB -15.90 dB 2:18 15-Moonstone
DR10 -0.69 dB -14.39 dB 3:54 16-Come On Baby (Shift That Log)
DR9 -2.27 dB -13.44 dB 2:42 17-Lonely City (When Do You Laugh?)
DR9 -2.22 dB -13.03 dB 3:01 18-Here Comes My Wife
DR11 0.00 dB -13.56 dB 3:35 19-The View From The Top
DR12 0.00 dB -14.79 dB 3:04 20-Where Are You
DR8 -3.13 dB -13.61 dB 3:05 21-If Only Mother Can Seem Me Now
DR10 -0.02 dB -12.79 dB 3:11 22-Honey Man
DR9 -3.02 dB -14.03 dB 3:13 23-The Joke
––––––––––––––––––––––––––––––––––––––––

Number of tracks: 23
Official DR value: DR10

Samplerate: 44100 Hz
Channels: 2
Bits per sample: 16
Bitrate: 901 kbps
Codec: FLAC
================================================================================


Exact Audio Copy V1.0 beta 3 from 29. August 2011

EAC extraction logfile from 23. May 2014, 7:49

Cat Stevens / The Boxset CD02 The Search

Used drive : HL-DT-STDVDRAM GSA-T50L Adapter: 1 ID: 0

Read mode : Secure
Utilize accurate stream : Yes
Defeat audio cache : Yes
Make use of C2 pointers : No

Read offset correction : 667
Overread into Lead-In and Lead-Out : No
Fill up missing offset samples with silence : Yes
Delete leading and trailing silent blocks : No
Null samples used in CRC calculations : Yes
Used interface : Native Win32 interface for Win NT & 2000
Gap handling : Appended to previous track

Used output format : User Defined Encoder
Selected bitrate : 1024 kBit/s
Quality : High
Add ID3 tag : No
Command line compressor : C:\Program Files\FLAC\flac.exe
Additional command line options : -8 -V -T "ARTIST=%artist%" -T "TITLE=%title%" -T "ALBUM=%albumtitle%" -T "DATE=%year%" -T "TRACKNUMBER=%tracknr%" -T "GENRE=%genre%" -T "PERFORMER=%albuminterpret%" -T "COMPOSER=%composer%" %haslyrics%–tag-from-file=LYRICS="%lyricsfile%"%haslyrics% -T "ALBUMARTIST=%albumartist%" -T "DISCNUMBER=%cdnumber%" -T "TOTALDISCS=%totalcds%" -T "TOTALTRACKS=%numtracks%" -T "COMMENT=%comment%" %source% -o %dest%


TOC of the extracted CD

Track | Start | Length | Start sector | End sector
––––––––––––––––––––––––––––-
1 | 0:00.00 | 4:09.62 | 0 | 18736
2 | 4:09.62 | 3:44.70 | 18737 | 35606
3 | 7:54.57 | 2:47.55 | 35607 | 48186
4 | 10:42.37 | 4:14.45 | 48187 | 67281
5 | 14:57.07 | 3:22.50 | 67282 | 82481
6 | 18:19.57 | 3:46.03 | 82482 | 99434
7 | 22:05.60 | 2:44.25 | 99435 | 111759
8 | 24:50.10 | 3:53.47 | 111760 | 129281
9 | 28:43.57 | 3:20.23 | 129282 | 144304
10 | 32:04.05 | 3:45.15 | 144305 | 161194
11 | 35:49.20 | 5:12.65 | 161195 | 184659
12 | 41:02.10 | 3:42.37 | 184660 | 201346
13 | 44:44.47 | 3:13.58 | 201347 | 215879
14 | 47:58.30 | 2:52.52 | 215880 | 228831
15 | 50:51.07 | 2:47.48 | 228832 | 241404
16 | 53:38.55 | 2:36.57 | 241405 | 253161
17 | 56:15.37 | 1:41.70 | 253162 | 260806
18 | 57:57.32 | 2:52.60 | 260807 | 273766
19 | 60:50.17 | 3:19.58 | 273767 | 288749
20 | 64:10.00 | 4:27.57 | 288750 | 308831
21 | 68:37.57 | 4:12.63 | 308832 | 327794
22 | 72:50.45 | 3:23.37 | 327795 | 343056


Track 1

Filename C:\FLAC\01 Time - Fill My Eyes.wav

Pre-gap length 0:00:02.00

Peak level 85.7 %
Extraction speed 2.5 X
Track quality 100.0 %
Test CRC 3D7B9E34
Copy CRC 3D7B9E34
Accurately ripped (confidence 14) [566670E2] (AR v2)
Copy OK

Track 2

Filename C:\FLAC\02 Lady D'Arbanville.wav

Pre-gap length 0:00:02.56

Peak level 89.0 %
Extraction speed 2.7 X
Track quality 100.0 %
Test CRC DB7F8D28
Copy CRC DB7F8D28
Accurately ripped (confidence 14) [21DDB2A5] (AR v2)
Copy OK

Track 3

Filename C:\FLAC\03 Trouble.wav

Pre-gap length 0:00:02.60

Peak level 99.8 %
Extraction speed 2.7 X
Track quality 100.0 %
Test CRC 44E89B06
Copy CRC 44E89B06
Accurately ripped (confidence 14) [F105076B] (AR v2)
Copy OK

Track 4

Filename C:\FLAC\04 Pop Star.wav

Pre-gap length 0:00:01.09

Peak level 99.8 %
Extraction speed 2.7 X
Track quality 99.9 %
Test CRC EAB281B8
Copy CRC EAB281B8
Accurately ripped (confidence 14) [E9E2006E] (AR v2)
Copy OK

Track 5

Filename C:\FLAC\05 Katmandu.wav

Pre-gap length 0:00:01.40

Peak level 99.7 %
Extraction speed 3.1 X
Track quality 100.0 %
Test CRC 8865CD03
Copy CRC 8865CD03
Accurately ripped (confidence 14) [7E3D1C07] (AR v2)
Copy OK

Track 6

Filename C:\FLAC\06 Lilywhite.wav

Pre-gap length 0:00:02.56

Peak level 93.3 %
Extraction speed 3.3 X
Track quality 100.0 %
Test CRC 61CDF3DA
Copy CRC 61CDF3DA
Accurately ripped (confidence 14) [6D76335A] (AR v2)
Copy OK

Track 7

Filename C:\FLAC\07 I've Got A Thing About Seeing My Grandson Grow Old.wav

Pre-gap length 0:00:02.57

Peak level 62.9 %
Extraction speed 2.7 X
Track quality 99.9 %
Test CRC 7F4B4CC2
Copy CRC 7F4B4CC2
Accurately ripped (confidence 14) [414E985C] (AR v2)
Copy OK

Track 8

Filename C:\FLAC\08 Where Do The Children Play.wav

Pre-gap length 0:00:02.50

Peak level 99.8 %
Extraction speed 3.5 X
Track quality 100.0 %
Test CRC 97D2755B
Copy CRC 97D2755B
Accurately ripped (confidence 14) [F850C14D] (AR v2)
Copy OK

Track 9

Filename C:\FLAC\09 Wild World.wav

Pre-gap length 0:00:01.40

Peak level 94.2 %
Extraction speed 3.7 X
Track quality 100.0 %
Test CRC F87C715E
Copy CRC F87C715E
Accurately ripped (confidence 14) [1CB95B13] (AR v2)
Copy OK

Track 10

Filename C:\FLAC\10 Sad Lisa.wav

Peak level 93.1 %
Extraction speed 3.9 X
Track quality 100.0 %
Test CRC 87B6559F
Copy CRC 87B6559F
Accurately ripped (confidence 14) [12F94C66] (AR v2)
Copy OK

Track 11

Filename C:\FLAC\11 On The Road To Find Out.wav

Peak level 89.0 %
Extraction speed 4.2 X
Track quality 100.0 %
Test CRC B9831E2B
Copy CRC B9831E2B
Accurately ripped (confidence 14) [2C4A6596] (AR v2)
Copy OK

Track 12

Filename C:\FLAC\12 Father And Son.wav

Pre-gap length 0:00:04.70

Peak level 99.9 %
Extraction speed 4.2 X
Track quality 100.0 %
Test CRC 31B9F646
Copy CRC 31B9F646
Accurately ripped (confidence 14) [EDD58792] (AR v2)
Copy OK

Track 13

Filename C:\FLAC\13 Love Lives In The Sky.wav

Pre-gap length 0:00:01.33

Peak level 74.7 %
Extraction speed 4.1 X
Track quality 100.0 %
Test CRC 4554479B
Copy CRC 4554479B
Accurately ripped (confidence 14) [67FC34C0] (AR v2)
Copy OK

Track 14

Filename C:\FLAC\14 Don't Be Shy.wav

Pre-gap length 0:00:01.46

Peak level 100.0 %
Extraction speed 4.2 X
Track quality 100.0 %
Test CRC D9E90355
Copy CRC D9E90355
Accurately ripped (confidence 14) [29EB24D0] (AR v2)
Copy OK

Track 15

Filename C:\FLAC\15 If You Want To Sing Out, Sing Out.wav

Pre-gap length 0:00:01.40

Peak level 86.5 %
Extraction speed 3.5 X
Track quality 99.9 %
Test CRC 5AAFFA4F
Copy CRC 5AAFFA4F
Accurately ripped (confidence 14) [7516AFAA] (AR v2)
Copy OK

Track 16

Filename C:\FLAC\16 The Day They Make Me Tsar.wav

Pre-gap length 0:00:02.50

Peak level 58.0 %
Extraction speed 4.3 X
Track quality 100.0 %
Test CRC 6A3A2168
Copy CRC 6A3A2168
Accurately ripped (confidence 14) [5E739519] (AR v2)
Copy OK

Track 17

Filename C:\FLAC\17 The Wind.wav

Pre-gap length 0:00:02.73

Peak level 84.5 %
Extraction speed 3.0 X
Track quality 99.8 %
Test CRC 2D53C410
Copy CRC 2D53C410
Accurately ripped (confidence 14) [97239263] (AR v2)
Copy OK

Track 18

Filename C:\FLAC\18 Moonshadow.wav

Peak level 99.8 %
Extraction speed 4.5 X
Track quality 100.0 %
Test CRC 0CA8DCE4
Copy CRC 0CA8DCE4
Accurately ripped (confidence 14) [F9DE3D97] (AR v2)
Copy OK

Track 19

Filename C:\FLAC\19 Morning Has Broken.wav

Peak level 88.9 %
Extraction speed 4.5 X
Track quality 100.0 %
Test CRC 99C68880
Copy CRC 99C68880
Accurately ripped (confidence 14) [D49A32C9] (AR v2)
Copy OK

Track 20

Filename C:\FLAC\20 How Can I Tell You.wav

Peak level 88.8 %
Extraction speed 4.9 X
Track quality 100.0 %
Test CRC AE9DE6CC
Copy CRC AE9DE6CC
Accurately ripped (confidence 14) [062913AB] (AR v2)
Copy OK

Track 21

Filename C:\FLAC\21 Peace Train.wav

Peak level 79.2 %
Extraction speed 4.9 X
Track quality 100.0 %
Test CRC 82BFD062
Copy CRC 82BFD062
Accurately ripped (confidence 14) [F0178D44] (AR v2)
Copy OK

Track 22

Filename C:\FLAC\22 I Want To Live In A Wigwam.wav

Pre-gap length 0:00:01.73

Peak level 70.6 %
Extraction speed 4.9 X
Track quality 100.0 %
Test CRC BEC845A4
Copy CRC BEC845A4
Accurately ripped (confidence 14) [8E5B0DE1] (AR v2)
Copy OK


All tracks accurately ripped

No errors occurred

End of status report

==== Log checksum A063A4856F4087EC5951C456062E29FC013810B51061F5B4E080C644C1489AEC ====

––––––––––––––––––––––––––––––

Exact Audio Copy V1.0 beta 3 from 29. August 2011

EAC extraction logfile from 23. May 2014, 7:50

Cat Stevens / The Boxset CD02 The Search

Used drive : HL-DT-STDVDRAM GSA-T50L Adapter: 1 ID: 0

Read mode : Secure
Utilize accurate stream : Yes
Defeat audio cache : Yes
Make use of C2 pointers : No

Read offset correction : 667
Overread into Lead-In and Lead-Out : No
Fill up missing offset samples with silence : Yes
Delete leading and trailing silent blocks : No
Null samples used in CRC calculations : Yes
Used interface : Native Win32 interface for Win NT & 2000
Gap handling : Appended to previous track

Used output format : User Defined Encoder
Selected bitrate : 1024 kBit/s
Quality : High
Add ID3 tag : No
Command line compressor : C:\Program Files\FLAC\flac.exe
Additional command line options : -8 -V -T "ARTIST=%artist%" -T "TITLE=%title%" -T "ALBUM=%albumtitle%" -T "DATE=%year%" -T "TRACKNUMBER=%tracknr%" -T "GENRE=%genre%" -T "PERFORMER=%albuminterpret%" -T "COMPOSER=%composer%" %haslyrics%–tag-from-file=LYRICS="%lyricsfile%"%haslyrics% -T "ALBUMARTIST=%albumartist%" -T "DISCNUMBER=%cdnumber%" -T "TOTALDISCS=%totalcds%" -T "TOTALTRACKS=%numtracks%" -T "COMMENT=%comment%" %source% -o %dest%


TOC of the extracted CD

Track | Start | Length | Start sector | End sector
––––––––––––––––––––––––––––-
1 | 0:00.00 | 4:09.62 | 0 | 18736
2 | 4:09.62 | 3:44.70 | 18737 | 35606
3 | 7:54.57 | 2:47.55 | 35607 | 48186
4 | 10:42.37 | 4:14.45 | 48187 | 67281
5 | 14:57.07 | 3:22.50 | 67282 | 82481
6 | 18:19.57 | 3:46.03 | 82482 | 99434
7 | 22:05.60 | 2:44.25 | 99435 | 111759
8 | 24:50.10 | 3:53.47 | 111760 | 129281
9 | 28:43.57 | 3:20.23 | 129282 | 144304
10 | 32:04.05 | 3:45.15 | 144305 | 161194
11 | 35:49.20 | 5:12.65 | 161195 | 184659
12 | 41:02.10 | 3:42.37 | 184660 | 201346
13 | 44:44.47 | 3:13.58 | 201347 | 215879
14 | 47:58.30 | 2:52.52 | 215880 | 228831
15 | 50:51.07 | 2:47.48 | 228832 | 241404
16 | 53:38.55 | 2:36.57 | 241405 | 253161
17 | 56:15.37 | 1:41.70 | 253162 | 260806
18 | 57:57.32 | 2:52.60 | 260807 | 273766
19 | 60:50.17 | 3:19.58 | 273767 | 288749
20 | 64:10.00 | 4:27.57 | 288750 | 308831
21 | 68:37.57 | 4:12.63 | 308832 | 327794
22 | 72:50.45 | 3:23.37 | 327795 | 343056


Track 1

Filename C:\FLAC\01 Time - Fill My Eyes.wav

Pre-gap length 0:00:02.00

Peak level 85.7 %
Extraction speed 2.5 X
Track quality 100.0 %
Test CRC 3D7B9E34
Copy CRC 3D7B9E34
Accurately ripped (confidence 14) [566670E2] (AR v2)
Copy OK

Track 2

Filename C:\FLAC\02 Lady D'Arbanville.wav

Pre-gap length 0:00:02.56

Peak level 89.0 %
Extraction speed 2.7 X
Track quality 100.0 %
Test CRC DB7F8D28
Copy CRC DB7F8D28
Accurately ripped (confidence 14) [21DDB2A5] (AR v2)
Copy OK

Track 3

Filename C:\FLAC\03 Trouble.wav

Pre-gap length 0:00:02.60

Peak level 99.8 %
Extraction speed 2.7 X
Track quality 100.0 %
Test CRC 44E89B06
Copy CRC 44E89B06
Accurately ripped (confidence 14) [F105076B] (AR v2)
Copy OK

Track 4

Filename C:\FLAC\04 Pop Star.wav

Pre-gap length 0:00:01.09

Peak level 99.8 %
Extraction speed 2.7 X
Track quality 99.9 %
Test CRC EAB281B8
Copy CRC EAB281B8
Accurately ripped (confidence 14) [E9E2006E] (AR v2)
Copy OK

Track 5

Filename C:\FLAC\05 Katmandu.wav

Pre-gap length 0:00:01.40

Peak level 99.7 %
Extraction speed 3.1 X
Track quality 100.0 %
Test CRC 8865CD03
Copy CRC 8865CD03
Accurately ripped (confidence 14) [7E3D1C07] (AR v2)
Copy OK

Track 6

Filename C:\FLAC\06 Lilywhite.wav

Pre-gap length 0:00:02.56

Peak level 93.3 %
Extraction speed 3.3 X
Track quality 100.0 %
Test CRC 61CDF3DA
Copy CRC 61CDF3DA
Accurately ripped (confidence 14) [6D76335A] (AR v2)
Copy OK

Track 7

Filename C:\FLAC\07 I've Got A Thing About Seeing My Grandson Grow Old.wav

Pre-gap length 0:00:02.57

Peak level 62.9 %
Extraction speed 2.7 X
Track quality 99.9 %
Test CRC 7F4B4CC2
Copy CRC 7F4B4CC2
Accurately ripped (confidence 14) [414E985C] (AR v2)
Copy OK

Track 8

Filename C:\FLAC\08 Where Do The Children Play.wav

Pre-gap length 0:00:02.50

Peak level 99.8 %
Extraction speed 3.5 X
Track quality 100.0 %
Test CRC 97D2755B
Copy CRC 97D2755B
Accurately ripped (confidence 14) [F850C14D] (AR v2)
Copy OK

Track 9

Filename C:\FLAC\09 Wild World.wav

Pre-gap length 0:00:01.40

Peak level 94.2 %
Extraction speed 3.7 X
Track quality 100.0 %
Test CRC F87C715E
Copy CRC F87C715E
Accurately ripped (confidence 14) [1CB95B13] (AR v2)
Copy OK

Track 10

Filename C:\FLAC\10 Sad Lisa.wav

Peak level 93.1 %
Extraction speed 3.9 X
Track quality 100.0 %
Test CRC 87B6559F
Copy CRC 87B6559F
Accurately ripped (confidence 14) [12F94C66] (AR v2)
Copy OK

Track 11

Filename C:\FLAC\11 On The Road To Find Out.wav

Peak level 89.0 %
Extraction speed 4.2 X
Track quality 100.0 %
Test CRC B9831E2B
Copy CRC B9831E2B
Accurately ripped (confidence 14) [2C4A6596] (AR v2)
Copy OK

Track 12

Filename C:\FLAC\12 Father And Son.wav

Pre-gap length 0:00:04.70

Peak level 99.9 %
Extraction speed 4.2 X
Track quality 100.0 %
Test CRC 31B9F646
Copy CRC 31B9F646
Accurately ripped (confidence 14) [EDD58792] (AR v2)
Copy OK

Track 13

Filename C:\FLAC\13 Love Lives In The Sky.wav

Pre-gap length 0:00:01.33

Peak level 74.7 %
Extraction speed 4.1 X
Track quality 100.0 %
Test CRC 4554479B
Copy CRC 4554479B
Accurately ripped (confidence 14) [67FC34C0] (AR v2)
Copy OK

Track 14

Filename C:\FLAC\14 Don't Be Shy.wav

Pre-gap length 0:00:01.46

Peak level 100.0 %
Extraction speed 4.2 X
Track quality 100.0 %
Test CRC D9E90355
Copy CRC D9E90355
Accurately ripped (confidence 14) [29EB24D0] (AR v2)
Copy OK

Track 15

Filename C:\FLAC\15 If You Want To Sing Out, Sing Out.wav

Pre-gap length 0:00:01.40

Peak level 86.5 %
Extraction speed 3.5 X
Track quality 99.9 %
Test CRC 5AAFFA4F
Copy CRC 5AAFFA4F
Accurately ripped (confidence 14) [7516AFAA] (AR v2)
Copy OK

Track 16

Filename C:\FLAC\16 The Day They Make Me Tsar.wav

Pre-gap length 0:00:02.50

Peak level 58.0 %
Extraction speed 4.3 X
Track quality 100.0 %
Test CRC 6A3A2168
Copy CRC 6A3A2168
Accurately ripped (confidence 14) [5E739519] (AR v2)
Copy OK

Track 17

Filename C:\FLAC\17 The Wind.wav

Pre-gap length 0:00:02.73

Peak level 84.5 %
Extraction speed 3.0 X
Track quality 99.8 %
Test CRC 2D53C410
Copy CRC 2D53C410
Accurately ripped (confidence 14) [97239263] (AR v2)
Copy OK

Track 18

Filename C:\FLAC\18 Moonshadow.wav

Peak level 99.8 %
Extraction speed 4.5 X
Track quality 100.0 %
Test CRC 0CA8DCE4
Copy CRC 0CA8DCE4
Accurately ripped (confidence 14) [F9DE3D97] (AR v2)
Copy OK

Track 19

Filename C:\FLAC\19 Morning Has Broken.wav

Peak level 88.9 %
Extraction speed 4.5 X
Track quality 100.0 %
Test CRC 99C68880
Copy CRC 99C68880
Accurately ripped (confidence 14) [D49A32C9] (AR v2)
Copy OK

Track 20

Filename C:\FLAC\20 How Can I Tell You.wav

Peak level 88.8 %
Extraction speed 4.9 X
Track quality 100.0 %
Test CRC AE9DE6CC
Copy CRC AE9DE6CC
Accurately ripped (confidence 14) [062913AB] (AR v2)
Copy OK

Track 21

Filename C:\FLAC\21 Peace Train.wav

Peak level 79.2 %
Extraction speed 4.9 X
Track quality 100.0 %
Test CRC 82BFD062
Copy CRC 82BFD062
Accurately ripped (confidence 14) [F0178D44] (AR v2)
Copy OK

Track 22

Filename C:\FLAC\22 I Want To Live In A Wigwam.wav

Pre-gap length 0:00:01.73

Peak level 70.6 %
Extraction speed 4.9 X
Track quality 100.0 %
Test CRC BEC845A4
Copy CRC BEC845A4
Accurately ripped (confidence 14) [8E5B0DE1] (AR v2)
Copy OK


All tracks accurately ripped

No errors occurred

End of status report

==== Log checksum B9D770FC57FF6D15328DB19CFD35F2A4FBEB68029A3A7758AB432F0286DA4E53 ====

[CUETools log; Date: 08.11.2018 17:59:10; Version: 2.1.4]
[CTDB TOCID: 2rVzj7z2UdjysuW.mrPV0zHLKLw-] found.
Track | CTDB Status
1 | (62/63) Accurately ripped
2 | (62/63) Accurately ripped
3 | (62/63) Accurately ripped
4 | (62/63) Accurately ripped
5 | (62/63) Accurately ripped
6 | (62/63) Accurately ripped
7 | (61/63) Accurately ripped
8 | (62/63) Accurately ripped
9 | (62/63) Accurately ripped
10 | (62/63) Accurately ripped
11 | (62/63) Accurately ripped
12 | (62/63) Accurately ripped
13 | (61/63) Accurately ripped
14 | (62/63) Accurately ripped
15 | (62/63) Accurately ripped
16 | (62/63) Accurately ripped
17 | (62/63) Accurately ripped
18 | (62/63) Accurately ripped
19 | (61/63) Accurately ripped
20 | (60/63) Accurately ripped
21 | (61/63) Accurately ripped
22 | (63/63) Accurately ripped
[AccurateRip ID: 003d70c6-03ce4a21-4411de16] found.
Track [ CRC | V2 ] Status
01 [eb3efb27|566670e2] (27+24/77) Accurately ripped
02 [94f035e0|21ddb2a5] (28+24/82) Accurately ripped
03 [21b54311|f105076b] (27+24/77) Accurately ripped
04 [124ec60d|e9e2006e] (27+24/77) Accurately ripped
05 [52c4bd31|7e3d1c07] (27+24/78) Accurately ripped
06 [8ac1f197|6d76335a] (27+24/78) Accurately ripped
07 [a89b06ef|414e985c] (27+24/79) Accurately ripped
08 [828cf870|f850c14d] (26+24/78) Accurately ripped
09 [b210c2ba|1cb95b13] (26+24/80) Accurately ripped
10 [a938939f|12f94c66] (26+24/79) Accurately ripped
11 [d04a48b9|2c4a6596] (27+24/78) Accurately ripped
12 [240e2045|edd58792] (27+24/80) Accurately ripped
13 [01de5793|67fc34c0] (25+24/76) Accurately ripped
14 [286b717f|29eb24d0] (26+24/77) Accurately ripped
15 [a0636f71|7516afaa] (26+24/76) Accurately ripped
16 [a85c5c83|5e739519] (26+24/77) Accurately ripped
17 [23aca2ff|97239263] (26+24/76) Accurately ripped
18 [ebe24beb|f9de3d97] (26+24/79) Accurately ripped
19 [b8a790a1|d49a32c9] (26+24/79) Accurately ripped
20 [a682e1e7|062913ab] (26+24/76) Accurately ripped
21 [51a44e9e|f0178d44] (26+24/79) Accurately ripped
22 [5785e5a1|8e5b0de1] (24+24/74) Accurately ripped
Offsetted by -664:
01 [2a65510f] (09/77) Accurately ripped
02 [eb4fe830] (11/82) Accurately ripped
03 [721dc9c9] (09/77) Accurately ripped
04 [269e5b05] (09/77) Accurately ripped
05 [b6567a71] (09/78) Accurately ripped
06 [3ebee807] (09/78) Accurately ripped
07 [a309247f] (10/79) Accurately ripped
08 [985354d0] (09/78) Accurately ripped
09 [d8a6407c] (11/80) Accurately ripped
10 [35b3f2ae] (10/79) Accurately ripped
11 [dc6b59d4] (09/78) Accurately ripped
12 [7e9284d5] (10/80) Accurately ripped
13 [3f7ac56b] (09/76) Accurately ripped
14 [ca99e457] (09/77) Accurately ripped
15 [60b5b431] (09/76) Accurately ripped
16 [7cee1c33] (09/77) Accurately ripped
17 [eb42a16a] (09/76) Accurately ripped
18 [65b6b2e9] (11/79) Accurately ripped
19 [4f5ce21e] (11/79) Accurately ripped
20 [e3625887] (09/76) Accurately ripped
21 [3e895aa0] (11/79) Accurately ripped
22 [6a12e278] (09/74) Accurately ripped
Offsetted by -10:
01 [beb3fdfd] (02/77) Accurately ripped
02 [5952ceec] (02/82) Accurately ripped
03 [f3e20453] (02/77) Accurately ripped
04 [5b18743f] (02/77) Accurately ripped
05 [6b668c61] (02/78) Accurately ripped
06 [22499bdb] (02/78) Accurately ripped
07 [19deffab] (02/79) Accurately ripped
08 [17b2a818] (02/78) Accurately ripped
09 [cdec899f] (02/80) Accurately ripped
10 [f5333420] (02/79) Accurately ripped
11 [92f98713] (02/78) Accurately ripped
12 [115ec541] (02/80) Accurately ripped
13 [96d8374d] (02/76) Accurately ripped
14 [6d2ce9f9] (02/77) Accurately ripped
15 [737a43c1] (02/76) Accurately ripped
16 [27b4eaf7] (02/77) Accurately ripped
17 [b48aa88f] (02/76) Accurately ripped
18 [717f08b3] (02/79) Accurately ripped
19 [4b5b31ce] (02/79) Accurately ripped
20 [6b2d3a4d] (02/76) Accurately ripped
21 [75e4efef] (02/79) Accurately ripped
22 [b5828132] (02/74) Accurately ripped

Track Peak [ CRC32 ] [W/O NULL] [ LOG ]
– 99,9 [BD954946] [A6E753F0]
01 85,7 [3D7B9E34] [3BF4B390] CRC32
02 89,0 [DB7F8D28] [7FBC0FC0] CRC32
03 99,8 [44E89B06] [B10CCC53] CRC32
04 99,8 [EAB281B8] [BFC5475F] CRC32
05 99,7 [8865CD03] [84BC07B6] CRC32
06 93,3 [61CDF3DA] [FB9E2616] CRC32
07 62,9 [7F4B4CC2] [56A3E496] CRC32
08 99,8 [97D2755B] [BC3C3C3D] CRC32
09 94,2 [F87C715E] [D3F458BC] CRC32
10 93,1 [87B6559F] [2040BBC0] CRC32
11 89,0 [B9831E2B] [FE62D681] CRC32
12 99,9 [31B9F646] [512D2E00] CRC32
13 74,7 [4554479B] [25CF5FAF] CRC32
14 99,9 [D9E90355] [B36CD9F8] CRC32
15 86,5 [5AAFFA4F] [7B5AD8AC] CRC32
16 58,0 [6A3A2168] [431F182D] CRC32
17 84,5 [2D53C410] [D3A99214] CRC32
18 99,8 [0CA8DCE4] [8DCD916E] CRC32
19 88,9 [99C68880] [45F55C72] CRC32
20 88,8 [AE9DE6CC] [BC9CAC81] CRC32
21 79,2 [82BFD062] [A8CF9163] CRC32
22 70,6 [BEC845A4] [D9962DFD] CRC32

foobar2000 1.2 / Dynamic Range Meter 1.1.1
log date: 2018-11-10 20:43:02

––––––––––––––––––––––––––––––––––––––––
Analyzed: Cat Stevens / The Boxset CD02 The Search
––––––––––––––––––––––––––––––––––––––––

DR Peak RMS Duration Track
––––––––––––––––––––––––––––––––––––––––
DR10 -1.33 dB -14.72 dB 4:10 01-Time - Fill My Eyes
DR10 -1.01 dB -13.83 dB 3:45 02-Lady D'Arbanville
DR13 -0.01 dB -17.25 dB 2:48 03-Trouble
DR12 -0.01 dB -15.24 dB 4:15 04-Pop Star
DR12 -0.02 dB -15.77 dB 3:23 05-Katmandu
DR13 -0.60 dB -18.65 dB 3:46 06-Lilywhite
DR10 -4.02 dB -16.08 dB 2:44 07-I've Got A Thing About Seeing My Grandson Grow Old
DR12 -0.01 dB -15.78 dB 3:54 08-Where Do The Children Play
DR10 -0.51 dB -13.12 dB 3:20 09-Wild World
DR12 -0.62 dB -16.74 dB 3:45 10-Sad Lisa
DR10 -1.01 dB -15.30 dB 5:13 11-On The Road To Find Out
DR11 -0.01 dB -15.55 dB 3:42 12-Father And Son
DR10 -2.52 dB -15.65 dB 3:14 13-Love Lives In The Sky
DR11 0.00 dB -14.54 dB 2:53 14-Don't Be Shy
DR14 -1.25 dB -17.33 dB 2:48 15-If You Want To Sing Out, Sing Out
DR8 -4.72 dB -15.67 dB 2:37 16-The Day They Make Me Tsar
DR11 -1.46 dB -15.98 dB 1:42 17-The Wind
DR10 -0.01 dB -14.31 dB 2:53 18-Moonshadow
DR10 -1.02 dB -13.72 dB 3:20 19-Morning Has Broken
DR11 -1.03 dB -14.99 dB 4:28 20-How Can I Tell You
DR10 -2.02 dB -15.21 dB 4:13 21-Peace Train
DR8 -3.02 dB -13.39 dB 3:23 22-I Want To Live In A Wigwam
––––––––––––––––––––––––––––––––––––––––

Number of tracks: 22
Official DR value: DR11

Samplerate: 44100 Hz
Channels: 2
Bits per sample: 16
Bitrate: 893 kbps
Codec: FLAC
================================================================================


Exact Audio Copy V1.0 beta 3 from 29. August 2011

EAC extraction logfile from 23. May 2014, 9:52

Cat Stevens / The Boxset CD03 The Hurt

Used drive : HL-DT-STDVDRAM GSA-T50L Adapter: 1 ID: 0

Read mode : Secure
Utilize accurate stream : Yes
Defeat audio cache : Yes
Make use of C2 pointers : No

Read offset correction : 667
Overread into Lead-In and Lead-Out : No
Fill up missing offset samples with silence : Yes
Delete leading and trailing silent blocks : No
Null samples used in CRC calculations : Yes
Used interface : Native Win32 interface for Win NT & 2000
Gap handling : Appended to previous track

Used output format : User Defined Encoder
Selected bitrate : 1024 kBit/s
Quality : High
Add ID3 tag : No
Command line compressor : C:\Program Files\FLAC\flac.exe
Additional command line options : -8 -V -T "ARTIST=%artist%" -T "TITLE=%title%" -T "ALBUM=%albumtitle%" -T "DATE=%year%" -T "TRACKNUMBER=%tracknr%" -T "GENRE=%genre%" -T "PERFORMER=%albuminterpret%" -T "COMPOSER=%composer%" %haslyrics%–tag-from-file=LYRICS="%lyricsfile%"%haslyrics% -T "ALBUMARTIST=%albumartist%" -T "DISCNUMBER=%cdnumber%" -T "TOTALDISCS=%totalcds%" -T "TOTALTRACKS=%numtracks%" -T "COMMENT=%comment%" %source% -o %dest%


TOC of the extracted CD

Track | Start | Length | Start sector | End sector
––––––––––––––––––––––––––––-
1 | 0:00.00 | 3:03.25 | 0 | 13749
2 | 3:03.25 | 3:15.07 | 13750 | 28381
3 | 6:18.32 | 3:00.53 | 28382 | 41934
4 | 9:19.10 | 4:33.15 | 41935 | 62424
5 | 13:52.25 | 2:59.65 | 62425 | 75914
6 | 16:52.15 | 4:18.10 | 75915 | 95274
7 | 21:10.25 | 4:19.72 | 95275 | 114771
8 | 25:30.22 | 18:17.63 | 114772 | 197109
9 | 43:48.10 | 2:39.05 | 197110 | 209039
10 | 46:27.15 | 4:23.52 | 209040 | 228816
11 | 50:50.67 | 4:39.10 | 228817 | 249751
12 | 55:30.02 | 5:09.68 | 249752 | 272994
13 | 60:39.70 | 3:22.72 | 272995 | 288216
14 | 64:02.67 | 3:52.65 | 288217 | 305681
15 | 67:55.57 | 2:30.40 | 305682 | 316971


Track 1

Filename C:\FLAC\01 Crab Dance.wav

Pre-gap length 0:00:02.00

Peak level 100.0 %
Extraction speed 1.1 X
Track quality 100.0 %
Test CRC 488A86D0
Copy CRC 488A86D0
Accurately ripped (confidence 14) [8E758C78] (AR v2)
Copy OK

Track 2

Filename C:\FLAC\02 Sitting.wav

Pre-gap length 0:00:01.77

Peak level 89.0 %
Extraction speed 1.2 X
Track quality 100.0 %
Test CRC 517009EA
Copy CRC 517009EA
Accurately ripped (confidence 14) [6564908E] (AR v2)
Copy OK

Track 3

Filename C:\FLAC\03 Silent Sunlight.wav

Pre-gap length 0:00:02.26

Peak level 99.6 %
Extraction speed 1.3 X
Track quality 100.0 %
Test CRC CA469640
Copy CRC CA469640
Accurately ripped (confidence 14) [4431B557] (AR v2)
Copy OK

Track 4

Filename C:\FLAC\04 Angelsea.wav

Peak level 86.9 %
Extraction speed 1.3 X
Track quality 99.9 %
Test CRC D76CC729
Copy CRC D76CC729
Accurately ripped (confidence 14) [6B151DA3] (AR v2)
Copy OK

Track 5

Filename C:\FLAC\05 Can't Keep It In.wav

Pre-gap length 0:00:02.57

Peak level 82.0 %
Extraction speed 1.5 X
Track quality 100.0 %
Test CRC 2DD86A3E
Copy CRC 2DD86A3E
Accurately ripped (confidence 14) [632A42BF] (AR v2)
Copy OK

Track 6

Filename C:\FLAC\06 18th Avenue (Kanas City Nightmare).wav

Peak level 99.9 %
Extraction speed 1.7 X
Track quality 100.0 %
Test CRC BFE372B1
Copy CRC BFE372B1
Accurately ripped (confidence 14) [9E8F670D] (AR v2)
Copy OK

Track 7

Filename C:\FLAC\07 The Hurt.wav

Peak level 99.8 %
Extraction speed 1.6 X
Track quality 99.9 %
Test CRC D45C61F6
Copy CRC D45C61F6
Accurately ripped (confidence 14) [5E72291F] (AR v2)
Copy OK

Track 8

Filename C:\FLAC\08 Foreigner Suite.wav

Pre-gap length 0:00:01.86

Peak level 99.8 %
Extraction speed 2.2 X
Track quality 100.0 %
Test CRC A03D01A9
Copy CRC A03D01A9
Accurately ripped (confidence 14) [112E39A0] (AR v2)
Copy OK

Track 9

Filename C:\FLAC\09 Oh Very Young.wav

Pre-gap length 0:00:01.20

Peak level 99.8 %
Extraction speed 2.0 X
Track quality 100.0 %
Test CRC 27794725
Copy CRC 27794725
Accurately ripped (confidence 14) [2170F047] (AR v2)
Copy OK

Track 10

Filename C:\FLAC\10 Music.wav

Pre-gap length 0:00:02.26

Peak level 99.8 %
Extraction speed 2.3 X
Track quality 100.0 %
Test CRC C378BB23
Copy CRC C378BB23
Accurately ripped (confidence 14) [7BBBED30] (AR v2)
Copy OK

Track 11

Filename C:\FLAC\11 Sun - C79.wav

Pre-gap length 0:00:02.73

Peak level 99.9 %
Extraction speed 2.4 X
Track quality 100.0 %
Test CRC F37AC822
Copy CRC F37AC822
Accurately ripped (confidence 14) [B14D64F8] (AR v2)
Copy OK

Track 12

Filename C:\FLAC\12 King Of Trees.wav

Pre-gap length 0:00:02.80

Peak level 99.8 %
Extraction speed 2.5 X
Track quality 100.0 %
Test CRC E9C19996
Copy CRC E9C19996
Accurately ripped (confidence 13) [DE0DED85] (AR v2)
Copy OK

Track 13

Filename C:\FLAC\13 Bad Penny (Live).wav

Pre-gap length 0:00:02.66

Peak level 77.2 %
Extraction speed 2.4 X
Track quality 100.0 %
Test CRC 92D5138F
Copy CRC 92D5138F
Accurately ripped (confidence 14) [D8ED1181] (AR v2)
Copy OK

Track 14

Filename C:\FLAC\14 Lady D'Arbanville (Live).wav

Peak level 76.9 %
Extraction speed 2.5 X
Track quality 100.0 %
Test CRC 9DCA41C5
Copy CRC 9DCA41C5
Accurately ripped (confidence 14) [A7EE49D6] (AR v2)
Copy OK

Track 15

Filename C:\FLAC\15 Another Saturday Night.wav

Pre-gap length 0:00:01.66

Peak level 99.8 %
Extraction speed 2.4 X
Track quality 100.0 %
Test CRC 75A0A111
Copy CRC 75A0A111
Accurately ripped (confidence 14) [B58F7BF6] (AR v2)
Copy OK


All tracks accurately ripped

No errors occurred

End of status report

==== Log checksum 80B53664FEC3965206E2B16416729EEC9F86090668137FE86CAD66EFBC41C542 ====

––––––––––––––––––––––––––––––

Exact Audio Copy V1.0 beta 3 from 29. August 2011

EAC extraction logfile from 23. May 2014, 9:53

Cat Stevens / The Boxset CD03 The Hurt

Used drive : HL-DT-STDVDRAM GSA-T50L Adapter: 1 ID: 0

Read mode : Secure
Utilize accurate stream : Yes
Defeat audio cache : Yes
Make use of C2 pointers : No

Read offset correction : 667
Overread into Lead-In and Lead-Out : No
Fill up missing offset samples with silence : Yes
Delete leading and trailing silent blocks : No
Null samples used in CRC calculations : Yes
Used interface : Native Win32 interface for Win NT & 2000
Gap handling : Appended to previous track

Used output format : User Defined Encoder
Selected bitrate : 1024 kBit/s
Quality : High
Add ID3 tag : No
Command line compressor : C:\Program Files\FLAC\flac.exe
Additional command line options : -8 -V -T "ARTIST=%artist%" -T "TITLE=%title%" -T "ALBUM=%albumtitle%" -T "DATE=%year%" -T "TRACKNUMBER=%tracknr%" -T "GENRE=%genre%" -T "PERFORMER=%albuminterpret%" -T "COMPOSER=%composer%" %haslyrics%–tag-from-file=LYRICS="%lyricsfile%"%haslyrics% -T "ALBUMARTIST=%albumartist%" -T "DISCNUMBER=%cdnumber%" -T "TOTALDISCS=%totalcds%" -T "TOTALTRACKS=%numtracks%" -T "COMMENT=%comment%" %source% -o %dest%


TOC of the extracted CD

Track | Start | Length | Start sector | End sector
––––––––––––––––––––––––––––-
1 | 0:00.00 | 3:03.25 | 0 | 13749
2 | 3:03.25 | 3:15.07 | 13750 | 28381
3 | 6:18.32 | 3:00.53 | 28382 | 41934
4 | 9:19.10 | 4:33.15 | 41935 | 62424
5 | 13:52.25 | 2:59.65 | 62425 | 75914
6 | 16:52.15 | 4:18.10 | 75915 | 95274
7 | 21:10.25 | 4:19.72 | 95275 | 114771
8 | 25:30.22 | 18:17.63 | 114772 | 197109
9 | 43:48.10 | 2:39.05 | 197110 | 209039
10 | 46:27.15 | 4:23.52 | 209040 | 228816
11 | 50:50.67 | 4:39.10 | 228817 | 249751
12 | 55:30.02 | 5:09.68 | 249752 | 272994
13 | 60:39.70 | 3:22.72 | 272995 | 288216
14 | 64:02.67 | 3:52.65 | 288217 | 305681
15 | 67:55.57 | 2:30.40 | 305682 | 316971


Track 1

Filename C:\FLAC\01 Crab Dance.wav

Pre-gap length 0:00:02.00

Peak level 100.0 %
Extraction speed 1.1 X
Track quality 100.0 %
Test CRC 488A86D0
Copy CRC 488A86D0
Accurately ripped (confidence 14) [8E758C78] (AR v2)
Copy OK

Track 2

Filename C:\FLAC\02 Sitting.wav

Pre-gap length 0:00:01.77

Peak level 89.0 %
Extraction speed 1.2 X
Track quality 100.0 %
Test CRC 517009EA
Copy CRC 517009EA
Accurately ripped (confidence 14) [6564908E] (AR v2)
Copy OK

Track 3

Filename C:\FLAC\03 Silent Sunlight.wav

Pre-gap length 0:00:02.26

Peak level 99.6 %
Extraction speed 1.3 X
Track quality 100.0 %
Test CRC CA469640
Copy CRC CA469640
Accurately ripped (confidence 14) [4431B557] (AR v2)
Copy OK

Track 4

Filename C:\FLAC\04 Angelsea.wav

Peak level 86.9 %
Extraction speed 1.3 X
Track quality 99.9 %
Test CRC D76CC729
Copy CRC D76CC729
Accurately ripped (confidence 14) [6B151DA3] (AR v2)
Copy OK

Track 5

Filename C:\FLAC\05 Can't Keep It In.wav

Pre-gap length 0:00:02.57

Peak level 82.0 %
Extraction speed 1.5 X
Track quality 100.0 %
Test CRC 2DD86A3E
Copy CRC 2DD86A3E
Accurately ripped (confidence 14) [632A42BF] (AR v2)
Copy OK

Track 6

Filename C:\FLAC\06 18th Avenue (Kanas City Nightmare).wav

Peak level 99.9 %
Extraction speed 1.7 X
Track quality 100.0 %
Test CRC BFE372B1
Copy CRC BFE372B1
Accurately ripped (confidence 14) [9E8F670D] (AR v2)
Copy OK

Track 7

Filename C:\FLAC\07 The Hurt.wav

Peak level 99.8 %
Extraction speed 1.6 X
Track quality 99.9 %
Test CRC D45C61F6
Copy CRC D45C61F6
Accurately ripped (confidence 14) [5E72291F] (AR v2)
Copy OK

Track 8

Filename C:\FLAC\08 Foreigner Suite.wav

Pre-gap length 0:00:01.86

Peak level 99.8 %
Extraction speed 2.2 X
Track quality 100.0 %
Test CRC A03D01A9
Copy CRC A03D01A9
Accurately ripped (confidence 14) [112E39A0] (AR v2)
Copy OK

Track 9

Filename C:\FLAC\09 Oh Very Young.wav

Pre-gap length 0:00:01.20

Peak level 99.8 %
Extraction speed 2.0 X
Track quality 100.0 %
Test CRC 27794725
Copy CRC 27794725
Accurately ripped (confidence 14) [2170F047] (AR v2)
Copy OK

Track 10

Filename C:\FLAC\10 Music.wav

Pre-gap length 0:00:02.26

Peak level 99.8 %
Extraction speed 2.3 X
Track quality 100.0 %
Test CRC C378BB23
Copy CRC C378BB23
Accurately ripped (confidence 14) [7BBBED30] (AR v2)
Copy OK

Track 11

Filename C:\FLAC\11 Sun - C79.wav

Pre-gap length 0:00:02.73

Peak level 99.9 %
Extraction speed 2.4 X
Track quality 100.0 %
Test CRC F37AC822
Copy CRC F37AC822
Accurately ripped (confidence 14) [B14D64F8] (AR v2)
Copy OK

Track 12

Filename C:\FLAC\12 King Of Trees.wav

Pre-gap length 0:00:02.80

Peak level 99.8 %
Extraction speed 2.5 X
Track quality 100.0 %
Test CRC E9C19996
Copy CRC E9C19996
Accurately ripped (confidence 13) [DE0DED85] (AR v2)
Copy OK

Track 13

Filename C:\FLAC\13 Bad Penny (Live).wav

Pre-gap length 0:00:02.66

Peak level 77.2 %
Extraction speed 2.4 X
Track quality 100.0 %
Test CRC 92D5138F
Copy CRC 92D5138F
Accurately ripped (confidence 14) [D8ED1181] (AR v2)
Copy OK

Track 14

Filename C:\FLAC\14 Lady D'Arbanville (Live).wav

Peak level 76.9 %
Extraction speed 2.5 X
Track quality 100.0 %
Test CRC 9DCA41C5
Copy CRC 9DCA41C5
Accurately ripped (confidence 14) [A7EE49D6] (AR v2)
Copy OK

Track 15

Filename C:\FLAC\15 Another Saturday Night.wav

Pre-gap length 0:00:01.66

Peak level 99.8 %
Extraction speed 2.4 X
Track quality 100.0 %
Test CRC 75A0A111
Copy CRC 75A0A111
Accurately ripped (confidence 14) [B58F7BF6] (AR v2)
Copy OK


All tracks accurately ripped

No errors occurred

End of status report

==== Log checksum 30A63982A314B6753DAB5D340EC3BB6C5BDD8C93B3E14D30E74E31D06DD703FD ====

[CUETools log; Date: 08.11.2018 17:44:51; Version: 2.1.4]
[CTDB TOCID: 5GA.RBZWo3PmFuDd0kBx21xcQtY-] found.
Track | CTDB Status
1 | (56/57) Accurately ripped
2 | (56/57) Accurately ripped
3 | (56/57) Accurately ripped
4 | (56/57) Accurately ripped
5 | (56/57) Accurately ripped
6 | (56/57) Accurately ripped
7 | (56/57) Accurately ripped
8 | (56/57) Accurately ripped
9 | (56/57) Accurately ripped
10 | (56/57) Accurately ripped
11 | (56/57) Accurately ripped
12 | (54/57) Accurately ripped
13 | (56/57) Accurately ripped
14 | (56/57) Accurately ripped
15 | (57/57) Accurately ripped
[AccurateRip ID: 002629af-01be5aa3-c010820f] found.
Track [ CRC | V2 ] Status
01 [1421b6be|8e758c78] (25+24/75) Accurately ripped
02 [596c0e15|6564908e] (25+24/76) Accurately ripped
03 [18331d4f|4431b557] (25+24/75) Accurately ripped
04 [36766ca4|6b151da3] (26+24/76) Accurately ripped
05 [5631b345|632a42bf] (26+24/77) Accurately ripped
06 [d094d311|9e8f670d] (26+24/76) Accurately ripped
07 [71b7bf8c|5e72291f] (25+24/75) Accurately ripped
08 [bb60408e|112e39a0] (24+24/73) Accurately ripped
09 [d484a942|2170f047] (27+24/78) Accurately ripped
10 [2b4d747c|7bbbed30] (25+24/75) Accurately ripped
11 [3f7d0bc4|b14d64f8] (25+24/75) Accurately ripped
12 [ed253068|de0ded85] (25+23/74) Accurately ripped
13 [2ce9f1c3|d8ed1181] (25+24/74) Accurately ripped
14 [63808eb8|a7ee49d6] (26+23/76) Accurately ripped
15 [8b537657|b58f7bf6] (25+24/74) Accurately ripped
Offsetted by -664:
01 [1439f666] (08/75) Accurately ripped
02 [1a6cea35] (09/76) Accurately ripped
03 [4010c6e5] (08/75) Accurately ripped
04 [a1319e92] (08/76) Accurately ripped
05 [38f0ceaf] (09/77) Accurately ripped
06 [8e989045] (08/76) Accurately ripped
07 [2609fe2e] (08/75) Accurately ripped
08 [abe7db5e] (08/73) Accurately ripped
09 [d5a40dea] (09/78) Accurately ripped
10 [ecffdd24] (08/75) Accurately ripped
11 [112f1214] (08/75) Accurately ripped
12 [b68f6bb0] (08/74) Accurately ripped
13 [243c9bfb] (08/74) Accurately ripped
14 [0cabc8e8] (09/76) Accurately ripped
15 [a8b18a07] (08/74) Accurately ripped
Offsetted by -10:
01 [af1efea4] (02/75) Accurately ripped
02 [ed4ae94d] (02/76) Accurately ripped
03 [6e806e72] (02/75) Accurately ripped
04 [cf3772ed] (02/76) Accurately ripped
05 [ee9a47b3] (02/77) Accurately ripped
06 [2cfdf442] (02/76) Accurately ripped
07 [cf3c2e6f] (02/75) Accurately ripped
08 [3eff987a] (02/73) Accurately ripped
09 [2ec081e8] (02/78) Accurately ripped
10 [314dd422] (02/75) Accurately ripped
11 [3023f7d0] (02/75) Accurately ripped
12 [fe0ee2a6] (02/74) Accurately ripped
13 [6e534925] (02/74) Accurately ripped
14 [d38b3b8c] (02/76) Accurately ripped
15 [37fbe2c1] (02/74) Accurately ripped

Track Peak [ CRC32 ] [W/O NULL] [ LOG ]
– 99,9 [9321B18A] [AD3250C4]
01 99,9 [488A86D0] [94728EFB] CRC32
02 89,0 [517009EA] [3BD38DD6] CRC32
03 99,6 [CA469640] [61F69857] CRC32
04 86,9 [D76CC729] [50D2C475] CRC32
05 82,0 [2DD86A3E] [912AFC9A] CRC32
06 99,9 [BFE372B1] [837A247F] CRC32
07 99,8 [D45C61F6] [26F35008] CRC32
08 99,8 [A03D01A9] [C901A1F0] CRC32
09 99,8 [27794725] [805F1B3D] CRC32
10 99,8 [C378BB23] [C5364753] CRC32
11 99,9 [F37AC822] [D4C78F29] CRC32
12 99,8 [E9C19996] [A78353C2] CRC32
13 77,2 [92D5138F] [3809B397] CRC32
14 76,9 [9DCA41C5] [AF8FFDE0] CRC32
15 99,8 [75A0A111] [E8F22A46] CRC32

foobar2000 1.2 / Dynamic Range Meter 1.1.1
log date: 2018-11-10 20:43:39

––––––––––––––––––––––––––––––––––––––––
Analyzed: Cat Stevens / The Boxset CD03 The Hurt
––––––––––––––––––––––––––––––––––––––––

DR Peak RMS Duration Track
––––––––––––––––––––––––––––––––––––––––
DR12 0.00 dB -15.56 dB 3:03 01-Crab Dance
DR9 -1.01 dB -13.12 dB 3:15 02-Sitting
DR13 -0.03 dB -15.56 dB 3:01 03-Silent Sunlight
DR9 -1.21 dB -12.57 dB 4:33 04-Angelsea
DR9 -1.71 dB -13.57 dB 3:00 05-Can't Keep It In
DR11 -0.01 dB -15.05 dB 4:18 06-18th Avenue (Kanas City Nightmare)
DR10 -0.01 dB -12.41 dB 4:20 07-The Hurt
DR10 -0.01 dB -13.43 dB 18:18 08-Foreigner Suite
DR11 -0.01 dB -13.69 dB 2:39 09-Oh Very Young
DR10 -0.01 dB -12.50 dB 4:24 10-Music
DR10 -0.01 dB -13.44 dB 4:39 11-Sun - C79
DR11 -0.01 dB -14.07 dB 5:10 12-King Of Trees
DR6 -2.24 dB -11.05 dB 3:23 13-Bad Penny (Live)
DR7 -2.27 dB -11.86 dB 3:53 14-Lady D'Arbanville (Live)
DR10 -0.01 dB -12.44 dB 2:31 15-Another Saturday Night
––––––––––––––––––––––––––––––––––––––––

Number of tracks: 15
Official DR value: DR10

Samplerate: 44100 Hz
Channels: 2
Bits per sample: 16
Bitrate: 898 kbps
Codec: FLAC
================================================================================


Exact Audio Copy V1.0 beta 3 from 29. August 2011

EAC extraction logfile from 22. May 2014, 23:17

Cat Stevens / The Boxset CD04 The Last

Used drive : HL-DT-STDVDRAM GSA-T50L Adapter: 1 ID: 0

Read mode : Secure
Utilize accurate stream : Yes
Defeat audio cache : Yes
Make use of C2 pointers : No

Read offset correction : 667
Overread into Lead-In and Lead-Out : No
Fill up missing offset samples with silence : Yes
Delete leading and trailing silent blocks : No
Null samples used in CRC calculations : Yes
Used interface : Native Win32 interface for Win NT & 2000
Gap handling : Appended to previous track

Used output format : User Defined Encoder
Selected bitrate : 1024 kBit/s
Quality : High
Add ID3 tag : No
Command line compressor : C:\Program Files\FLAC\flac.exe
Additional command line options : -8 -V -T "ARTIST=%artist%" -T "TITLE=%title%" -T "ALBUM=%albumtitle%" -T "DATE=%year%" -T "TRACKNUMBER=%tracknr%" -T "GENRE=%genre%" -T "PERFORMER=%albuminterpret%" -T "COMPOSER=%composer%" %haslyrics%–tag-from-file=LYRICS="%lyricsfile%"%haslyrics% -T "ALBUMARTIST=%albumartist%" -T "DISCNUMBER=%cdnumber%" -T "TOTALDISCS=%totalcds%" -T "TOTALTRACKS=%numtracks%" -T "COMMENT=%comment%" %source% -o %dest%


TOC of the extracted CD

Track | Start | Length | Start sector | End sector
––––––––––––––––––––––––––––-
1 | 0:00.00 | 3:47.20 | 0 | 17044
2 | 3:47.20 | 3:52.55 | 17045 | 34499
3 | 7:40.00 | 4:32.30 | 34500 | 54929
4 | 12:12.30 | 3:10.72 | 54930 | 69251
5 | 15:23.27 | 2:23.05 | 69252 | 79981
6 | 17:46.32 | 2:19.43 | 79982 | 90449
7 | 20:06.00 | 4:14.30 | 90450 | 109529
8 | 24:20.30 | 4:15.15 | 109530 | 128669
9 | 28:35.45 | 3:44.07 | 128670 | 145476
10 | 32:19.52 | 2:44.63 | 145477 | 157839
11 | 35:04.40 | 4:55.30 | 157840 | 179994
12 | 39:59.70 | 3:04.42 | 179995 | 193836
13 | 43:04.37 | 4:24.72 | 193837 | 213708
14 | 47:29.34 | 3:48.71 | 213709 | 230879
15 | 51:18.30 | 3:59.04 | 230880 | 248808
16 | 55:17.34 | 3:29.41 | 248809 | 264524
17 | 58:47.00 | 3:03.42 | 264525 | 278291
18 | 61:50.42 | 3:38.03 | 278292 | 294644
19 | 65:28.45 | 3:37.05 | 294645 | 310924


Track 1

Filename C:\FLAC\01 Whistlestar.wav

Pre-gap length 0:00:02.00

Peak level 99.8 %
Extraction speed 2.4 X
Track quality 100.0 %
Test CRC 3AE3C019
Copy CRC 3AE3C019
Accurately ripped (confidence 14) [95C36147] (AR v2)
Copy OK

Track 2

Filename C:\FLAC\02 Novim's Nightmare.wav

Peak level 99.7 %
Extraction speed 2.3 X
Track quality 99.9 %
Test CRC ABF1135E
Copy CRC ABF1135E
Accurately ripped (confidence 14) [E2FA9320] (AR v2)
Copy OK

Track 3

Filename C:\FLAC\03 Majik Of Majiks.wav

Peak level 99.8 %
Extraction speed 3.0 X
Track quality 100.0 %
Test CRC 7EF93871
Copy CRC 7EF93871
Accurately ripped (confidence 14) [3C5CDDCB] (AR v2)
Copy OK

Track 4

Filename C:\FLAC\04 Banapple Gas.wav

Pre-gap length 0:00:01.84

Peak level 89.0 %
Extraction speed 3.0 X
Track quality 100.0 %
Test CRC 25D7E4AD
Copy CRC 25D7E4AD
Accurately ripped (confidence 14) [D51E4432] (AR v2)
Copy OK

Track 5

Filename C:\FLAC\05 Blue Monday.wav

Pre-gap length 0:00:01.13

Peak level 94.1 %
Extraction speed 2.4 X
Track quality 99.9 %
Test CRC EF883EA9
Copy CRC EF883EA9
Accurately ripped (confidence 14) [85F0EAF2] (AR v2)
Copy OK

Track 6

Filename C:\FLAC\06 Doves.wav

Pre-gap length 0:00:01.56

Peak level 99.9 %
Extraction speed 3.1 X
Track quality 100.0 %
Test CRC D97C2035
Copy CRC D97C2035
Accurately ripped (confidence 14) [046F41FB] (AR v2)
Copy OK

Track 7

Filename C:\FLAC\07 Hard Headed Woman.wav

Pre-gap length 0:00:02.04

Peak level 100.0 %
Extraction speed 3.5 X
Track quality 100.0 %
Test CRC 314E1B1E
Copy CRC 314E1B1E
Accurately ripped (confidence 14) [10DC0BF0] (AR v2)
Copy OK

Track 8

Filename C:\FLAC\08 Tuesdays Dead (Live).wav

Peak level 100.0 %
Extraction speed 3.6 X
Track quality 100.0 %
Test CRC 2DB4C3F6
Copy CRC 2DB4C3F6
Accurately ripped (confidence 14) [B7B7E282] (AR v2)
Copy OK

Track 9

Filename C:\FLAC\09 Ruins (Live).wav

Peak level 100.0 %
Extraction speed 3.3 X
Track quality 99.9 %
Test CRC 526D2B15
Copy CRC 526D2B15
Accurately ripped (confidence 14) [B87102A6] (AR v2)
Copy OK

Track 10

Filename C:\FLAC\10 Old Schoolyard.wav

Pre-gap length 0:00:02.56

Peak level 99.9 %
Extraction speed 3.7 X
Track quality 100.0 %
Test CRC D8C2812C
Copy CRC D8C2812C
Accurately ripped (confidence 14) [B33F8A12] (AR v2)
Copy OK

Track 11

Filename C:\FLAC\11 Life.wav

Peak level 99.9 %
Extraction speed 4.2 X
Track quality 100.0 %
Test CRC 761F0CD3
Copy CRC 761F0CD3
Accurately ripped (confidence 14) [9C82727A] (AR v2)
Copy OK

Track 12

Filename C:\FLAC\12 I Never Wanted To Be A Star.wav

Peak level 88.9 %
Extraction speed 3.4 X
Track quality 99.9 %
Test CRC 4B9C99A9
Copy CRC 4B9C99A9
Accurately ripped (confidence 14) [3AAD9AB4] (AR v2)
Copy OK

Track 13

Filename C:\FLAC\13 Child For A Day.wav

Pre-gap length 0:00:02.89

Peak level 99.8 %
Extraction speed 3.8 X
Track quality 99.9 %
Test CRC 3F5D67DA
Copy CRC 3F5D67DA
Accurately ripped (confidence 14) [26DCA756] (AR v2)
Copy OK

Track 14

Filename C:\FLAC\14 Just Another Night.wav

Pre-gap length 0:00:01.42

Peak level 99.9 %
Extraction speed 4.4 X
Track quality 100.0 %
Test CRC 51AFFC56
Copy CRC 51AFFC56
Accurately ripped (confidence 14) [BD4EF840] (AR v2)
Copy OK

Track 15

Filename C:\FLAC\15 Daytime.wav

Peak level 100.0 %
Extraction speed 4.0 X
Track quality 99.9 %
Test CRC A5BCD124
Copy CRC A5BCD124
Accurately ripped (confidence 14) [B1C350B7] (AR v2)
Copy OK

Track 16

Filename C:\FLAC\16 Last Love Song.wav

Pre-gap length 0:00:03.45

Peak level 99.7 %
Extraction speed 4.6 X
Track quality 100.0 %
Test CRC 20EC612D
Copy CRC 20EC612D
Accurately ripped (confidence 14) [35EE5508] (AR v2)
Copy OK

Track 17

Filename C:\FLAC\17 Never.wav

Pre-gap length 0:00:02.60

Peak level 99.9 %
Extraction speed 3.8 X
Track quality 99.9 %
Test CRC A60B9C6A
Copy CRC A60B9C6A
Accurately ripped (confidence 14) [A3D9BA4A] (AR v2)
Copy OK

Track 18

Filename C:\FLAC\18 Father & Son (Live).wav

Pre-gap length 0:00:01.06

Peak level 100.0 %
Extraction speed 4.8 X
Track quality 100.0 %
Test CRC 975019A6
Copy CRC 975019A6
Accurately ripped (confidence 14) [720377D2] (AR v2)
Copy OK

Track 19

Filename C:\FLAC\19 God Is The Light.wav

Pre-gap length 0:00:01.66

Peak level 77.7 %
Extraction speed 4.9 X
Track quality 100.0 %
Test CRC 6ABC83B2
Copy CRC 6ABC83B2
Accurately ripped (confidence 14) [CA3DE8D1] (AR v2)
Copy OK


All tracks accurately ripped

No errors occurred

End of status report

==== Log checksum 16D10DAEA23D0EC330A43FCF1685DFBF8D675222260414AF07FAF3D97B9E6369 ====

––––––––––––––––––––––––––––––

Exact Audio Copy V1.0 beta 3 from 29. August 2011

EAC extraction logfile from 22. May 2014, 23:17

Cat Stevens / The Boxset CD04 The Last

Used drive : HL-DT-STDVDRAM GSA-T50L Adapter: 1 ID: 0

Read mode : Secure
Utilize accurate stream : Yes
Defeat audio cache : Yes
Make use of C2 pointers : No

Read offset correction : 667
Overread into Lead-In and Lead-Out : No
Fill up missing offset samples with silence : Yes
Delete leading and trailing silent blocks : No
Null samples used in CRC calculations : Yes
Used interface : Native Win32 interface for Win NT & 2000
Gap handling : Appended to previous track

Used output format : User Defined Encoder
Selected bitrate : 1024 kBit/s
Quality : High
Add ID3 tag : No
Command line compressor : C:\Program Files\FLAC\flac.exe
Additional command line options : -8 -V -T "ARTIST=%artist%" -T "TITLE=%title%" -T "ALBUM=%albumtitle%" -T "DATE=%year%" -T "TRACKNUMBER=%tracknr%" -T "GENRE=%genre%" -T "PERFORMER=%albuminterpret%" -T "COMPOSER=%composer%" %haslyrics%–tag-from-file=LYRICS="%lyricsfile%"%haslyrics% -T "ALBUMARTIST=%albumartist%" -T "DISCNUMBER=%cdnumber%" -T "TOTALDISCS=%totalcds%" -T "TOTALTRACKS=%numtracks%" -T "COMMENT=%comment%" %source% -o %dest%


TOC of the extracted CD

Track | Start | Length | Start sector | End sector
––––––––––––––––––––––––––––-
1 | 0:00.00 | 3:47.20 | 0 | 17044
2 | 3:47.20 | 3:52.55 | 17045 | 34499
3 | 7:40.00 | 4:32.30 | 34500 | 54929
4 | 12:12.30 | 3:10.72 | 54930 | 69251
5 | 15:23.27 | 2:23.05 | 69252 | 79981
6 | 17:46.32 | 2:19.43 | 79982 | 90449
7 | 20:06.00 | 4:14.30 | 90450 | 109529
8 | 24:20.30 | 4:15.15 | 109530 | 128669
9 | 28:35.45 | 3:44.07 | 128670 | 145476
10 | 32:19.52 | 2:44.63 | 145477 | 157839
11 | 35:04.40 | 4:55.30 | 157840 | 179994
12 | 39:59.70 | 3:04.42 | 179995 | 193836
13 | 43:04.37 | 4:24.72 | 193837 | 213708
14 | 47:29.34 | 3:48.71 | 213709 | 230879
15 | 51:18.30 | 3:59.04 | 230880 | 248808
16 | 55:17.34 | 3:29.41 | 248809 | 264524
17 | 58:47.00 | 3:03.42 | 264525 | 278291
18 | 61:50.42 | 3:38.03 | 278292 | 294644
19 | 65:28.45 | 3:37.05 | 294645 | 310924


Track 1

Filename C:\FLAC\01 Whistlestar.wav

Pre-gap length 0:00:02.00

Peak level 99.8 %
Extraction speed 2.4 X
Track quality 100.0 %
Test CRC 3AE3C019
Copy CRC 3AE3C019
Accurately ripped (confidence 14) [95C36147] (AR v2)
Copy OK

Track 2

Filename C:\FLAC\02 Novim's Nightmare.wav

Peak level 99.7 %
Extraction speed 2.3 X
Track quality 99.9 %
Test CRC ABF1135E
Copy CRC ABF1135E
Accurately ripped (confidence 14) [E2FA9320] (AR v2)
Copy OK

Track 3

Filename C:\FLAC\03 Majik Of Majiks.wav

Peak level 99.8 %
Extraction speed 3.0 X
Track quality 100.0 %
Test CRC 7EF93871
Copy CRC 7EF93871
Accurately ripped (confidence 14) [3C5CDDCB] (AR v2)
Copy OK

Track 4

Filename C:\FLAC\04 Banapple Gas.wav

Pre-gap length 0:00:01.84

Peak level 89.0 %
Extraction speed 3.0 X
Track quality 100.0 %
Test CRC 25D7E4AD
Copy CRC 25D7E4AD
Accurately ripped (confidence 14) [D51E4432] (AR v2)
Copy OK

Track 5

Filename C:\FLAC\05 Blue Monday.wav

Pre-gap length 0:00:01.13

Peak level 94.1 %
Extraction speed 2.4 X
Track quality 99.9 %
Test CRC EF883EA9
Copy CRC EF883EA9
Accurately ripped (confidence 14) [85F0EAF2] (AR v2)
Copy OK

Track 6

Filename C:\FLAC\06 Doves.wav

Pre-gap length 0:00:01.56

Peak level 99.9 %
Extraction speed 3.1 X
Track quality 100.0 %
Test CRC D97C2035
Copy CRC D97C2035
Accurately ripped (confidence 14) [046F41FB] (AR v2)
Copy OK

Track 7

Filename C:\FLAC\07 Hard Headed Woman.wav

Pre-gap length 0:00:02.04

Peak level 100.0 %
Extraction speed 3.5 X
Track quality 100.0 %
Test CRC 314E1B1E
Copy CRC 314E1B1E
Accurately ripped (confidence 14) [10DC0BF0] (AR v2)
Copy OK

Track 8

Filename C:\FLAC\08 Tuesdays Dead (Live).wav

Peak level 100.0 %
Extraction speed 3.6 X
Track quality 100.0 %
Test CRC 2DB4C3F6
Copy CRC 2DB4C3F6
Accurately ripped (confidence 14) [B7B7E282] (AR v2)
Copy OK

Track 9

Filename C:\FLAC\09 Ruins (Live).wav

Peak level 100.0 %
Extraction speed 3.3 X
Track quality 99.9 %
Test CRC 526D2B15
Copy CRC 526D2B15
Accurately ripped (confidence 14) [B87102A6] (AR v2)
Copy OK

Track 10

Filename C:\FLAC\10 Old Schoolyard.wav

Pre-gap length 0:00:02.56

Peak level 99.9 %
Extraction speed 3.7 X
Track quality 100.0 %
Test CRC D8C2812C
Copy CRC D8C2812C
Accurately ripped (confidence 14) [B33F8A12] (AR v2)
Copy OK

Track 11

Filename C:\FLAC\11 Life.wav

Peak level 99.9 %
Extraction speed 4.2 X
Track quality 100.0 %
Test CRC 761F0CD3
Copy CRC 761F0CD3
Accurately ripped (confidence 14) [9C82727A] (AR v2)
Copy OK

Track 12

Filename C:\FLAC\12 I Never Wanted To Be A Star.wav

Peak level 88.9 %
Extraction speed 3.4 X
Track quality 99.9 %
Test CRC 4B9C99A9
Copy CRC 4B9C99A9
Accurately ripped (confidence 14) [3AAD9AB4] (AR v2)
Copy OK

Track 13

Filename C:\FLAC\13 Child For A Day.wav

Pre-gap length 0:00:02.89

Peak level 99.8 %
Extraction speed 3.8 X
Track quality 99.9 %
Test CRC 3F5D67DA
Copy CRC 3F5D67DA
Accurately ripped (confidence 14) [26DCA756] (AR v2)
Copy OK

Track 14

Filename C:\FLAC\14 Just Another Night.wav

Pre-gap length 0:00:01.42

Peak level 99.9 %
Extraction speed 4.4 X
Track quality 100.0 %
Test CRC 51AFFC56
Copy CRC 51AFFC56
Accurately ripped (confidence 14) [BD4EF840] (AR v2)
Copy OK

Track 15

Filename C:\FLAC\15 Daytime.wav

Peak level 100.0 %
Extraction speed 4.0 X
Track quality 99.9 %
Test CRC A5BCD124
Copy CRC A5BCD124
Accurately ripped (confidence 14) [B1C350B7] (AR v2)
Copy OK

Track 16

Filename C:\FLAC\16 Last Love Song.wav

Pre-gap length 0:00:03.45

Peak level 99.7 %
Extraction speed 4.6 X
Track quality 100.0 %
Test CRC 20EC612D
Copy CRC 20EC612D
Accurately ripped (confidence 14) [35EE5508] (AR v2)
Copy OK

Track 17

Filename C:\FLAC\17 Never.wav

Pre-gap length 0:00:02.60

Peak level 99.9 %
Extraction speed 3.8 X
Track quality 99.9 %
Test CRC A60B9C6A
Copy CRC A60B9C6A
Accurately ripped (confidence 14) [A3D9BA4A] (AR v2)
Copy OK

Track 18

Filename C:\FLAC\18 Father & Son (Live).wav

Pre-gap length 0:00:01.06

Peak level 100.0 %
Extraction speed 4.8 X
Track quality 100.0 %
Test CRC 975019A6
Copy CRC 975019A6
Accurately ripped (confidence 14) [720377D2] (AR v2)
Copy OK

Track 19

Filename C:\FLAC\19 God Is The Light.wav

Pre-gap length 0:00:01.66

Peak level 77.7 %
Extraction speed 4.9 X
Track quality 100.0 %
Test CRC 6ABC83B2
Copy CRC 6ABC83B2
Accurately ripped (confidence 14) [CA3DE8D1] (AR v2)
Copy OK


All tracks accurately ripped

No errors occurred

End of status report

==== Log checksum 16D10DAEA23D0EC330A43FCF1685DFBF8D675222260414AF07FAF3D97B9E6369 ====

[CUETools log; Date: 08.11.2018 17:45:26; Version: 2.1.4]
[CTDB TOCID: 6GtSdttxwo3j2VaXC4hupedYLns-] found.
Track | CTDB Status
1 | (55/56) Accurately ripped
2 | (55/56) Accurately ripped
3 | (55/56) Accurately ripped
4 | (55/56) Accurately ripped
5 | (55/56) Accurately ripped
6 | (55/56) Accurately ripped
7 | (55/56) Accurately ripped
8 | (55/56) Accurately ripped
9 | (54/56) Accurately ripped
10 | (55/56) Accurately ripped
11 | (54/56) Accurately ripped
12 | (54/56) Accurately ripped
13 | (55/56) Accurately ripped
14 | (55/56) Accurately ripped
15 | (54/56) Accurately ripped
16 | (55/56) Accurately ripped
17 | (55/56) Accurately ripped
18 | (55/56) Accurately ripped
19 | (55/56) Accurately ripped
[AccurateRip ID: 002f5a3d-02977690-fe103113] found.
Track [ CRC | V2 ] Status
01 [e307e4be|95c36147] (25+24/75) Accurately ripped
02 [911a46ff|e2fa9320] (25+24/75) Accurately ripped
03 [3f8a63ab|3c5cddcb] (25+24/75) Accurately ripped
04 [297ff56b|d51e4432] (25+24/74) Accurately ripped
05 [3a1f2633|85f0eaf2] (25+24/74) Accurately ripped
06 [f9ba1c56|046f41fb] (26+24/75) Accurately ripped
07 [48084018|10dc0bf0] (26+24/76) Accurately ripped
08 [4ac83ccf|b7b7e282] (25+24/75) Accurately ripped
09 [80c85516|b87102a6] (25+24/75) Accurately ripped
10 [73191832|b33f8a12] (25+24/75) Accurately ripped
11 [2a23945a|9c82727a] (25+24/75) Accurately ripped
12 [ef17415a|3aad9ab4] (24+24/74) Accurately ripped
13 [65971543|26dca756] (24+24/75) Accurately ripped
14 [d85432af|bd4ef840] (23+24/72) Accurately ripped
15 [6d6db733|b1c350b7] (25+24/74) Accurately ripped
16 [9f3d0efd|35ee5508] (24+24/74) Accurately ripped
17 [eb0f0840|a3d9ba4a] (23+24/72) Accurately ripped
18 [efe9739f|720377d2] (24+24/74) Accurately ripped
19 [20a4a507|ca3de8d1] (24+24/73) Accurately ripped
Offsetted by -664:
01 [173d1494] (08/75) Accurately ripped
02 [d067ef99] (08/75) Accurately ripped
03 [77277793] (08/75) Accurately ripped
04 [40f12fab] (08/74) Accurately ripped
05 [b5d7adc3] (08/74) Accurately ripped
06 [39541df6] (08/75) Accurately ripped
07 [5dc10f4c] (09/76) Accurately ripped
08 [39fa1710] (09/75) Accurately ripped
09 [4cc085f9] (09/75) Accurately ripped
10 [2cea41d0] (08/75) Accurately ripped
11 [e5930054] (08/75) Accurately ripped
12 [4e9b67fa] (08/74) Accurately ripped
13 [40991bab] (09/75) Accurately ripped
14 [d81828d9] (08/72) Accurately ripped
15 [17875bf9] (08/74) Accurately ripped
16 [acd00ddd] (09/74) Accurately ripped
17 [80f88308] (08/72) Accurately ripped
18 [a2e71137] (09/74) Accurately ripped
19 [ca7171ea] (08/73) Accurately ripped
Offsetted by -10:
01 [5984c8e2] (02/75) Accurately ripped
02 [f513a25a] (02/75) Accurately ripped
03 [f7b32af8] (02/75) Accurately ripped
04 [0b026f5b] (02/74) Accurately ripped
05 [d3e3786f] (02/74) Accurately ripped
06 [9421712e] (02/75) Accurately ripped
07 [e946b2f0] (02/76) Accurately ripped
08 [726417bb] (02/75) Accurately ripped
09 [412526b4] (02/75) Accurately ripped
10 [18bf162c] (02/75) Accurately ripped
11 [24760272] (02/75) Accurately ripped
12 [933a66f2] (02/74) Accurately ripped
13 [46f5f4f9] (02/75) Accurately ripped
14 [27b7684a] (02/72) Accurately ripped
15 [5006d768] (02/74) Accurately ripped
16 [815ee305] (02/74) Accurately ripped
17 [ed51019e] (02/72) Accurately ripped
18 [5e8f32e9] (02/74) Accurately ripped
19 [e6af1ac5] (02/73) Accurately ripped

Track Peak [ CRC32 ] [W/O NULL] [ LOG ]
– 99,9 [AD954EBD] [66D6FA06]
01 99,8 [3AE3C019] [C9C6E6EA] CRC32
02 99,7 [ABF1135E] [8EBB1B0F] CRC32
03 99,8 [7EF93871] [660BF92E] CRC32
04 89,0 [25D7E4AD] [5BB80920] CRC32
05 94,1 [EF883EA9] [0EB68D0E] CRC32
06 99,9 [D97C2035] [F4571971] CRC32
07 99,9 [314E1B1E] [90348A43] CRC32
08 99,9 [2DB4C3F6] [D4215607] CRC32
09 99,9 [526D2B15] [176D5947] CRC32
10 99,9 [D8C2812C] [5EFCEE9F] CRC32
11 99,9 [761F0CD3] [A2C8E30B] CRC32
12 88,9 [4B9C99A9] [217557E7] CRC32
13 99,8 [3F5D67DA] [5D226F58] CRC32
14 99,9 [51AFFC56] [3B88B4BA] CRC32
15 99,9 [A5BCD124] [4E424B36] CRC32
16 99,7 [20EC612D] [EEDEDFC4] CRC32
17 99,9 [A60B9C6A] [59612028] CRC32
18 99,9 [975019A6] [77103A86] CRC32
19 77,7 [6ABC83B2] [AB33F0F2] CRC32

foobar2000 1.2 / Dynamic Range Meter 1.1.1
log date: 2018-11-10 20:44:24

––––––––––––––––––––––––––––––––––––––––
Analyzed: Cat Stevens / The Boxset CD04 The Last
––––––––––––––––––––––––––––––––––––––––

DR Peak RMS Duration Track
––––––––––––––––––––––––––––––––––––––––
DR11 -0.01 dB -13.55 dB 3:47 01-Whistlestar
DR13 -0.02 dB -15.97 dB 3:53 02-Novim's Nightmare
DR10 -0.01 dB -13.76 dB 4:32 03-Majik Of Majiks
DR9 -1.01 dB -11.74 dB 3:11 04-Banapple Gas
DR10 -0.52 dB -12.09 dB 2:23 05-Blue Monday
DR11 0.00 dB -13.08 dB 2:20 06-Doves
DR11 0.00 dB -15.38 dB 4:14 07-Hard Headed Woman
DR10 0.00 dB -11.79 dB 4:15 08-Tuesdays Dead (Live)
DR12 0.00 dB -17.30 dB 3:44 09-Ruins (Live)
DR11 -0.01 dB -13.00 dB 2:45 10-Old Schoolyard
DR10 -0.01 dB -13.10 dB 4:55 11-Life
DR11 -1.01 dB -15.11 dB 3:05 12-I Never Wanted To Be A Star
DR11 -0.01 dB -14.27 dB 4:25 13-Child For A Day
DR10 -0.01 dB -12.96 dB 3:49 14-Just Another Night
DR11 0.00 dB -14.86 dB 3:59 15-Daytime
DR11 -0.02 dB -15.49 dB 3:30 16-Last Love Song
DR10 -0.01 dB -13.73 dB 3:04 17-Never
DR12 0.00 dB -15.19 dB 3:38 18-Father & Son (Live)
DR5 -2.19 dB -9.67 dB 3:37 19-God Is The Light
––––––––––––––––––––––––––––––––––––––––

Number of tracks: 19
Official DR value: DR11

Samplerate: 44100 Hz
Channels: 2
Bits per sample: 16
Bitrate: 868 kbps
Codec: FLAC
================================================================================


All thanks to original releaser - only1joe

More interesting music in My Blog

Cat Stevens - Gold (2005) 2CDs