Subcategories

Cathy Jean - In The Remains (2010)

Posted By: Designol
Cathy Jean - In The Remains (2010)

Cathy Jean - In The Remains (2010)
EAC | FLAC | Image (Cue&Log) ~ 455 Mb (incl 5%) | Mp3 (CBR320) ~ 156 Mb (incl 5%) | Scans ~ Mb
Genre: Blues Rock, Electric Blues, Rock | Label: Cathy Jean | # none | Time: 01:04:43

Despite the tragedy in her life this is a superb album. Derek Trucks said in an interview (this is a paraphrase) that not only is he interested in what someone is playing but what they are listening to. Clearly Cathy Jean and her band members are both very good listeners and very good players. They are very modern (notice the excellent use of strings) and one of the finest bands playing rock and roll and blues around today. This album and Sick Little Twist are both top notch!

Review by Lawrence L. Powell, Amazon.com

With four CDs of Cathy Jean's in my collection, I've concluded she's one disturbed gal that does an incredible job of expressing it in her music. It often revolves around troubled relationships. She's somewhere between Lady Gaga, Ana Popovic, and Billie Holliday, if that's possible. Cathy Jean can play a mean guitar, have more lyrics in her songs than a novel, which tend to be pretty pointed and raw. What attracts me is the jazz influences intertwined with blues, funk, and rock. From her nude photos in the album sleeve and the high energy her music evokes, once you've been exposed to Cathy Jean, you won't forget her! Cathy Jean is one of the most innovative divas in the world of blues.

Review by Bill Martin, Blues Society Of Tulsa

This one hit me like a rock. Cathy Jean is far from unknown to my ears so you would think that her confessional and confrontational rock chic – and I mean that in the nicest way – persona would have no more than a muted effect on me by now. However, and I should have suspected something given the striking cover art, she really let it rip this time with In the Remains being not so much an album as the sonic equivalent of a hand grenade. … very focused and consistent. It is a rock album, of course, but Lita Ford wouldn't go anywhere near as far as Cathy Jean has here. The impact isn't the guitars or the drums. It is in her voice. Her words drip alternately with acid, love, pain, indifference and contempt in the way of a proper soul singer. She's telling it like it is and even a guy can get that this time around. In musical terms, there is nothing to complain about. The supporting players do a solid job of providing the foundation for the car crash sentimentality that Cathy Jean possesses with Keith Stafford's guitar easily justifying its place in the spotlight. Of course, if this were a relentless attack on the ears then a fair amount of impact would be lost so it is all the more noticeable that it is the subtler moments such as were found in King Civilian that work best. Having said that, there is something for everyone here as the good old fashioned r&b of You Shuffle proves. The important thing to remember though is that this is not a trivial album. It is hard work to shock anyone these days. Ask Lady Gaga if you don't believe me. Likewise, wearing your heart on your sleeve and reflecting on the pain inflicting inadequacies of your better half is hardly earth shattering. The difference here is the sincerity and you can take every word sung here as having been written in Cathy Jean's own blood.

Review by 5 carrots, Bluesbunny

Cathy Jean - In The Remains (2010)


Tracklist:

01. CDB (03:47)
02. Done Sayeth (04:57)
03. The Dark Ages (05:15)
04. Tankin' The Day (04:50)
05. Free Willy's Bar (04:23)
06. In The Remains (06:16)
07. The 3 Bears (04:42)
08. For More Years (03:41)
09. Dracula (04:27)
10. King Civilian (04:19)
11. You Shuffle (03:32)
12. Rotting In Hope (05:01)
13. Stickin' To My Feet (04:51)
14. Asylum (04:36)


Exact Audio Copy V1.1 from 23. June 2015

Отчёт EAC об извлечении, выполненном 23. мая 2016, 19:36

Cathy Jean / In The Remains

Дисковод: SONY CD-RW CRX230ED Adapter: 1 ID: 0

Режим чтения : Достоверность
Использование точного потока : Да
Отключение кэша аудио : Да
Использование указателей C2 : Нет

Коррекция смещения при чтении : 6
Способность читать области Lead-in и Lead-out : Нет
Заполнение пропущенных сэмплов тишиной : Да
Удаление блоков с тишиной в начале и конце : Нет
При вычислениях CRC использовались нулевые сэмплы : Да
Интерфейс : Встроенный Win32-интерфейс для Win NT/2000

Выходной формат : Внутренние WAV-операции
Формат сэмплов : 44.100 Гц; 16 бит; стерео


TOC извлечённого CD

Трек | Старт | Длительность | Начальный сектор | Конечный сектор
––––––––––––––––––––––––––––––––––-
1 | 0:00.00 | 3:47.55 | 0 | 17079
2 | 3:47.55 | 4:57.53 | 17080 | 39407
3 | 8:45.33 | 5:15.43 | 39408 | 63075
4 | 14:01.01 | 4:50.15 | 63076 | 84840
5 | 18:51.16 | 4:23.48 | 84841 | 104613
6 | 23:14.64 | 6:16.68 | 104614 | 132881
7 | 29:31.57 | 4:42.19 | 132882 | 154050
8 | 34:14.01 | 3:41.55 | 154051 | 170680
9 | 37:55.56 | 4:27.00 | 170681 | 190705
10 | 42:22.56 | 4:19.64 | 190706 | 210194
11 | 46:42.45 | 3:32.04 | 210195 | 226098
12 | 50:14.49 | 5:01.24 | 226099 | 248697
13 | 55:15.73 | 4:51.41 | 248698 | 270563
14 | 60:07.39 | 4:36.36 | 270564 | 291299


Характеристики диапазона извлечения и сообщения об ошибках

Выбранный диапазон

Имя файла F:\MusicCD\Torrent\Cathy Jean - In The Remains\Cathy Jean - In The Remains.wav

Пиковый уровень 100.0 %
Скорость извлечения 8.2 X
Качество диапазона 100.0 %
CRC теста 94985697
CRC копии 94985697
Копирование… OK

Ошибок не произошло


AccurateRip: сводка

Трек 1 : извлечено точно (доверие 7) [F7BEFB81] (AR v2)
Трек 2 : извлечено точно (доверие 7) [58C1FCB7] (AR v2)
Трек 3 : извлечено точно (доверие 7) [18A3938E] (AR v2)
Трек 4 : извлечено точно (доверие 7) [DCE17573] (AR v2)
Трек 5 : извлечено точно (доверие 7) [A9067383] (AR v2)
Трек 6 : извлечено точно (доверие 7) [20FC2A85] (AR v2)
Трек 7 : извлечено точно (доверие 7) [CC125BAD] (AR v2)
Трек 8 : извлечено точно (доверие 7) [4046EE21] (AR v2)
Трек 9 : извлечено точно (доверие 7) [3E580527] (AR v2)
Трек 10 : извлечено точно (доверие 7) [CC062836] (AR v2)
Трек 11 : извлечено точно (доверие 7) [AD02FDDA] (AR v2)
Трек 12 : извлечено точно (доверие 7) [F5F9DE6B] (AR v2)
Трек 13 : извлечено точно (доверие 7) [6A24B1F5] (AR v2)
Трек 14 : извлечено точно (доверие 7) [60CABD89] (AR v2)

Все треки извлечены точно

Конец отчёта

–– CUETools DB Plugin V2.1.6

[CTDB TOCID: ahFAldGfg9fGEKS.eXQ.N_XcMCQ-] found
Submit result: ahFAldGfg9fGEKS.eXQ.N_XcMCQ- has been confirmed
Track | CTDB Status
1 | (7/7) Accurately ripped
2 | (7/7) Accurately ripped
3 | (7/7) Accurately ripped
4 | (7/7) Accurately ripped
5 | (7/7) Accurately ripped
6 | (7/7) Accurately ripped
7 | (7/7) Accurately ripped
8 | (7/7) Accurately ripped
9 | (7/7) Accurately ripped
10 | (7/7) Accurately ripped
11 | (7/7) Accurately ripped
12 | (7/7) Accurately ripped
13 | (7/7) Accurately ripped
14 | (7/7) Accurately ripped


==== Контрольная сумма отчёта 1F65A5740FE6B0F558329E1D2BC4E576613605ED756E005DB74FAA86A9D0CF91 ====

foobar2000 1.2 / Dynamic Range Meter 1.1.1
log date: 2016-05-23 23:24:55

––––––––––––––––––––––––––––––––––––––––
Analyzed: Cathy Jean / In The Remains
––––––––––––––––––––––––––––––––––––––––

DR Peak RMS Duration Track
––––––––––––––––––––––––––––––––––––––––
DR7 0.00 dB -7.76 dB 3:48 01-CDB
DR7 0.00 dB -7.80 dB 4:58 02-Done Sayeth
DR6 0.00 dB -8.71 dB 5:16 03-The Dark Ages
DR7 0.00 dB -8.74 dB 4:50 04-Tankin' The Day
DR7 0.00 dB -7.55 dB 4:24 05-Free Willy's Bar
DR7 0.00 dB -11.34 dB 6:17 06-In The Remains
DR8 0.00 dB -11.22 dB 4:42 07-The 3 Bears
DR8 0.00 dB -10.79 dB 3:42 08-For More Years
DR7 0.00 dB -8.01 dB 4:27 09-Dracula
DR10 0.00 dB -12.16 dB 4:20 10-King Civilian
DR7 0.00 dB -8.09 dB 3:32 11-You Shuffle
DR12 -0.16 dB -14.73 dB 5:01 12-Rotting In Hope
DR8 0.00 dB -9.36 dB 4:52 13-Stickin' To My Feet
DR10 -0.20 dB -13.69 dB 4:36 14-Asylum
––––––––––––––––––––––––––––––––––––––––

Number of tracks: 14
Official DR value: DR8

Samplerate: 44100 Hz
Channels: 2
Bits per sample: 16
Bitrate: 936 kbps
Codec: FLAC
================================================================================

Cathy Jean - In The Remains (2010)

Cathy Jean - In The Remains (2010)

All thanks to original releaser - squirr

More interesting music in My Blog