Subcategories

Cats In Boots - Kicked & Klawed (1989) [Reissue 2009]

Posted By: Andi_Deris
Cats In Boots - Kicked & Klawed (1989) [Reissue 2009]

Cats In Boots - Kicked & Klawed (1989) [Reissue 2009]
EAC Rip | FLAC: IMAGE+CUE+LOG | 372.65 MB | MP3 CBR 320 kbps | 126.67 MB | Time: 44:20 | Covers
Genre: Hard Rock, Sleaze/Hair Metal | Label: Rock Candy Rec. | Cat.#: CANDY048

Kicked & Klawed album by Cats In Boots was released May 26, 2009 on the Rock Candy label. Digitally remastered reissue of the 1989 debut album by this sorely overlooked Hard Rock band.

When Cats In Boots released their album in 1989, the band got rave reviews, including five K's in Kerrang, where the legendary magazine (the writer Allison Joy) wrote "These boys are no pussies, and Believe me, Their balls are well and Truly intact "… The disc is very well produced by Mark Opitz and he has just caught the "sun-strip-sleaze sound" as it sounded back then, with bands like Ratt, Mötley Crüe and Dokken just mentionening three examples. The hair-metal scene was at the heightest peek and it was nothing that really was against the band. More than bad luck. Very very bad luck and timing. They had a good front man in Joel Ellis and they had a bunch of really good songs in their songlist. Now, because of all the struggle, the album just became a true cult-sleaze album among fans worldwide, and thanks to Rock Candy's nice re-release they see the light of day again. Fix the hair again and put on your old boots and rock the shit out of yourself. Fun to hear the album again. ~ Review by Pär Winberg

Rock Candy | Sleaze Roxx | Amazon

Cats In Boots - Kicked & Klawed (1989) [Reissue 2009]

Cats In Boots - Kicked & Klawed (1989) [Reissue 2009]


Track Listing:

1. Shot Gun Sally (3:29)
2. Nine Lives (Save Me) (3:47)
3. Her Monkey (4:07)
4. Whip It Out (4:15)
5. Long, Long Way From Home (4:16)
6. Coast To Coast (3:15)
7. Every Sunrise (6:14)
8. Evil Angel (3:30)
9. Bad Boys Are Back (4:12)
10. Judas Kiss (3:25)
11. Heaven On A Heartbeat (3:50)

Produced by Mark Opitz

THE BAND:

Joel Ellis: vocals, harmonica
Takashi "Jam" O'Hashi: guitars, background vocals
Yasuhiro "Butch" Hatae: bass, background vocals
Randy Meers: drums, background vocals

Dave Amato: background vocals

Exact Audio Copy V1.0 beta 2 from 29. April 2011

Отчёт EAC об извлечении, выполненном 8. сентября 2011, 18:32

Cats In Boots / Kicked And Klawed

Дисковод: HL-DT-STDVD-RAM GSA-H55L Adapter: 0 ID: 0

Режим чтения : Достоверность
Использование точного потока : Да
Отключение кэша аудио : Да
Использование указателей C2 : Нет

Коррекция смещения при чтении : 102
Способность читать области Lead-in и Lead-out : Нет
Заполнение пропущенных сэмплов тишиной : Да
Удаление блоков с тишиной в начале и конце : Нет
При вычислениях CRC использовались нулевые сэмплы : Да
Интерфейс : Встроенный Win32-интерфейс для Win NT/2000

Выходной формат : Пользовательский кодировщик
Выбранный битрейт : 1024 kBit/s
Качество : Высокий
Добавление ID3-тега : Нет
Утилита сжатия : C:\Program Files\Exact Audio Copy\FLAC\FLAC.EXE
Дополнительные параметры : -V -8 -T "Date=%year%" -T "Genre=%genre%" %source%


TOC извлечённого CD

Трек | Старт | Длительность | Начальный сектор | Конечный сектор
––––––––––––––––––––––––––––––––––-
1 | 0:00.00 | 3:29.21 | 0 | 15695
2 | 3:29.21 | 3:47.42 | 15696 | 32762
3 | 7:16.63 | 4:07.56 | 32763 | 51343
4 | 11:24.44 | 4:15.40 | 51344 | 70508
5 | 15:40.09 | 4:16.00 | 70509 | 89708
6 | 19:56.09 | 3:15.58 | 89709 | 104391
7 | 23:11.67 | 6:14.63 | 104392 | 132504
8 | 29:26.55 | 3:30.52 | 132505 | 148306
9 | 32:57.32 | 4:12.47 | 148307 | 167253
10 | 37:10.04 | 3:25.19 | 167254 | 182647
11 | 40:35.23 | 3:50.29 | 182648 | 199926


Характеристики диапазона извлечения и сообщения об ошибках

Выбранный диапазон

Имя файла F:\Cats In Boots - Kicked And Klawed\Cats In Boots - Kicked And Klawed.wav

Пиковый уровень 99.7 %
Скорость извлечения 2.6 X
Качество диапазона 100.0 %
CRC теста 25ED85A2
CRC копии 25ED85A2
Копирование… OK

Ошибок не произошло


AccurateRip: сводка

Трек 1 отсутствует в базе данных
Трек 2 отсутствует в базе данных
Трек 3 отсутствует в базе данных
Трек 4 отсутствует в базе данных
Трек 5 отсутствует в базе данных
Трек 6 отсутствует в базе данных
Трек 7 отсутствует в базе данных
Трек 8 отсутствует в базе данных
Трек 9 отсутствует в базе данных
Трек 10 отсутствует в базе данных
Трек 11 отсутствует в базе данных

Ни одного трека нет в базе AccurateRip

Конец отчёта

==== Контрольная сумма отчёта 0C9170236B8D17A338E884A8B76F54DDA7875D7461E84909DDC028C896035F27 ====


Many thanks to the original uploader: afayurij
*******
Lossless

Uploaded | Turbobit

*****
Mp3

Uploaded | Turbobit

Password: pass