Tags
Language
Tags

Cecilia Bartoli - Queen of Baroque

Posted By: ArlegZ
Cecilia Bartoli - Queen of Baroque

Cecilia Bartoli - Queen of Baroque (2020)
EAC | FLAC | Image (Cue & Log) ~ 365 Mb | Total time: 78:40 | Scans included
Classical | Label: Decca | # 485 1275 | Recorded: 1991-2017

A collection of the very best of Bartoli's treasured recordings of musical delights and discoveries of the 17th and 18th century. Featuring two previously unreleased world premiere recordings of forgotten jewels by Leonardo Vinci and Agostino Steffani. With guest appearances from Philippe Jaroussky, June Anderson, Franco Fagioli and Sol Gabetta.

Performer:
Cecilia Bartoli, mezzo-soprano

Track List:
Agostino Steffani (1654-1728)
01. I Trionfi del fato: E l'honor stella tiranna (Enea)
I Barrochisti / Diego Fasolis
Leonardo Vinci (1690-1730)
02. Alessandro nell'Indie: Quanto invidio la sorte… Chi vive amante (Erissena)
Il Giardino Armonico / Giovanni Antonini
George Frideric Handel (1685-1759)
03. Rinaldo, HWV 7a, Act 2: Lascia ch'io pianga mia cruda sorte (Almirena)
Academy of Ancient Music / Christopher Hogwood
Riccardo Broschi (c.1698-1756)
04. Artaserse: Son qual nave ch'agitata (Arbace)
Il Giardino Armonico / Giovanni Antonini
Giovanni Battista Pergolesi (1710-1736)
 05. Stabat Mater: Stabat Mater dolorosa
June Anderson (soprano)
Cecilia Bartoli (mezzo-soprano)
Sinfonietta de Montréal / Charles Dutoit
Antonio Vivaldi (1678-1741)
06. Vivaldi: Griselda, Act 3: Agitata da due venti (Costanza)
Sonatori de la Gioiosa Marca
Agostino Steffani
07. Niobe Regina di Tebe: Serena, o mio bel sole…Mia fiamma…Mio adore (Anfione, Niobe)
Philippe Jaroussky (countertenor)
Cecilia Bartoli (mezzo-soprano)
I Barocchisti / Diego Fasolis
Alessandro Scarlatti (1660-1725)
08.  Sedecia, re di Gerusalemme: Caldo Sangue (Ismaele)
Les Musiciens du Louvre / Marc Minkowski
George Frideric Handel
09. Serse, HWV 40, Act 1: Ombra mai fu (Serse)
Il Giardino Armonico / Giovanni Antonini
Tomaso Albinoni (1671-1750/51)
10.  Il nascimento de l'Aurora: Aure andate e baciate (Zefiro)
Andrés Gabetta (violin)
Sol Gabetta (cello)
Cappella Gabetta
Carl Heinrich Graun (c.1703-1759)
11. Adriano In Siria: Deh, tu bel Dio d'amore… Ov'è il mio bene? (Farnaspe)
Il Giardino Armonico / Giovanni Antonini
Agostino Steffani
12. Stabat Mater: Eja Mater, fons amoris… Fac, ut ardeat … Sancta Mater… Tui nati vulnerati
Cecilia Bartoli (mezzo-soprano)
Julian Prégardian (tenor)
Daniel Behle (tenor)
Franco Fagioli (countertenor)
I Barocchisti, Coro della Radiotelevisione Svizzera / Diego Fasolis
Antonio Caldara (c.1671-1736)
 13.  Il Trionfo dell'Innocenza: Vanne pentita a piangere (Santa Eugenia)
Les Musiciens du Louvre / Marc Minkowski
George Frideric Handel
14. La Resurrezione, HWV47: Disserratevi oh porte d'Averno
Les Musiciens du Louvre / Marc Minkowski
Nicola Porpora (1686-1768)
15. Germanico in Germania: Parto ti lascio, o cara (Arminio)
Il Giardino Armonico / Giovanni Antonini
Agostino Steffani
16. I Trionfi del fato: Combatton quest'alma (Enea, Lavinia)
Philippe Jaroussky (countertenor)
Cecilia Bartoli (mezzo-soprano)
I Barocchisti / Diego Fasolis
George Frideric Handel
17. Rinaldo, Act 3: Aria: Bel piacere (Almirena)
Academy of Ancient Music / Christopher Hogwood


Exact Audio Copy V1.3 from 2. September 2016

EAC extraction logfile from 22. February 2021, 16:56

Cecilia Bartoli / Queen of Baroque

Used drive : HL-DT-STDVDRAM GH24NS95 Adapter: 1 ID: 0

Read mode : Secure
Utilize accurate stream : Yes
Defeat audio cache : Yes
Make use of C2 pointers : No

Read offset correction : 6
Overread into Lead-In and Lead-Out : No
Fill up missing offset samples with silence : Yes
Delete leading and trailing silent blocks : No
Null samples used in CRC calculations : Yes
Used interface : Native Win32 interface for Win NT & 2000

Used output format : User Defined Encoder
Selected bitrate : 768 kBit/s
Quality : High
Add ID3 tag : No
Command line compressor : C:\Program Files\Exact Audio Copy\FLAC\FLAC.EXE
Additional command line options : -6 -V -T "ARTIST=%artist%" -T "TITLE=%title%" -T "ALBUM=%albumtitle%" -T "DATE=%year%" -T "TRACKNUMBER=%tracknr%" -T "GENRE=%genre%" -T "COMMENT=%comment%" -T "BAND=%albuminterpret%" -T "ALBUMARTIST=%albuminterpret%" -T "COMPOSER=%composer%" %haslyrics%–tag-from-file=LYRICS="%lyricsfile%"%haslyrics% -T "DISCNUMBER=%cdnumber%" -T "TOTALDISCS=%totalcds%" -T "TOTALTRACKS=%numtracks%" %hascover%–picture="%coverfile%"%hascover% %source% -o %dest%


TOC of the extracted CD

Track | Start | Length | Start sector | End sector
––––––––––––––––––––––––––––-
1 | 0:00.00 | 2:01.64 | 0 | 9138
2 | 2:01.64 | 4:00.15 | 9139 | 27153
3 | 6:02.04 | 4:50.03 | 27154 | 48906
4 | 10:52.07 | 7:28.56 | 48907 | 82562
5 | 18:20.63 | 3:53.56 | 82563 | 100093
6 | 22:14.44 | 5:22.16 | 100094 | 124259
7 | 27:36.60 | 2:18.20 | 124260 | 134629
8 | 29:55.05 | 5:28.74 | 134630 | 159303
9 | 35:24.04 | 3:23.68 | 159304 | 174596
10 | 38:47.72 | 3:21.50 | 174597 | 189721
11 | 42:09.47 | 3:40.65 | 189722 | 206286
12 | 45:50.37 | 4:19.26 | 206287 | 225737
13 | 50:09.63 | 8:49.62 | 225738 | 265474
14 | 58:59.50 | 4:43.71 | 265475 | 286770
15 | 63:43.46 | 10:45.34 | 286771 | 335179
16 | 74:29.05 | 2:06.03 | 335180 | 344632
17 | 76:35.08 | 2:05.32 | 344633 | 354039


Range status and errors

Selected range

Filename C:\Program Files\Exact Audio Copy\Cecilia Bartoli - Queen of Baroque.wav

Peak level 99.9 %
Extraction speed 2.1 X
Range quality 100.0 %
Test CRC 369DC7AA
Copy CRC 369DC7AA
Copy OK

No errors occurred

End of status report