Subcategories

Celine Dion - A New Day... Live In Las Vegas (2004)

Posted By: popsakov
Celine Dion - A New Day... Live In Las Vegas (2004)

Celine Dion - A New Day… Live In Las Vegas (2004)
EAC Rip | FLAC (Img) + Cue + Log ~ 437 Mb | MP3 CBR320 ~ 146 Mb
Scans (JPG, 600 dpi) ~ 46 Mb | RAR 5% Recovery
Pop, Adult Contemporary | Columbia #2-515225

After two studio records, an intensive media campaign for a large automobile company, a new perfume fragrance, and a successful tour and residency in Las Vegas, one would reason that Celine Dion is long overdue for yet another sabbatical after a rather intensive 18-month span. However, this is not to be the case. This live document of the Las Vegas show drives home the point that Celine is one of the most potent entertainers in adult contemporary music. A smattering of her greatest hits ("My Heart Will Go On," "Because You Loved Me," "It's All Coming Back to Me Now") is mixed with vocal standards (a rather enchanting rendition of Etta James' brilliant "At Last," "What a Wonderful World," "I've Got the World On a String"), bringing a balanced, well-conceived program that highlights the dynamics and versatility in Dion's voice. She's equally as comfortable in high-tempo numbers chock-full of her signature vocal acrobatics as she is in quiet, contemplative moments. It's an ideal souvenir for those who have experienced the magic with their own ears and eyes. And while it's not the most definitive document of Dion's career, it certainly is a stirring testament to her accomplishments as the standard to whom most vocalists aspire.
~ Rob Theakston, All Music
Celine Dion - A New Day... Live In Las Vegas (2004)


***************

Celine Dion - A New Day... Live In Las Vegas (2004)

Celine Dion - A New Day... Live In Las Vegas (2004)

Track List:

01. Nature Boy [0:04:13.20]
02. It's All Coming Back To Me Now [0:03:37.22]
03. Because You Loved Me (Love Theme From ''Up Close & Personal'') [0:02:28.33]
04. I'm Alive [0:04:15.27]
05. If I Could [0:05:15.20]
06. At Last [0:03:29.58]
07. Fever [0:02:52.50]
08. I've Got The World On A String [0:02:23.02]
09. Et Je T'Aime Encore [0:04:42.30]
10. I Wish [0:04:13.00]
11. I Drove All Night [0:04:47.50]
12. My Heart Will Go On (Love Theme From ''Titanic'') [0:05:24.23]
13. What A Wonderful World [0:04:47.32]
14. You And I (Studio Recording) [0:04:04.18]
15. Ain't Gonna Look The Other Way (Studio Recording) [0:04:24.68]

Exact Audio Copy V1.0 beta 3 from 29. August 2011

EAC extraction logfile from 24. February 2015, 19:22

Celine Dion / A New Day… Live In Las Vegas

Used drive : ATAPI iHAS124 D Adapter: 0 ID: 2

Read mode : Secure
Utilize accurate stream : Yes
Defeat audio cache : Yes
Make use of C2 pointers : No

Read offset correction : 6
Overread into Lead-In and Lead-Out : No
Fill up missing offset samples with silence : Yes
Delete leading and trailing silent blocks : No
Null samples used in CRC calculations : Yes
Used interface : Installed external ASPI interface

Used output format : User Defined Encoder
Selected bitrate : 1024 kBit/s
Quality : High
Add ID3 tag : No
Command line compressor : C:\Program Files (x86)\Exact Audio Copy\Flac\flac.exe
Additional command line options : -6 -V -T "ARTIST=%artist%" -T "TITLE=%title%" -T "ALBUM=%albumtitle%" -T "DATE=%year%" -T "TRACKNUMBER=%tracknr%" -T "GENRE=%genre%" -T "COMMENT=%comment%" -T "BAND=%albuminterpret%" -T "COMPOSER=%composer%" %haslyrics%–tag-from-file=LYRICS="%lyricsfile%"%haslyrics% -T "DISCNUMBER=%cdnumber%" -T "TOTALDISCS=%totalcds%" -T "TOTALTRACKS=%numtracks%" %hascover%–picture="%coverfile%"%hascover% %source% -o %dest%


TOC of the extracted CD

Track | Start | Length | Start sector | End sector
––––––––––––––––––––––––––––-
1 | 0:00.00 | 4:13.20 | 0 | 18994
2 | 4:13.20 | 3:37.22 | 18995 | 35291
3 | 7:50.42 | 2:28.33 | 35292 | 46424
4 | 10:19.00 | 4:15.27 | 46425 | 65576
5 | 14:34.27 | 5:15.20 | 65577 | 89221
6 | 19:49.47 | 3:29.58 | 89222 | 104954
7 | 23:19.30 | 2:52.50 | 104955 | 117904
8 | 26:12.05 | 2:23.02 | 117905 | 128631
9 | 28:35.07 | 4:42.30 | 128632 | 149811
10 | 33:17.37 | 4:13.00 | 149812 | 168786
11 | 37:30.37 | 4:47.50 | 168787 | 190361
12 | 42:18.12 | 5:24.23 | 190362 | 214684
13 | 47:42.35 | 4:47.32 | 214685 | 236241
14 | 52:29.67 | 4:04.18 | 236242 | 254559
15 | 56:34.10 | 4:24.68 | 254560 | 274427


Range status and errors

Selected range

Filename C:\mm\Celine Dion\2004 - A New Day… Live In Las Vegas [2-515225]\Celine Dion - A New Day… Live In Las Vegas.wav

Peak level 100.0 %
Extraction speed 9.1 X
Range quality 100.0 %
Test CRC 7789AF9A
Copy CRC 7789AF9A
Copy OK

No errors occurred


AccurateRip summary

Track 1 accurately ripped (confidence 1) [177DA7FC] (AR v1)
Track 2 accurately ripped (confidence 1) [D0044AA3] (AR v1)
Track 3 accurately ripped (confidence 1) [9D946119] (AR v1)
Track 4 accurately ripped (confidence 1) [2F71AC92] (AR v1)
Track 5 accurately ripped (confidence 1) [FE949E07] (AR v1)
Track 6 accurately ripped (confidence 1) [E98A3280] (AR v1)
Track 7 accurately ripped (confidence 1) [5883547D] (AR v1)
Track 8 accurately ripped (confidence 1) [6DF60DC4] (AR v1)
Track 9 accurately ripped (confidence 1) [A564DBC4] (AR v1)
Track 10 accurately ripped (confidence 1) [FCE73235] (AR v1)
Track 11 accurately ripped (confidence 1) [F42080B8] (AR v1)
Track 12 accurately ripped (confidence 1) [246CD584] (AR v1)
Track 13 accurately ripped (confidence 1) [268E1F37] (AR v1)
Track 14 accurately ripped (confidence 1) [8C1ACEC6] (AR v1)
Track 15 accurately ripped (confidence 1) [01D72B04] (AR v1)

All tracks accurately ripped

End of status report

foobar2000 1.2.6 / Dynamic Range Meter 1.1.1
log date: 2017-05-20 01:14:33

––––––––––––––––––––––––––––––––––––––––
Analyzed: Celine Dion / A New Day… Live In Las Vegas
––––––––––––––––––––––––––––––––––––––––

DR Peak RMS Duration Track
––––––––––––––––––––––––––––––––––––––––
DR13 -0.10 dB -16.81 dB 4:13 01-Nature Boy
DR7 -0.10 dB -11.23 dB 3:37 02-It's All Coming Back To Me Now
DR7 -0.10 dB -10.58 dB 2:28 03-Because You Loved Me (Love Theme From ''Up Close & Personal'')
DR8 -0.10 dB -10.65 dB 4:15 04-I'm Alive
DR9 -0.10 dB -13.32 dB 5:15 05-If I Could
DR8 -0.10 dB -11.14 dB 3:30 06-At Last
DR9 -0.10 dB -10.84 dB 2:53 07-Fever
DR7 -0.10 dB -9.83 dB 2:23 08-I've Got The World On A String
DR9 -0.10 dB -13.38 dB 4:42 09-Et Je T'Aime Encore
DR7 -0.10 dB -8.73 dB 4:13 10-I Wish
DR7 0.00 dB -9.58 dB 4:48 11-I Drove All Night
DR8 -0.10 dB -11.62 dB 5:24 12-My Heart Will Go On (Love Theme From ''Titanic'')
DR12 0.00 dB -16.21 dB 4:47 13-What A Wonderful World
DR5 -0.10 dB -5.95 dB 4:04 14-You And I (Studio Recording)
DR4 -0.10 dB -6.30 dB 4:25 15-Ain't Gonna Look The Other Way (Studio Recording)
––––––––––––––––––––––––––––––––––––––––

Number of tracks: 15
Official DR value: DR8

Samplerate: 44100 Hz
Channels: 2
Bits per sample: 16
Bitrate: 955 kbps
Codec: FLAC
================================================================================

[CUETools log; Date: 20.05.2017 1:14:33; Version: 2.1.5]
[CTDB TOCID: 5NufZCrL6wJelZCYcZZqDKXXf5k-] found.
Track | CTDB Status
1 | (2/2) Accurately ripped
2 | (2/2) Accurately ripped
3 | (2/2) Accurately ripped
4 | (2/2) Accurately ripped
5 | (2/2) Accurately ripped
6 | (2/2) Accurately ripped
7 | (2/2) Accurately ripped
8 | (2/2) Accurately ripped
9 | (2/2) Accurately ripped
10 | (2/2) Accurately ripped
11 | (2/2) Accurately ripped
12 | (2/2) Accurately ripped
13 | (2/2) Accurately ripped
14 | (2/2) Accurately ripped
15 | (2/2) Accurately ripped
[AccurateRip ID: 001ffb07-016dd493-d10e4b0f] found.
Track [ CRC | V2 ] Status
01 [177da7fc|fd7075f9] (1+1/2) Accurately ripped
02 [d0044aa3|4a77d7c2] (1+1/2) Accurately ripped
03 [9d946119|130fe9a3] (1+1/2) Accurately ripped
04 [2f71ac92|965d5840] (1+1/2) Accurately ripped
05 [fe949e07|8bb6e94e] (1+1/2) Accurately ripped
06 [e98a3280|0ab04a69] (1+1/2) Accurately ripped
07 [5883547d|525feec7] (1+1/2) Accurately ripped
08 [6df60dc4|06c6d850] (1+1/2) Accurately ripped
09 [a564dbc4|debb1035] (1+1/2) Accurately ripped
10 [fce73235|9b83a87a] (1+1/2) Accurately ripped
11 [f42080b8|c06525b5] (1+1/2) Accurately ripped
12 [246cd584|ccd72cb9] (1+1/2) Accurately ripped
13 [268e1f37|422828d0] (1+1/2) Accurately ripped
14 [8c1acec6|8f20f521] (1+1/2) Accurately ripped
15 [01d72b04|17a999b9] (1+1/2) Accurately ripped

Track Peak [ CRC32 ] [W/O NULL] [ LOG ]
– 100,0 [7789AF9A] [6D942A5F] CRC32
01 98,8 [4D4C7414] [082F0F18]
02 98,8 [5D669DC8] [1E2747C2]
03 98,8 [387A77D0] [12B30FD1]
04 98,8 [66B16BBC] [EA7E9E59]
05 98,8 [EC82ED7F] [EE2C4201]
06 98,8 [3988B266] [24E2D568]
07 98,8 [EAEB2550] [A7EEFC86]
08 98,8 [2FA50097] [E45F5886]
09 98,8 [E95195A0] [82866E35]
10 98,8 [73CEE1F5] [6D1C14EE]
11 100,0 [F37FA91D] [7F15C1CA]
12 98,8 [D30C0BD6] [7C940478]
13 100,0 [040E1F7E] [1398A380]
14 98,8 [D8DA55FF] [E11BCE61]
15 98,8 [9650D2BE] [4BD95ED4]

Celine Dion - A New Day... Live In Las Vegas (2004)

All thanks go to sergych

>>> Celine Dion in my Blog <<<

Download from icerbox.com: