Cellador - Off The Grid (2017) [Japanese Ed.]

Posted By: Andi_Deris
Cellador - Off The Grid (2017) [Japanese Ed.]

Cellador - Off The Grid (2017) [Japanese Ed.]
EAC Rip | FLAC: Image+Cue+Log | 374 Mb | MP3 CBR 320 kbps | 122 Mb | Scans | 58 Mb | Time: 46:00
King Record Co., Ltd. | KICP-1835
Power/Speed Metal

Rip out the cables, tear out the cords, destroy your laptops, and smash your smartphones. Cellador returns with a vengeance, exploding onto the world circuits with its massively anticipated album ‘Off The Grid!’

Meticulously crafted at the helm of founding member, songwriter, and producer Chris Petersen, the long awaited follow up to the critically acclaimed ‘Enter Deception’ is finally here, setting the bar even higher and faster on its trademark brand of steroid injected, high intensity power metal music.
An allegory to the band’s free spirited nature, ‘Off The Grid’ musically conceptualizes a self-empowered approach to living, including tearing yourself free from the hive-mindedness of an increasingly collective thinking technological society, and paying tribute to the often neglected original personality and identity we retain within ourselves.

Cellador - Off The Grid (2017) [Japanese Ed.]




Track Listing

01. Sole Survivors (03:48)
02. Break Heresy (04:18)
03. Shadowfold (04:04)
04. Wake Up The Tyrant (04:17)
05. Off The Grid (04:54)
06. Swallow Your Pride (05:04)
07. Shimmering Status (04:40)
08. Good Enough (Cyndi Lauper cover) (03:17)
09. This Means War (04:25)
10. Running Riot (03:16)
11. Faceless Dark (Japanese bonus track) (03:57)

Produced by Chris Petersen

The Band

• Chris Petersen - Guitar, Vocals
• Diego Valadez - Synths
• James Pickett - Bass
• Nick Mccallister - Drums

*****
• Guest guitar solo on “Shimmering Status” by Todd Seitz
• Guest keyboard solo on “Wake Up the Tyrant” by Peter Rutcho

Exact Audio Copy V1.3 from 2. September 2016

EAC extraction logfile from 7. March 2017, 12:31

Cellador / Off The Grid (Japan)

Used drive : ATAPI iHAS122 W Adapter: 2 ID: 0

Read mode : Secure
Utilize accurate stream : Yes
Defeat audio cache : Yes
Make use of C2 pointers : No

Read offset correction : 48
Overread into Lead-In and Lead-Out : No
Fill up missing offset samples with silence : Yes
Delete leading and trailing silent blocks : No
Null samples used in CRC calculations : Yes
Used interface : Installed external ASPI interface

Used output format : User Defined Encoder
Selected bitrate : 1024 kBit/s
Quality : High
Add ID3 tag : No
Command line compressor : C:\Program Files\FLAC\flac.exe
Additional command line options : -V -8 -T "Date=%year%" -T "Genre=%genre%" -T"COMMENT=Ripped by Ilijan - ilko" -8 -V %source%


TOC of the extracted CD

Track | Start | Length | Start sector | End sector
––––––––––––––––––––––––––––-
1 | 0:00.00 | 3:47.72 | 0 | 17096
2 | 3:47.72 | 4:17.59 | 17097 | 36430
3 | 8:05.56 | 4:03.71 | 36431 | 54726
4 | 12:09.52 | 4:17.07 | 54727 | 74008
5 | 16:26.59 | 4:53.51 | 74009 | 96034
6 | 21:20.35 | 5:04.24 | 96035 | 118858
7 | 26:24.59 | 4:39.60 | 118859 | 139843
8 | 31:04.44 | 3:16.62 | 139844 | 154605
9 | 34:21.31 | 4:25.04 | 154606 | 174484
10 | 38:46.35 | 3:15.74 | 174485 | 189183
11 | 42:02.34 | 3:57.21 | 189184 | 206979


Range status and errors

Selected range

Filename D:\ilko\Cellador - Off The Grid (Japan).wav

Peak level 100.0 %
Extraction speed 3.7 X
Range quality 100.0 %
Test CRC F20FAF90
Copy CRC F20FAF90
Copy OK

No errors occurred


AccurateRip summary

Track 1 accurately ripped (confidence 1) [3FF9ABFC] (AR v2)
Track 2 accurately ripped (confidence 1) [69903A74] (AR v2)
Track 3 accurately ripped (confidence 1) [DD00925A] (AR v2)
Track 4 accurately ripped (confidence 1) [6E0B6757] (AR v2)
Track 5 accurately ripped (confidence 1) [26298E39] (AR v2)
Track 6 accurately ripped (confidence 1) [58778B42] (AR v2)
Track 7 accurately ripped (confidence 1) [3F5B75D6] (AR v2)
Track 8 accurately ripped (confidence 1) [4052780F] (AR v2)
Track 9 accurately ripped (confidence 1) [0BC70842] (AR v2)
Track 10 accurately ripped (confidence 1) [DD6C1F96] (AR v2)
Track 11 accurately ripped (confidence 1) [EECEB0C9] (AR v2)

All tracks accurately ripped

End of status report

–– CUETools DB Plugin V2.1.6

[CTDB TOCID: M9oe69gQhZDY3VWc9uHn3OhAAuk-] found
Submit result: M9oe69gQhZDY3VWc9uHn3OhAAuk- has been confirmed
Track | CTDB Status
1 | (2/2) Accurately ripped
2 | (2/2) Accurately ripped
3 | (2/2) Accurately ripped
4 | (2/2) Accurately ripped
5 | (2/2) Accurately ripped
6 | (2/2) Accurately ripped
7 | (2/2) Accurately ripped
8 | (2/2) Accurately ripped
9 | (2/2) Accurately ripped
10 | (2/2) Accurately ripped
11 | (2/2) Accurately ripped


==== Log checksum 4DEFE9DFBD9B0EA5F599BC8F1D46A5AC9158D6A3353339F2A3C554CB20ECCE28 ====


Many thanks to the original uploader: Ilijan

SEE also:
Cellador 2006 Enter Deception [Japanese Ed.]