Tags
Language
Tags

Champion Jack Dupree - From New Orleans To Chicago (1966) & Champion Jack Dupree And His Blues Band (1967) [2CD Reissue 2004]

Posted By: gribovar
Champion Jack Dupree - From New Orleans To Chicago (1966) & Champion Jack Dupree And His Blues Band (1967) [2CD Reissue 2004]

Champion Jack Dupree - From New Orleans To Chicago (1966) & Champion Jack Dupree And His Blues Band (1967) [2CD Reissue 2004]
EAC Rip | FLAC (tracks+.cue+log) - 476 MB | MP3 CBR 320 kbps (LAME 3.93) - 220 MB | Covers - 33 MB
Genre: Piano Blues, Chicago Blues, New Orleans Blues | RAR 3% Rec. | Label: BGO Records (BGOCD649)

Like many black American blues and R&B artists, New Orleans singer and pianist Champion Jack Dupree found more respect and recognition in Europe than he did in his homeland, and he relocated to Europe in 1959, only rarely returning to the U.S. He cut several albums there, including the two included in this double-disc set from Beat Goes On, From New Orleans to Chicago, recorded in London in 1966, and Champion Jack Dupree and His Blues Band, tracked in the same city a year later (both were originally released on London Decca). Of the two, the latter release is the stronger (thanks in no small part to guitarist Mickey Baker), although From New Orleans is probably better known, mainly for the presence of Eric Clapton and John Mayall at the sessions. Throughout, listeners are treated to Dupree's thundering barrelhouse piano, his Emerald City vocals (always delivered, it seems, with a slight wink), and - in the case of the 1967 album - a solid and rocking backing band. Highlights include "Ain't It a Shame" and "Down the Valley" from the first disc and "Louise," "Come Back Baby" (an almost Cajun chunk of near-swamp pop), and "Georgiana," a ballad in the Ray Charles mold, from the second. Seldom have the blues been delivered with more open-ended glee, and fans of this engaging artist will undoubtedly be pleased that these albums are back in print, and packaged together.
CD 1 Tracklist (From New Orleans To Chicago (1966)):
01. Third Degree
02. T.V. Mama
03. He Knows The Rules
04. Ain't It A Shame
05. Ooh La-La
06. (Going Down To) Big Leg Emma's
07. Won't Be A Fool No More
08. Take It Slow And Easy
09. She's All In My Life
10. Poor Poor Me
11. Pigfoot And A Bottle Of Beer
12. Down The Valley
13. Too Early In The Morning
14. Shim-Sham-Shimmy

Total time: 48:00

CD 2 Tracklist (Champion Jack Dupree And His Blues Band (1967)):
01. Barrelhouse Woman
02. Louise
03. One Dirty Woman
04. When Things Go Wrong
05. Cut Down On My Overheads
06. Troubles
07. Tee-Nah-Nah
08. Caldonia
09. Under Your Hood
10. Come Back Baby
11. Baby Let Me Go With You
12. Garbage Man
13. I Feel Like A Millionaire
14. Right Now
15. Georgiana
16. Shake, Baby, Shake

Total time: 45:27

Exact Audio Copy V0.99 prebeta 4 from 23. January 2008

EAC extraction logfile from 3. July 2009, 15:45

Champion Jack Dupree / From New Orleans To Chicago

Used drive : PLEXTOR CD-R PX-230A Adapter: 1 ID: 1

Read mode : Secure
Utilize accurate stream : Yes
Defeat audio cache : Yes
Make use of C2 pointers : No

Read offset correction : 738
Overread into Lead-In and Lead-Out : No
Fill up missing offset samples with silence : Yes
Delete leading and trailing silent blocks : No
Null samples used in CRC calculations : Yes
Used interface : Installed external ASPI interface
Gap handling : Appended to previous track

Used output format : User Defined Encoder
Selected bitrate : 1024 kBit/s
Quality : High
Add ID3 tag : Yes
Command line compressor : C:\Program Files\Exact Audio Copy\1\FLAC\FLAC.EXE
Additional command line options : -6 -V -T "ARTIST=%a" -T "TITLE=%t" -T "ALBUM=%g" -T "DATE=%y" -T "TRACKNUMBER=%n" -T "GENRE=%m" -T "COMMENT=%e" %s -o %d


TOC of the extracted CD

Track | Start | Length | Start sector | End sector
––––––––––––––––––––––––––––-
1 | 0:00.00 | 3:18.65 | 0 | 14914
2 | 3:18.65 | 3:39.65 | 14915 | 31404
3 | 6:58.55 | 2:45.05 | 31405 | 43784
4 | 9:43.60 | 4:28.09 | 43785 | 63893
5 | 14:11.69 | 3:42.69 | 63894 | 80612
6 | 17:54.63 | 3:17.60 | 80613 | 95447
7 | 21:12.48 | 3:59.55 | 95448 | 113427
8 | 25:12.28 | 3:39.37 | 113428 | 129889
9 | 28:51.65 | 2:11.49 | 129890 | 139763
10 | 31:03.39 | 4:29.32 | 139764 | 159970
11 | 35:32.71 | 2:40.70 | 159971 | 172040
12 | 38:13.66 | 4:06.62 | 172041 | 190552
13 | 42:20.53 | 3:29.42 | 190553 | 206269
14 | 45:50.20 | 2:09.56 | 206270 | 216000


Track 1

Filename J:\Rips\01 - Third Degree.wav

Pre-gap length 0:00:02.00

Peak level 99.0 %
Track quality 100.0 %
Test CRC CD4FE2BE
Copy CRC CD4FE2BE
Track not present in AccurateRip database
Copy OK

Track 2

Filename J:\Rips\02 - T.V. Mama.wav

Pre-gap length 0:00:01.52

Peak level 66.3 %
Track quality 100.0 %
Test CRC ADEE57BB
Copy CRC ADEE57BB
Track not present in AccurateRip database
Copy OK

Track 3

Filename J:\Rips\03 - He Knows The Rules.wav

Pre-gap length 0:00:01.64

Peak level 95.7 %
Track quality 100.0 %
Test CRC 3104531C
Copy CRC 3104531C
Track not present in AccurateRip database
Copy OK

Track 4

Filename J:\Rips\04 - Ain't It A Shame.wav

Pre-gap length 0:00:01.66

Peak level 80.5 %
Track quality 100.0 %
Test CRC C157DAD6
Copy CRC C157DAD6
Track not present in AccurateRip database
Copy OK

Track 5

Filename J:\Rips\05 - Ooh La-La.wav

Pre-gap length 0:00:02.64

Peak level 69.9 %
Track quality 100.0 %
Test CRC E0C5AAFD
Copy CRC E0C5AAFD
Track not present in AccurateRip database
Copy OK

Track 6

Filename J:\Rips\06 - (Going Down To) Big Leg Emma's.wav

Pre-gap length 0:00:02.11

Peak level 86.9 %
Track quality 100.0 %
Test CRC 276F180D
Copy CRC 276F180D
Track not present in AccurateRip database
Copy OK

Track 7

Filename J:\Rips\07 - Won't Be A Fool No More.wav

Pre-gap length 0:00:02.11

Peak level 60.6 %
Track quality 99.9 %
Test CRC DE0FEF8B
Copy CRC DE0FEF8B
Track not present in AccurateRip database
Copy OK

Track 8

Filename J:\Rips\08 - Take It Slow And Easy.wav

Pre-gap length 0:00:02.28

Peak level 80.3 %
Track quality 99.9 %
Test CRC 6E13E90B
Copy CRC 6E13E90B
Track not present in AccurateRip database
Copy OK

Track 9

Filename J:\Rips\09 - She's All In My Life.wav

Pre-gap length 0:00:02.21

Peak level 85.4 %
Track quality 100.0 %
Test CRC 51A17616
Copy CRC 51A17616
Track not present in AccurateRip database
Copy OK

Track 10

Filename J:\Rips\10 - Poor Poor Me.wav

Pre-gap length 0:00:02.42

Peak level 64.3 %
Track quality 100.0 %
Test CRC 871CBA4D
Copy CRC 871CBA4D
Track not present in AccurateRip database
Copy OK

Track 11

Filename J:\Rips\11 - Pigfoot And A Bottle Of Beer.wav

Pre-gap length 0:00:02.04

Peak level 89.1 %
Track quality 100.0 %
Test CRC D7A2546E
Copy CRC D7A2546E
Track not present in AccurateRip database
Copy OK

Track 12

Filename J:\Rips\12 - Down The Valley.wav

Pre-gap length 0:00:01.65

Peak level 92.1 %
Track quality 100.0 %
Test CRC FE2BBF86
Copy CRC FE2BBF86
Track not present in AccurateRip database
Copy OK

Track 13

Filename J:\Rips\13 - Too Early In The Morning.wav

Pre-gap length 0:00:02.11

Peak level 75.6 %
Track quality 99.9 %
Test CRC A466A5F3
Copy CRC A466A5F3
Track not present in AccurateRip database
Copy OK

Track 14

Filename J:\Rips\14 - Shim-Sham-Shimmy.wav

Pre-gap length 0:00:01.59

Peak level 100.0 %
Track quality 100.0 %
Test CRC E0CF5906
Copy CRC E0CF5906
Track not present in AccurateRip database
Copy OK


None of the tracks are present in the AccurateRip database

No errors occurred

End of status report

[CUETools log; Date: 01.08.2021 1:35:52; Version: 2.1.4]
[CTDB TOCID: qtn9CQfwkenqFKbFoWgwucu9fQY-] found.
Track | CTDB Status
1 | (3/3) Accurately ripped
2 | (3/3) Accurately ripped
3 | (3/3) Accurately ripped
4 | (3/3) Accurately ripped
5 | (3/3) Accurately ripped
6 | (3/3) Accurately ripped
7 | (3/3) Accurately ripped
8 | (3/3) Accurately ripped
9 | (3/3) Accurately ripped
10 | (3/3) Accurately ripped
11 | (3/3) Accurately ripped
12 | (3/3) Accurately ripped
13 | (3/3) Accurately ripped
14 | (3/3) Accurately ripped
[AccurateRip ID: 00194c7a-010dade5-ae0b400e] found.
Track [ CRC | V2 ] Status
01 [57810d78|f2d9de60] (0+0/5) No match
02 [3e945adb|bfa7a8f3] (0+0/5) No match
03 [51c4c543|3d702dd5] (0+0/5) No match
04 [5439f2ee|8ed3a920] (0+0/5) No match
05 [5a7f0b91|41193787] (0+0/5) No match
06 [27504849|c38b3c7a] (0+0/5) No match
07 [ab548dfe|a957d585] (0+0/5) No match
08 [b6748642|1c5db277] (0+0/5) No match
09 [96d67435|32ecc206] (0+0/5) No match
10 [79f38c14|daf6a2ae] (0+0/5) No match
11 [119f2712|b841a8ba] (0+0/5) No match
12 [7faabf1f|070faf8b] (0+0/5) No match
13 [00511b20|c59ff13e] (0+0/5) No match
14 [4861cfaa|36eb21d0] (0+0/5) No match
Offsetted by -30:
01 [7006a2aa] (0/5) No match (V2 was not tested)
02 [6fb125fd] (0/5) No match (V2 was not tested)
03 [4b0a4513] (0/5) No match (V2 was not tested)
04 [1c508f94] (0/5) No match (V2 was not tested)
05 [306d17cb] (0/5) No match (V2 was not tested)
06 [22aacb8d] (0/5) No match (V2 was not tested)
07 [ef3495ac] (0/5) No match (V2 was not tested)
08 [33964ee6] (0/5) No match (V2 was not tested)
09 [0aa094f3] (0/5) No match (V2 was not tested)
10 [04cea682] (0/5) No match (V2 was not tested)
11 [ce7a03ce] (0/5) No match (V2 was not tested)
12 [039407a1] (0/5) No match (V2 was not tested)
13 [27c51868] (0/5) No match (V2 was not tested)
14 [8e04549c] (0/5) No match (V2 was not tested)
Offsetted by 6:
01 [85ccbc6e] (0/5) No match (V2 was not tested)
02 [018e98a1] (0/5) No match (V2 was not tested)
03 [b983abb3] (0/5) No match (V2 was not tested)
04 [f9023a00] (0/5) No match (V2 was not tested)
05 [62e9091f] (0/5) No match (V2 was not tested)
06 [f50afad5] (0/5) No match (V2 was not tested)
07 [0427bfa8] (0/5) No match (V2 was not tested)
08 [03d42aee] (0/5) No match (V2 was not tested)
09 [4c7ad40f] (0/5) No match (V2 was not tested)
10 [f7c7b9fe] (0/5) No match (V2 was not tested)
11 [b8a69486] (0/5) No match (V2 was not tested)
12 [987c1705] (0/5) No match (V2 was not tested)
13 [c539e878] (0/5) No match (V2 was not tested)
14 [3a7481e0] (0/5) No match (V2 was not tested)
Offsetted by 18:
01 [e2641a5a] (0/5) No match (V2 was not tested)
02 [8783142d] (0/5) No match (V2 was not tested)
03 [89017893] (0/5) No match (V2 was not tested)
04 [4292c824] (0/5) No match (V2 was not tested)
05 [73bd043b] (0/5) No match (V2 was not tested)
06 [90805fed] (0/5) No match (V2 was not tested)
07 [b5ce22fc] (0/5) No match (V2 was not tested)
08 [9e937446] (0/5) No match (V2 was not tested)
09 [b7c393c3] (0/5) No match (V2 was not tested)
10 [f37015d2] (0/5) No match (V2 was not tested)
11 [06b56f6e] (0/5) No match (V2 was not tested)
12 [ca1ec6d1] (0/5) No match (V2 was not tested)
13 [4f0b8328] (0/5) No match (V2 was not tested)
14 [1e99e64c] (0/5) No match (V2 was not tested)

Track Peak [ CRC32 ] [W/O NULL] [ LOG ]
– 100,0 [A1DE36D7] [4BD0F436]
01 99,0 [CD4FE2BE] [BBAEC9C5] CRC32
02 66,3 [ADEE57BB] [2CB2590B] CRC32
03 95,7 [3104531C] [29B5D1B5] CRC32
04 80,5 [C157DAD6] [7D8A5FD1] CRC32
05 69,9 [E0C5AAFD] [AC588AA6] CRC32
06 86,9 [276F180D] [D56A2ABD] CRC32
07 60,6 [DE0FEF8B] [262661E2] CRC32
08 80,3 [6E13E90B] [84E7795A] CRC32
09 85,4 [51A17616] [23C9901A] CRC32
10 64,3 [871CBA4D] [789973A8] CRC32
11 89,1 [D7A2546E] [DA2F2763] CRC32
12 92,1 [FE2BBF86] [46487A8D] CRC32
13 75,6 [A466A5F3] [932EB623] CRC32
14 100,0 [E0CF5906] [DBB4C24E] CRC32

Exact Audio Copy V0.99 prebeta 4 from 23. January 2008

EAC extraction logfile from 3. July 2009, 17:33

Champion Jack Dupree / Champion Jack Dupree & His Blues Band feat. Mickey Baker

Used drive : PLEXTOR CD-R PX-230A Adapter: 1 ID: 1

Read mode : Secure
Utilize accurate stream : Yes
Defeat audio cache : Yes
Make use of C2 pointers : No

Read offset correction : 738
Overread into Lead-In and Lead-Out : No
Fill up missing offset samples with silence : Yes
Delete leading and trailing silent blocks : No
Null samples used in CRC calculations : Yes
Used interface : Installed external ASPI interface
Gap handling : Appended to previous track

Used output format : User Defined Encoder
Selected bitrate : 1024 kBit/s
Quality : High
Add ID3 tag : Yes
Command line compressor : C:\Program Files\Exact Audio Copy\1\FLAC\FLAC.EXE
Additional command line options : -6 -V -T "ARTIST=%a" -T "TITLE=%t" -T "ALBUM=%g" -T "DATE=%y" -T "TRACKNUMBER=%n" -T "GENRE=%m" -T "COMMENT=%e" %s -o %d


TOC of the extracted CD

Track | Start | Length | Start sector | End sector
––––––––––––––––––––––––––––-
1 | 0:00.00 | 2:03.54 | 0 | 9278
2 | 2:03.54 | 3:07.27 | 9279 | 23330
3 | 5:11.06 | 2:23.41 | 23331 | 34096
4 | 7:34.47 | 2:39.65 | 34097 | 46086
5 | 10:14.37 | 3:02.49 | 46087 | 59785
6 | 13:17.11 | 4:38.08 | 59786 | 80643
7 | 17:55.19 | 2:03.74 | 80644 | 89942
8 | 19:59.18 | 2:26.11 | 89943 | 100903
9 | 22:25.29 | 2:39.32 | 100904 | 112860
10 | 25:04.61 | 3:04.05 | 112861 | 126665
11 | 28:08.66 | 1:45.26 | 126666 | 134566
12 | 29:54.17 | 3:44.58 | 134567 | 151424
13 | 33:39.00 | 2:46.31 | 151425 | 163905
14 | 36:25.31 | 3:25.74 | 163906 | 179354
15 | 39:51.30 | 3:15.72 | 179355 | 194051
16 | 43:07.27 | 2:19.45 | 194052 | 204521


Track 1

Filename J:\Rips\01 - Barrelhouse Woman.wav

Pre-gap length 0:00:02.00

Peak level 100.0 %
Track quality 100.0 %
Test CRC DA467090
Copy CRC DA467090
Cannot be verified as accurate (confidence 1) [CE22E4FF], AccurateRip returned [BA775267]
Copy OK

Track 2

Filename J:\Rips\02 - Louise.wav

Pre-gap length 0:00:01.43

Peak level 100.0 %
Track quality 100.0 %
Test CRC 2F5F217F
Copy CRC 2F5F217F
Cannot be verified as accurate (confidence 1) [8A8B09EA], AccurateRip returned [051629AA]
Copy OK

Track 3

Filename J:\Rips\03 - One Dirty Woman.wav

Pre-gap length 0:00:01.57

Peak level 100.0 %
Track quality 100.0 %
Test CRC 7CFCDA86
Copy CRC 7CFCDA86
Cannot be verified as accurate (confidence 1) [04563DCF], AccurateRip returned [6825DF0F]
Copy OK

Track 4

Filename J:\Rips\04 - When Things Go Wrong.wav

Pre-gap length 0:00:01.03

Peak level 100.0 %
Track quality 100.0 %
Test CRC B2E40947
Copy CRC B2E40947
Cannot be verified as accurate (confidence 1) [CB2B74BD], AccurateRip returned [31FAC5E3]
Copy OK

Track 5

Filename J:\Rips\05 - Cut Down On My Overheads.wav

Pre-gap length 0:00:02.16

Peak level 98.9 %
Track quality 100.0 %
Test CRC 52FAB826
Copy CRC 52FAB826
Cannot be verified as accurate (confidence 1) [DA4C4D11], AccurateRip returned [A9AE34D1]
Copy OK

Track 6

Filename J:\Rips\06 - Troubles.wav

Pre-gap length 0:00:01.53

Peak level 100.0 %
Track quality 100.0 %
Test CRC AA2EF135
Copy CRC AA2EF135
Cannot be verified as accurate (confidence 1) [8FFB04A6], AccurateRip returned [C870E982]
Copy OK

Track 7

Filename J:\Rips\07 - Tee-Nah-Nah.wav

Pre-gap length 0:00:01.19

Peak level 89.1 %
Track quality 100.0 %
Test CRC 66CD4845
Copy CRC 66CD4845
Cannot be verified as accurate (confidence 1) [BB53B505], AccurateRip returned [DE49AB25]
Copy OK

Track 8

Filename J:\Rips\08 - Caldonia.wav

Pre-gap length 0:00:01.43

Peak level 100.0 %
Track quality 100.0 %
Test CRC A90B098A
Copy CRC A90B098A
Cannot be verified as accurate (confidence 1) [787AE518], AccurateRip returned [0D685508]
Copy OK

Track 9

Filename J:\Rips\09 - Under Your Hood.wav

Pre-gap length 0:00:01.53

Peak level 100.0 %
Track quality 100.0 %
Test CRC C95F54D5
Copy CRC C95F54D5
Cannot be verified as accurate (confidence 1) [4F9B8B41], AccurateRip returned [A9673829]
Copy OK

Track 10

Filename J:\Rips\10 - Come Back Baby.wav

Pre-gap length 0:00:01.18

Peak level 100.0 %
Track quality 100.0 %
Test CRC 2C4E493A
Copy CRC 2C4E493A
Cannot be verified as accurate (confidence 1) [0F368F67], AccurateRip returned [7827F805]
Copy OK

Track 11

Filename J:\Rips\11 - Baby Let Me Go With You.wav

Pre-gap length 0:00:02.08

Peak level 100.0 %
Track quality 100.0 %
Test CRC 8F259564
Copy CRC 8F259564
Cannot be verified as accurate (confidence 1) [26827D42], AccurateRip returned [45112C2C]
Copy OK

Track 12

Filename J:\Rips\12 - Garbage Man.wav

Pre-gap length 0:00:01.28

Peak level 92.4 %
Track quality 99.9 %
Test CRC 42CCABB7
Copy CRC 42CCABB7
Cannot be verified as accurate (confidence 1) [229AAC75], AccurateRip returned [02FE9DBD]
Copy OK

Track 13

Filename J:\Rips\13 - I Feel Like A Millionaire.wav

Pre-gap length 0:00:01.46

Peak level 100.0 %
Track quality 100.0 %
Test CRC 422E72CD
Copy CRC 422E72CD
Cannot be verified as accurate (confidence 1) [8F5A0D3A], AccurateRip returned [B4BC030C]
Copy OK

Track 14

Filename J:\Rips\14 - Right Now.wav

Pre-gap length 0:00:02.10

Peak level 100.0 %
Track quality 100.0 %
Test CRC 1A59399F
Copy CRC 1A59399F
Cannot be verified as accurate (confidence 1) [A2F4382C], AccurateRip returned [E55948B4]
Copy OK

Track 15

Filename J:\Rips\15 - Georgiana.wav

Pre-gap length 0:00:02.07

Peak level 100.0 %
Track quality 100.0 %
Test CRC 666E16A0
Copy CRC 666E16A0
Cannot be verified as accurate (confidence 1) [E655AFDF], AccurateRip returned [21136BBD]
Copy OK

Track 16

Filename J:\Rips\16 - Shake, Baby, Shake.wav

Pre-gap length 0:00:01.31

Peak level 100.0 %
Track quality 100.0 %
Test CRC CC2593B6
Copy CRC CC2593B6
Cannot be verified as accurate (confidence 1) [038A8C9C], AccurateRip returned [E01ADE14]
Copy OK


No tracks could be verified as accurate
You may have a different pressing from the one(s) in the database

No errors occurred

End of status report

[CUETools log; Date: 01.08.2021 1:35:17; Version: 2.1.4]
[CTDB TOCID: BVE8vowbXD4kScyDfbh0PuLq_kE-] found.
Track | CTDB Status
1 | (4/4) Accurately ripped
2 | (4/4) Accurately ripped
3 | (4/4) Accurately ripped
4 | (4/4) Accurately ripped
5 | (4/4) Accurately ripped
6 | (4/4) Accurately ripped
7 | (4/4) Accurately ripped
8 | (4/4) Accurately ripped
9 | (4/4) Accurately ripped
10 | (4/4) Accurately ripped
11 | (4/4) Accurately ripped
12 | (4/4) Accurately ripped
13 | (4/4) Accurately ripped
14 | (4/4) Accurately ripped
15 | (4/4) Accurately ripped
16 | (4/4) Accurately ripped
[AccurateRip ID: 001a1d41-013b8673-db0aa610] found.
Track [ CRC | V2 ] Status
01 [ce22e4ff|c627c082] (0+0/8) No match
02 [8a8b09ea|ea26ddb2] (0+0/8) No match
03 [04563dcf|72b7cccb] (0+0/8) No match
04 [cb2b74bd|6c7fe4be] (0+0/8) No match
05 [da4c4d11|d5468918] (0+0/8) No match
06 [8ffb04a6|a1480b26] (0+0/8) No match
07 [bb53b505|31ea5d57] (0+0/8) No match
08 [787ae518|c44ca54d] (0+0/8) No match
09 [4f9b8b41|15f618ce] (0+0/8) No match
10 [0f368f67|4ad07428] (0+0/8) No match
11 [26827d42|6ab9f724] (0+0/8) No match
12 [229aac75|31f3e2a5] (0+0/8) No match
13 [8f5a0d3a|f371754e] (0+0/8) No match
14 [a2f4382c|3c6e8aa2] (0+0/8) No match
15 [e655afdf|b75f703e] (0+0/8) No match
16 [038a8c9c|36bd750b] (0+0/8) No match
Offsetted by 18:
01 [ba775267] (3/8) Accurately ripped
02 [051629aa] (3/8) Accurately ripped
03 [6825df0f] (3/8) Accurately ripped
04 [31fac5e3] (3/8) Accurately ripped
05 [a9ae34d1] (3/8) Accurately ripped
06 [c870e982] (3/8) Accurately ripped
07 [de49ab25] (3/8) Accurately ripped
08 [0d685508] (3/8) Accurately ripped
09 [a9673829] (3/8) Accurately ripped
10 [7827f805] (3/8) Accurately ripped
11 [45112c2c] (3/8) Accurately ripped
12 [02fe9dbd] (3/8) Accurately ripped
13 [b4bc030c] (3/8) Accurately ripped
14 [e55948b4] (3/8) Accurately ripped
15 [21136bbd] (3/8) Accurately ripped
16 [e01ade14] (3/8) Accurately ripped
Offsetted by -6:
01 [2a06c087] (0/8) No match (V2 was not tested)
02 [b70754aa] (0/8) No match (V2 was not tested)
03 [e311080f] (0/8) No match (V2 was not tested)
04 [5391045b] (0/8) No match (V2 was not tested)
05 [ea80ffd1] (0/8) No match (V2 was not tested)
06 [7d290db2] (0/8) No match (V2 was not tested)
07 [5a570da5] (0/8) No match (V2 was not tested)
08 [9c2bbfc8] (0/8) No match (V2 was not tested)
09 [31acfc49] (0/8) No match (V2 was not tested)
10 [4190c1dd] (0/8) No match (V2 was not tested)
11 [71a842f4] (0/8) No match (V2 was not tested)
12 [d7ceb15d] (0/8) No match (V2 was not tested)
13 [d83965f4] (0/8) No match (V2 was not tested)
14 [e227dd54] (0/8) No match (V2 was not tested)
15 [7d6bc695] (0/8) No match (V2 was not tested)
16 [0f5a7174] (0/8) No match (V2 was not tested)
Offsetted by 6:
01 [723f0977] (0/8) No match (V2 was not tested)
02 [5e0ebf2a] (0/8) No match (V2 was not tested)
03 [259b738f] (0/8) No match (V2 was not tested)
04 [42c5e51f] (0/8) No match (V2 was not tested)
05 [ca179a51] (0/8) No match (V2 was not tested)
06 [a2ccfb9a] (0/8) No match (V2 was not tested)
07 [1c505c65] (0/8) No match (V2 was not tested)
08 [54ca0a68] (0/8) No match (V2 was not tested)
09 [6d8a1a39] (0/8) No match (V2 was not tested)
10 [dcdc5cf1] (0/8) No match (V2 was not tested)
11 [db5cb790] (0/8) No match (V2 was not tested)
12 [6d66a78d] (0/8) No match (V2 was not tested)
13 [467ab480] (0/8) No match (V2 was not tested)
14 [63c09304] (0/8) No match (V2 was not tested)
15 [4f3f9929] (0/8) No match (V2 was not tested)
16 [f7baa7c4] (0/8) No match (V2 was not tested)

Track Peak [ CRC32 ] [W/O NULL] [ LOG ]
– 100,0 [633DA0DF] [7849EBDE]
01 100,0 [DA467090] [7D69C44C] CRC32
02 100,0 [2F5F217F] [0DD12AAE] CRC32
03 100,0 [7CFCDA86] [E8BE5787] CRC32
04 100,0 [B2E40947] [EE49FA07] CRC32
05 98,9 [52FAB826] [927EF0F0] CRC32
06 100,0 [AA2EF135] [E3A02FE5] CRC32
07 89,1 [66CD4845] [9FAF4058] CRC32
08 100,0 [A90B098A] [58790999] CRC32
09 99,9 [C95F54D5] [E361F52E] CRC32
10 100,0 [2C4E493A] [DE45F3FE] CRC32
11 100,0 [8F259564] [8740527B] CRC32
12 92,4 [42CCABB7] [368577FA] CRC32
13 100,0 [422E72CD] [E4FAAF20] CRC32
14 100,0 [1A59399F] [194592B1] CRC32
15 100,0 [666E16A0] [49A50E2C] CRC32
16 100,0 [CC2593B6] [72BF3B5C] CRC32

Thanks to рмх222