Subcategories

Charles Aznavour - 100 Chansons (2008)

Posted By: v3122
Charles Aznavour - 100 Chansons (2008)

Charles Aznavour - 100 Chansons (2008)
EAC | Flac(Image) + Cue + Log & MP3 CBR 320Kbps
5CD | EMI, 03098 50999 5026222 9 | ~ 1985 or 797 Mb | Scans(png) -> 126 Mb
French Chanson

If you like Charles Aznavour, you will love this new collection. It contains some of his classic songs, as well as those from a few years ago. One good song is followed by an even greater one, without boredom. Aznavour is a timeless masterpiece, which keeps on perfecting.

Byballetlife, amazon


Charles Aznavour - 100 Chansons (2008)

Charles Aznavour is perhaps the best-known French music hall entertainer in the world – renowned the world over for the bittersweet love songs he has written and sung, which seem to embody the essence of French popular song, and also for his appearances on screen in such wildly divergent fare as Shoot the Piano Player, Candy, and The Tin Drum. His status as the quintessential French popular culture icon is something of an irony for a man who identifies himself most closely with his Armenian heritage. Born Shahnour Varenagh Aznavourian, his French roots derive from the fact that his family fled the threat of massacre by the Turks – his father was a singer and sometime-restauranteur, while his mother was an actress and part-time seamstress. His father's singing, done in a notably impassioned style, heavily influenced Aznavour's approach to singing as a boy. Although he had a voracious appetite for music, he also had a serious impediment growing up, in the form of a paralyzed vocal cord that gave his voice a raspy quality. He channeled some of his energy into theater, making both his stage and screen debuts at age nine, in 1933, in the theater piece Un Bon Petite Diable and in the film La Guerre des Gosses. As an adolescent, he danced in nightclubs and sold newspapers, as well as touring with theatrical companies, and he wrote a nightclub act in partnership with Pierre Roche – Aznavour wrote the lyrics to their songs and it was through that material that he began his singing career. Early on, he learned to overcome his fears about his vocal limitations, in part with help from singing legend Edith Piaf, for whom he worked as a chauffeur, among other capacities; with her help, he developed a style that suited his capabilities and played to his strengths and also continued writing songs in earnest, some of which were performed by Piaf.

His success came very slowly, however. Aznavour at first found some difficulty being accepted as a composer in France or anywhere else. His compositions, although considered tame by any modern standard, were regarded as too risqué for French radio and were banned from the airwaves for a decade or more, from the late '40s through the end of the 1950s; American publishers seemed equally reticent about them, as he discovered on a visit to New York in 1948. That trip did yield his first performing engagement in the city, however, at the Cafe Society Downtown in Greenwich Village. For the next decade, Aznavour made his living as a performer in second-tier clubs and middle- or bottom-of-the-bill berths on three continents. His mix of daringly original and frank love songs, coupled with a limited but very expressive singing style, left audiences somewhat bewildered at first.

His breakthrough came in 1956, during a vaudeville engagement in Casablanca, where the audience reaction was so positive that Aznavour was moved to headliner status. After this, it became easier for the singer to find better engagements in France; by 1958 he even had a recording contract. He made his screen debut that same year in a dramatic role, playing an epileptic in George Franju's La Tete Contre les Muirs. He also composed music for Alex Joff's Du Rififi Chez Les Femmes in 1958; from there, he moved on to bigger roles in better movies, including Jean Cocteau's Testament of Orpheus and Francois Truffaut's Shoot the Piano Player. The latter movie turned Aznavour into a screen star in France and opened the way for his breakthrough in America. He sang at Carnegie Hall in the early '60s and followed this up in 1965 with a one-man show, The World of Charles Aznavour, at the Ambassador Hotel in New York, which drew rave notices from audiences and critics alike. By that time, the once-struggling singer had secured his first American LP release with the similarly titled album The World of Charles Aznavour on Reprise Records, the label founded and run by Frank Sinatra.

Aznavour would be the last to compare himself with those whom he regards as truly gifted vocalists, such as Sinatra and Mel Torme, preferring to think of himself as a composer who also happens to sing. His style of performing has been compared variously to Maurice Chevalier and Sinatra and has remained enduringly popular for four decades. Almost all of Aznavour's songs deal with love and its permutations, running the gamut from upbeat, joyous pieces such as "Apres l'amour" and "J'Ai Perdu la Tete" to the dark-hued "J'en Deduis Que Je t'Aime" and "Bon Anniversaire." A teetotaler and a racing car enthusiast, Aznavour has been married three times and has three children.

by Bruce Eder, AMG
Charles Aznavour - 100 Chansons (2008):

Tracklist CD1:

01. Comme une maladie
02. Je hais les dimanches
03. Tu n'as plus
04. Sa jeunesse entre ses mains
05. Et bailler et dormir
06. L'Emigrant
07. Le Chemin de l'eternite
08. Ce sacre piano
09. A tout jamais
10. Apres l'amour
11. Au creux de mon epaule
12. Pour faire une jam
13. Poker
14. Plus bleu que tes yeux
15. Parce que
16. Le palais de nos chimères
17. On Ne Sait Jamais
18. J'en déduis que je t'aime
19. Une enfant
20. Si je n'avais plus

Exact Audio Copy V1.3 from 2. September 2016

Отчёт EAC об извлечении, выполненном 16. октября 2016, 21:09

Charles Aznavour / 100 chansons - CD 1

Дисковод: _NEC DVD_RW ND-3550A Adapter: 1 ID: 3

Режим чтения : Достоверность
Использование точного потока : Да
Отключение кэша аудио : Да
Использование указателей C2 : Нет

Коррекция смещения при чтении : 48
Способность читать области Lead-in и Lead-out : Нет
Заполнение пропущенных сэмплов тишиной : Да
Удаление блоков с тишиной в начале и конце : Нет
При вычислениях CRC использовались нулевые сэмплы : Да
Интерфейс : Встроенный Win32-интерфейс для Win NT/2000

Выходной формат : Пользовательский кодировщик
Выбранный битрейт : 1024 kBit/s
Качество : Высокий
Добавление ID3-тега : Нет
Утилита сжатия : C:\Program Files (x86)\Exact Audio Copy\FLAC\FLAC.EXE
Дополнительные параметры : -6 -V -T "ARTIST=%artist%" -T "TITLE=%title%" -T "ALBUM=%albumtitle%" -T "DATE=%year%" -T "TRACKNUMBER=%tracknr%" -T "GENRE=%genre%" -T "COMMENT=%comment%" -T "BAND=%albuminterpret%" -T "ALBUMARTIST=%albuminterpret%" -T "COMPOSER=%composer%" %haslyrics%–tag-from-file=LYRICS="%lyricsfile%"%haslyrics% -T "DISCNUMBER=%cdnumber%" -T "TOTALDISCS=%totalcds%" -T "TOTALTRACKS=%numtracks%" %hascover%–picture="%coverfile%"%hascover% %source% -o %dest%


TOC извлечённого CD

Трек | Старт | Длительность | Начальный сектор | Конечный сектор
––––––––––––––––––––––––––––––––––-
1 | 0:00.00 | 2:55.38 | 0 | 13162
2 | 2:55.38 | 2:57.14 | 13163 | 26451
3 | 5:52.52 | 3:11.65 | 26452 | 40841
4 | 9:04.42 | 3:03.40 | 40842 | 54606
5 | 12:08.07 | 2:59.66 | 54607 | 68097
6 | 15:07.73 | 2:54.18 | 68098 | 81165
7 | 18:02.16 | 3:15.14 | 81166 | 95804
8 | 21:17.30 | 3:18.02 | 95805 | 110656
9 | 24:35.32 | 2:25.01 | 110657 | 121532
10 | 27:00.33 | 2:44.26 | 121533 | 133858
11 | 29:44.59 | 3:14.22 | 133859 | 148430
12 | 32:59.06 | 2:44.22 | 148431 | 160752
13 | 35:43.28 | 2:26.20 | 160753 | 171722
14 | 38:09.48 | 3:03.12 | 171723 | 185459
15 | 41:12.60 | 2:22.40 | 185460 | 196149
16 | 43:35.25 | 2:21.18 | 196150 | 206742
17 | 45:56.43 | 2:17.61 | 206743 | 217078
18 | 48:14.29 | 3:05.22 | 217079 | 230975
19 | 51:19.51 | 3:00.14 | 230976 | 244489
20 | 54:19.65 | 2:48.74 | 244490 | 257163


Характеристики диапазона извлечения и сообщения об ошибках

Выбранный диапазон

Имя файла C:\Users\Desktop\Charles Aznavour - 100 CHANSONS (BOX, 5 CD)\Charles Aznavour - 100 chansons - CD 1.wav

Пиковый уровень 100.0 %
Скорость извлечения 7.1 X
Качество диапазона 100.0 %
CRC копии 447C200F
Копирование… OK

Ошибок не произошло


AccurateRip: сводка

Трек 1 : извлечено точно (доверие 2) [6ABD8E2A] (AR v2)
Трек 2 : извлечено точно (доверие 2) [765CC611] (AR v2)
Трек 3 : извлечено точно (доверие 2) [841A274B] (AR v2)
Трек 4 : извлечено точно (доверие 2) [D1FA731F] (AR v2)
Трек 5 : извлечено точно (доверие 3) [C92DC7D2] (AR v2)
Трек 6 : извлечено точно (доверие 3) [EAD32F90] (AR v2)
Трек 7 : извлечено точно (доверие 3) [8F30068F] (AR v2)
Трек 8 : извлечено точно (доверие 3) [896A9BF5] (AR v2)
Трек 9 : извлечено точно (доверие 3) [B74B2301] (AR v2)
Трек 10 : извлечено точно (доверие 3) [ACD808D2] (AR v2)
Трек 11 : извлечено точно (доверие 3) [D16317D0] (AR v2)
Трек 12 : извлечено точно (доверие 3) [EBDB99E2] (AR v2)
Трек 13 : извлечено точно (доверие 3) [70AF183B] (AR v2)
Трек 14 : извлечено точно (доверие 3) [514C3EDD] (AR v2)
Трек 15 : извлечено точно (доверие 3) [7E8DACE3] (AR v2)
Трек 16 : извлечено точно (доверие 3) [A3F56A96] (AR v2)
Трек 17 : извлечено точно (доверие 3) [B7D4840B] (AR v2)
Трек 18 : извлечено точно (доверие 3) [6F1774D6] (AR v2)
Трек 19 : извлечено точно (доверие 3) [D213D2BB] (AR v2)
Трек 20 : извлечено точно (доверие 3) [5F0563EC] (AR v2)

Все треки извлечены точно

Конец отчёта

–– CUETools DB Plugin V2.1.6

[CTDB TOCID: nGB6hGgKu7t_ApHsQN16nXbpy9g-] database access error: Время ожидания операции истекло


==== Контрольная сумма отчёта E39ACDF950E5059906F5CE1FA2DA995D4F6890E9562C26BCAC12285BA6F4A3B8 ====


[CUETools log; Date: 18.10.2016 15:54:54; Version: 2.1.4]
[CTDB TOCID: nGB6hGgKu7t_ApHsQN16nXbpy9g-] found.
Track | CTDB Status
1 | (2/2) Accurately ripped
2 | (2/2) Accurately ripped
3 | (2/2) Accurately ripped
4 | (2/2) Accurately ripped
5 | (2/2) Accurately ripped
6 | (2/2) Accurately ripped
7 | (2/2) Accurately ripped
8 | (2/2) Accurately ripped
9 | (2/2) Accurately ripped
10 | (2/2) Accurately ripped
11 | (2/2) Accurately ripped
12 | (2/2) Accurately ripped
13 | (2/2) Accurately ripped
14 | (2/2) Accurately ripped
15 | (2/2) Accurately ripped
16 | (2/2) Accurately ripped
17 | (2/2) Accurately ripped
18 | (2/2) Accurately ripped
19 | (2/2) Accurately ripped
20 | (2/2) Accurately ripped
[AccurateRip ID: 002a315f-026665e8-320d6414] found.
Track [ CRC | V2 ] Status
01 [1c209b37|6abd8e2a] (5+2/7) Accurately ripped
02 [758c8f06|765cc611] (5+2/7) Accurately ripped
03 [5c6d1325|841a274b] (5+2/7) Accurately ripped
04 [e2972c9f|d1fa731f] (5+2/7) Accurately ripped
05 [c572b57d|c92dc7d2] (5+3/8) Accurately ripped
06 [75b548a6|ead32f90] (5+3/8) Accurately ripped
07 [f3180c71|8f30068f] (5+3/8) Accurately ripped
08 [20b9ebd2|896a9bf5] (5+3/8) Accurately ripped
09 [7a808246|b74b2301] (5+3/8) Accurately ripped
10 [25e8830e|acd808d2] (5+3/8) Accurately ripped
11 [5d126ec8|d16317d0] (5+3/8) Accurately ripped
12 [ee6a22ce|ebdb99e2] (5+3/8) Accurately ripped
13 [31050988|70af183b] (5+3/8) Accurately ripped
14 [2155165f|514c3edd] (5+3/8) Accurately ripped
15 [a7e4f058|7e8dace3] (5+3/8) Accurately ripped
16 [74c25f81|a3f56a96] (5+3/8) Accurately ripped
17 [2767ccd0|b7d4840b] (5+3/8) Accurately ripped
18 [9348b6c7|6f1774d6] (5+3/8) Accurately ripped
19 [93ec1317|d213d2bb] (5+3/8) Accurately ripped
20 [ec29dcc8|5f0563ec] (5+3/8) Accurately ripped

Track Peak [ CRC32 ] [W/O NULL] [ LOG ]
– 100,0 [447C200F] [AB89DD65] CRC32
01 96,5 [6959A43D] [923C6E3C]
02 99,1 [3357B28A] [6869B2D0]
03 99,9 [98DE1A3E] [C3D45BD3]
04 86,6 [6652571A] [C977A714]
05 83,8 [0C952A1A] [641D0C4B]
06 87,8 [80F79B83] [87EAD328]
07 84,0 [6E7910B7] [FC09F0A3]
08 83,5 [2C88222B] [EF25CC45]
09 96,2 [06443F24] [C0EB516A]
10 100,0 [7016BFEA] [EF8AC0AC]
11 100,0 [CDDA1B84] [0924E2AA]
12 100,0 [904019D9] [1F6D35F6]
13 90,4 [9AE72B87] [72FF715D]
14 89,6 [42D69645] [0F648D92]
15 100,0 [52EA3DAB] [8B2473F6]
16 100,0 [E3BC19AA] [4C614996]
17 100,0 [286043BD] [39F8753C]
18 80,6 [59D3C7DC] [2350A4F0]
19 100,0 [AB7E08AD] [91F6FD91]
20 90,3 [102CF2C7] [4B23AFAD]


Tracklist CD2:

01. Les deux guitares
02. Qui
03. Les Enfants De La Guerre
04. Hier encore
05. Les faux
06. Et pourtant
07. Et moi dans mon coin
08. Emmenez moi
34,178
09. Il te suffisait que je t'aime
10. Il faut savoir
11. Comme des étrangers
12. Ce jour tant attendu
13. Bon anniversaire
14. Le cabotin
15. À ma fille
16. Au printemps tu reviendras
17. Paris Au Mois D'Août
18. Non je n'ai rien oublié
19. Marie l'orpheline
20. Jolies Mômes De Mon Quartier

Exact Audio Copy V1.3 from 2. September 2016

Отчёт EAC об извлечении, выполненном 17. октября 2016, 0:53

Charles Aznavour / 100 chansons - CD 2

Дисковод: _NEC DVD_RW ND-3550A Adapter: 1 ID: 3

Режим чтения : Достоверность
Использование точного потока : Да
Отключение кэша аудио : Да
Использование указателей C2 : Нет

Коррекция смещения при чтении : 48
Способность читать области Lead-in и Lead-out : Нет
Заполнение пропущенных сэмплов тишиной : Да
Удаление блоков с тишиной в начале и конце : Нет
При вычислениях CRC использовались нулевые сэмплы : Да
Интерфейс : Встроенный Win32-интерфейс для Win NT/2000

Выходной формат : Пользовательский кодировщик
Выбранный битрейт : 1024 kBit/s
Качество : Высокий
Добавление ID3-тега : Нет
Утилита сжатия : C:\Program Files (x86)\Exact Audio Copy\FLAC\FLAC.EXE
Дополнительные параметры : -6 -V -T "ARTIST=%artist%" -T "TITLE=%title%" -T "ALBUM=%albumtitle%" -T "DATE=%year%" -T "TRACKNUMBER=%tracknr%" -T "GENRE=%genre%" -T "COMMENT=%comment%" -T "BAND=%albuminterpret%" -T "ALBUMARTIST=%albuminterpret%" -T "COMPOSER=%composer%" %haslyrics%–tag-from-file=LYRICS="%lyricsfile%"%haslyrics% -T "DISCNUMBER=%cdnumber%" -T "TOTALDISCS=%totalcds%" -T "TOTALTRACKS=%numtracks%" %hascover%–picture="%coverfile%"%hascover% %source% -o %dest%


TOC извлечённого CD

Трек | Старт | Длительность | Начальный сектор | Конечный сектор
––––––––––––––––––––––––––––––––––-
1 | 0:00.00 | 3:50.12 | 0 | 17261
2 | 3:50.12 | 3:37.40 | 17262 | 33576
3 | 7:27.52 | 3:13.69 | 33577 | 48120
4 | 10:41.46 | 2:21.58 | 48121 | 58753
5 | 13:03.29 | 2:41.28 | 58754 | 70856
6 | 15:44.57 | 2:48.63 | 70857 | 83519
7 | 18:33.45 | 3:34.24 | 83520 | 99593
8 | 22:07.69 | 3:32.35 | 99594 | 115528
9 | 25:40.29 | 3:07.19 | 115529 | 129572
10 | 28:47.48 | 3:09.66 | 129573 | 143813
11 | 31:57.39 | 2:26.17 | 143814 | 154780
12 | 34:23.56 | 2:08.34 | 154781 | 164414
13 | 36:32.15 | 4:08.05 | 164415 | 183019
14 | 40:40.20 | 4:53.32 | 183020 | 205026
15 | 45:33.52 | 3:37.20 | 205027 | 221321
16 | 49:10.72 | 3:04.53 | 221322 | 235174
17 | 52:15.50 | 3:24.16 | 235175 | 250490
18 | 55:39.66 | 6:27.00 | 250491 | 279515
19 | 62:06.66 | 3:10.06 | 279516 | 293771
20 | 65:16.72 | 2:31.06 | 293772 | 305102


Характеристики диапазона извлечения и сообщения об ошибках

Выбранный диапазон

Имя файла C:\Users\ОЛЕГ\Desktop\Charles Aznavour - 100 CHANSONS (BOX, 5 CD) (2008)\Charles Aznavour - 100 chansons - CD 2.wav

Пиковый уровень 100.0 %
Скорость извлечения 7.6 X
Качество диапазона 100.0 %
CRC копии 62E54187
Копирование… OK

Ошибок не произошло


AccurateRip: сводка

Трек 1 : извлечено точно (доверие 2) [8C5AA98D] (AR v2)
Трек 2 : извлечено точно (доверие 3) [3090F0B3] (AR v2)
Трек 3 : извлечено точно (доверие 3) [D81A871E] (AR v2)
Трек 4 : извлечено точно (доверие 3) [926E6034] (AR v2)
Трек 5 : извлечено точно (доверие 3) [544CF587] (AR v2)
Трек 6 : извлечено точно (доверие 3) [321BDA78] (AR v2)
Трек 7 : извлечено точно (доверие 3) [F3FE07BA] (AR v2)
Трек 8 : извлечено точно (доверие 3) [614F4441] (AR v2)
Трек 9 : извлечено точно (доверие 3) [A432F729] (AR v2)
Трек 10 : извлечено точно (доверие 3) [67858E79] (AR v2)
Трек 11 : извлечено точно (доверие 3) [179C1AD7] (AR v2)
Трек 12 : извлечено точно (доверие 3) [B5B0C2B4] (AR v2)
Трек 13 : извлечено точно (доверие 3) [29E1367D] (AR v2)
Трек 14 : извлечено точно (доверие 3) [90C80153] (AR v2)
Трек 15 : извлечено точно (доверие 3) [CE290F57] (AR v2)
Трек 16 : извлечено точно (доверие 3) [A99CA926] (AR v2)
Трек 17 : извлечено точно (доверие 3) [975E2833] (AR v2)
Трек 18 : извлечено точно (доверие 3) [C7C2F354] (AR v2)
Трек 19 : извлечено точно (доверие 3) [B2236862] (AR v2)
Трек 20 : извлечено точно (доверие 3) [2FA5D237] (AR v2)

Все треки извлечены точно

Конец отчёта

–– CUETools DB Plugin V2.1.6

[CTDB TOCID: PZRqjC0cA_LKbMtjYUR6EoHzfPw-] found
Submit result: Время ожидания операции истекло
Track | CTDB Status
1 | (2/2) Accurately ripped
2 | (2/2) Accurately ripped
3 | (2/2) Accurately ripped
4 | (2/2) Accurately ripped
5 | (2/2) Accurately ripped
6 | (2/2) Accurately ripped
7 | (2/2) Accurately ripped
8 | (2/2) Accurately ripped
9 | (2/2) Accurately ripped
10 | (2/2) Accurately ripped
11 | (2/2) Accurately ripped
12 | (2/2) Accurately ripped
13 | (2/2) Accurately ripped
14 | (2/2) Accurately ripped
15 | (2/2) Accurately ripped
16 | (2/2) Accurately ripped
17 | (2/2) Accurately ripped
18 | (2/2) Accurately ripped
19 | (2/2) Accurately ripped
20 | (2/2) Accurately ripped


==== Контрольная сумма отчёта 4C2FF57FFF8E8FE64B76F8D5628E155E1BA73CE166F67DB0D2D56428A389DD9D ====


[CUETools log; Date: 18.10.2016 15:57:23; Version: 2.1.4]
[CTDB TOCID: PZRqjC0cA_LKbMtjYUR6EoHzfPw-] found.
Track | CTDB Status
1 | (3/3) Accurately ripped
2 | (3/3) Accurately ripped
3 | (3/3) Accurately ripped
4 | (3/3) Accurately ripped
5 | (3/3) Accurately ripped
6 | (3/3) Accurately ripped
7 | (3/3) Accurately ripped
8 | (3/3) Accurately ripped
9 | (3/3) Accurately ripped
10 | (3/3) Accurately ripped
11 | (3/3) Accurately ripped
12 | (3/3) Accurately ripped
13 | (3/3) Accurately ripped
14 | (3/3) Accurately ripped
15 | (3/3) Accurately ripped
16 | (3/3) Accurately ripped
17 | (3/3) Accurately ripped
18 | (3/3) Accurately ripped
19 | (3/3) Accurately ripped
20 | (3/3) Accurately ripped
[AccurateRip ID: 002f32e7-02b81871-270fe414] found.
Track [ CRC | V2 ] Status
01 [5a1057bb|8c5aa98d] (6+2/8) Accurately ripped
02 [d82421dc|3090f0b3] (6+3/9) Accurately ripped
03 [3913ee4f|d81a871e] (6+3/9) Accurately ripped
04 [3c2a7a4a|926e6034] (6+3/9) Accurately ripped
05 [84c909e3|544cf587] (6+3/9) Accurately ripped
06 [55bc1606|321bda78] (6+3/9) Accurately ripped
07 [2a7b9bc2|f3fe07ba] (6+3/9) Accurately ripped
08 [dc756b2e|614f4441] (6+3/9) Accurately ripped
09 [1e7f3014|a432f729] (6+3/9) Accurately ripped
10 [206a7787|67858e79] (6+3/9) Accurately ripped
11 [7294e58b|179c1ad7] (6+3/9) Accurately ripped
12 [bca6a383|b5b0c2b4] (6+3/9) Accurately ripped
13 [f0653c1b|29e1367d] (6+3/9) Accurately ripped
14 [75725165|90c80153] (6+3/9) Accurately ripped
15 [25a8621a|ce290f57] (6+3/9) Accurately ripped
16 [24eba585|a99ca926] (6+3/9) Accurately ripped
17 [dae65641|975e2833] (6+3/9) Accurately ripped
18 [1ddbb935|c7c2f354] (6+3/9) Accurately ripped
19 [394386e9|b2236862] (6+3/9) Accurately ripped
20 [82dc035b|2fa5d237] (6+3/9) Accurately ripped

Track Peak [ CRC32 ] [W/O NULL] [ LOG ]
– 100,0 [62E54187] [35D5FF85] CRC32
01 100,0 [A02C8F34] [CAFE16FE]
02 100,0 [24E88C31] [DD6AC0A4]
03 100,0 [11C77474] [2A396B25]
04 100,0 [07C86CB6] [8E629E63]
05 100,0 [AFF8E34C] [9E03D49D]
06 100,0 [1F992F98] [97EE6EB7]
07 100,0 [C074A49D] [C4E01237]
08 100,0 [638C8FD7] [E87F076A]
09 100,0 [FB5EE5C1] [01912AAA]
10 100,0 [A234AF38] [CAF973BA]
11 100,0 [FEBF8041] [1C610A6B]
12 100,0 [3FF7D241] [9477E4AB]
13 100,0 [25FA6E98] [BA9570F2]
14 100,0 [95E64F44] [E90552D7]
15 100,0 [DE79C550] [A69D6930]
16 98,2 [344B8A99] [26985434]
17 100,0 [9D767F9B] [1CD6E155]
18 100,0 [11104333] [CCD8B6FF]
19 100,0 [7AABFDBE] [8360E5EC]
20 100,0 [1C79066E] [1C9C53EB]


Tracklist CD3:

01. Je te réchaufferai
02. Je n'oublierai jamais
03. Je m'voyais deja
04. Pour Essayer De Faire Une Chanson
05. Tu t'laisses aller
06. Tout s'en va
07. Le temps
08. Reste
09. Retiens la nuit
10. Le toreador
11. Je Reviens Fanny
12. Les jours heureux
13. Hosanna
14. Ere Buy 3:55
15. Un enfant est ne
16. Un enfant de toi pour Noel
17. J'ai vecu
18. Isabelle
19. Ils sont tombes
20. Comme ils disent

Exact Audio Copy V1.3 from 2. September 2016

Отчёт EAC об извлечении, выполненном 17. октября 2016, 12:30

Charles Aznavour / 100 chansons - CD3

Дисковод: _NEC DVD_RW ND-3550A Adapter: 1 ID: 3

Режим чтения : Достоверность
Использование точного потока : Да
Отключение кэша аудио : Да
Использование указателей C2 : Нет

Коррекция смещения при чтении : 48
Способность читать области Lead-in и Lead-out : Нет
Заполнение пропущенных сэмплов тишиной : Да
Удаление блоков с тишиной в начале и конце : Нет
При вычислениях CRC использовались нулевые сэмплы : Да
Интерфейс : Встроенный Win32-интерфейс для Win NT/2000

Выходной формат : Пользовательский кодировщик
Выбранный битрейт : 1024 kBit/s
Качество : Высокий
Добавление ID3-тега : Нет
Утилита сжатия : C:\Program Files (x86)\Exact Audio Copy\FLAC\FLAC.EXE
Дополнительные параметры : -6 -V -T "ARTIST=%artist%" -T "TITLE=%title%" -T "ALBUM=%albumtitle%" -T "DATE=%year%" -T "TRACKNUMBER=%tracknr%" -T "GENRE=%genre%" -T "COMMENT=%comment%" -T "BAND=%albuminterpret%" -T "ALBUMARTIST=%albuminterpret%" -T "COMPOSER=%composer%" %haslyrics%–tag-from-file=LYRICS="%lyricsfile%"%haslyrics% -T "DISCNUMBER=%cdnumber%" -T "TOTALDISCS=%totalcds%" -T "TOTALTRACKS=%numtracks%" %hascover%–picture="%coverfile%"%hascover% %source% -o %dest%


TOC извлечённого CD

Трек | Старт | Длительность | Начальный сектор | Конечный сектор
––––––––––––––––––––––––––––––––––-
1 | 0:00.00 | 3:14.12 | 0 | 14561
2 | 3:14.12 | 5:11.28 | 14562 | 37914
3 | 8:25.40 | 3:25.05 | 37915 | 53294
4 | 11:50.45 | 1:38.55 | 53295 | 60699
5 | 13:29.25 | 3:43.07 | 60700 | 77431
6 | 17:12.32 | 3:28.50 | 77432 | 93081
7 | 20:41.07 | 2:38.52 | 93082 | 104983
8 | 23:19.59 | 1:54.65 | 104984 | 113598
9 | 25:14.49 | 4:04.40 | 113599 | 131938
10 | 29:19.14 | 3:21.70 | 131939 | 147083
11 | 32:41.09 | 2:41.13 | 147084 | 159171
12 | 35:22.22 | 4:36.05 | 159172 | 179876
13 | 39:58.27 | 2:14.05 | 179877 | 189931
14 | 42:12.32 | 3:55.68 | 189932 | 207624
15 | 46:08.25 | 2:50.10 | 207625 | 220384
16 | 48:58.35 | 3:26.60 | 220385 | 235894
17 | 52:25.20 | 2:36.53 | 235895 | 247647
18 | 55:01.73 | 3:14.47 | 247648 | 262244
19 | 58:16.45 | 4:11.07 | 262245 | 281076
20 | 62:27.52 | 4:57.33 | 281077 | 303384


Характеристики диапазона извлечения и сообщения об ошибках

Выбранный диапазон

Имя файла C:\Users\Desktop\Charles Aznavour -CD3\Charles Aznavour - 100 chansons - CD3.wav

Пиковый уровень 100.0 %
Скорость извлечения 7.4 X
Качество диапазона 99.9 %
CRC копии 70562FD5
Копирование… OK

Ошибок не произошло


AccurateRip: сводка

Трек 1 : извлечено точно (доверие 3) [7B9F9CDE] (AR v2)
Трек 2 : извлечено точно (доверие 3) [77CE3CB6] (AR v2)
Трек 3 : извлечено точно (доверие 3) [43C0741D] (AR v2)
Трек 4 : извлечено точно (доверие 3) [7046A7AA] (AR v2)
Трек 5 : извлечено точно (доверие 3) [75B20BFE] (AR v2)
Трек 6 : извлечено точно (доверие 3) [44D1A73A] (AR v2)
Трек 7 : извлечено точно (доверие 3) [082B6BF7] (AR v2)
Трек 8 : извлечено точно (доверие 3) [96231D45] (AR v2)
Трек 9 : извлечено точно (доверие 3) [F2569F67] (AR v2)
Трек 10 : извлечено точно (доверие 3) [AD36E07C] (AR v2)
Трек 11 : извлечено точно (доверие 3) [8153A9B0] (AR v2)
Трек 12 : извлечено точно (доверие 3) [6BDA6902] (AR v2)
Трек 13 : извлечено точно (доверие 2) [50AD81AB] (AR v2)
Трек 14 : извлечено точно (доверие 3) [A0374C0A] (AR v2)
Трек 15 : извлечено точно (доверие 3) [584A27BB] (AR v2)
Трек 16 : извлечено точно (доверие 3) [260B1B35] (AR v2)
Трек 17 : извлечено точно (доверие 3) [DE3E9D00] (AR v2)
Трек 18 : извлечено точно (доверие 2) [A022DBC7] (AR v2)
Трек 19 : извлечено точно (доверие 2) [2AC8EF9A] (AR v2)
Трек 20 : извлечено точно (доверие 2) [AD43CDFF] (AR v2)

Все треки извлечены точно

Конец отчёта

–– CUETools DB Plugin V2.1.6

[CTDB TOCID: .7jAwgK9hPL052DeB1SN5S.Vhss-] found
Submit result: Время ожидания операции истекло
Track | CTDB Status
1 | (2/2) Accurately ripped
2 | (2/2) Accurately ripped
3 | (2/2) Accurately ripped
4 | (2/2) Accurately ripped
5 | (2/2) Accurately ripped
6 | (2/2) Accurately ripped
7 | (2/2) Accurately ripped
8 | (2/2) Accurately ripped
9 | (2/2) Accurately ripped
10 | (2/2) Accurately ripped
11 | (2/2) Accurately ripped
12 | (2/2) Accurately ripped
13 | (2/2) Accurately ripped
14 | (2/2) Accurately ripped
15 | (2/2) Accurately ripped
16 | (2/2) Accurately ripped
17 | (2/2) Accurately ripped
18 | (2/2) Accurately ripped
19 | (2/2) Accurately ripped
20 | (2/2) Accurately ripped


==== Контрольная сумма отчёта 9933167D736E395C911A99FE52D17A21128B8B63B81456CD18F22FDEA33F1FD2 ====


[CUETools log; Date: 18.10.2016 16:00:38; Version: 2.1.4]
[CTDB TOCID: .7jAwgK9hPL052DeB1SN5S.Vhss-] found.
Track | CTDB Status
1 | (2/2) Accurately ripped
2 | (2/2) Accurately ripped
3 | (2/2) Accurately ripped
4 | (2/2) Accurately ripped
5 | (2/2) Accurately ripped
6 | (2/2) Accurately ripped
7 | (2/2) Accurately ripped
8 | (2/2) Accurately ripped
9 | (2/2) Accurately ripped
10 | (2/2) Accurately ripped
11 | (2/2) Accurately ripped
12 | (2/2) Accurately ripped
13 | (2/2) Accurately ripped
14 | (2/2) Accurately ripped
15 | (2/2) Accurately ripped
16 | (2/2) Accurately ripped
17 | (2/2) Accurately ripped
18 | (2/2) Accurately ripped
19 | (2/2) Accurately ripped
20 | (2/2) Accurately ripped
[AccurateRip ID: 002fa2a9-02b74a24-fc0fcd14] found.
Track [ CRC | V2 ] Status
01 [7e647e64|7b9f9cde] (5+3/8) Accurately ripped
02 [d1279a62|77ce3cb6] (5+3/8) Accurately ripped
03 [47112767|43c0741d] (5+3/8) Accurately ripped
04 [78559e16|7046a7aa] (5+3/8) Accurately ripped
05 [34eac827|75b20bfe] (6+3/9) Accurately ripped
06 [27806404|44d1a73a] (5+3/8) Accurately ripped
07 [f0923c97|082b6bf7] (6+3/9) Accurately ripped
08 [07dc9ccc|96231d45] (5+3/8) Accurately ripped
09 [dcbbfdaa|f2569f67] (5+3/8) Accurately ripped
10 [aaa316ab|ad36e07c] (5+3/8) Accurately ripped
11 [0874b615|8153a9b0] (5+3/8) Accurately ripped
12 [53afd491|6bda6902] (5+3/8) Accurately ripped
13 [aae5fd4e|50ad81ab] (5+2/7) Accurately ripped
14 [ed368971|a0374c0a] (5+3/8) Accurately ripped
15 [550f3d8d|584a27bb] (5+3/8) Accurately ripped
16 [ff800e6f|260b1b35] (5+3/8) Accurately ripped
17 [153ee727|de3e9d00] (5+3/8) Accurately ripped
18 [0d39eb78|a022dbc7] (6+2/8) Accurately ripped
19 [e53e85ea|2ac8ef9a] (5+2/7) Accurately ripped
20 [419ff008|ad43cdff] (6+2/8) Accurately ripped

Track Peak [ CRC32 ] [W/O NULL] [ LOG ]
– 100,0 [70562FD5] [03F0E44C] CRC32
01 98,8 [42CEAC05] [4486BE36]
02 100,0 [ABB0AFFB] [92DF76A3]
03 100,0 [B37BF372] [748DE339]
04 100,0 [78BDC45F] [F0F3CD6C]
05 100,0 [B1640505] [C178B410]
06 100,0 [A57DCE76] [0C8A3278]
07 100,0 [9638AEBD] [372D49E7]
08 100,0 [3F13E346] [4A5439F6]
09 100,0 [2D3674FD] [2EC88B05]
10 100,0 [CCFC4E4F] [FA7E5B11]
11 100,0 [AA7213BA] [3A012831]
12 100,0 [B83FCE7B] [905D4CD1]
13 100,0 [63546918] [9E039484]
14 100,0 [16315662] [1E96F120]
15 100,0 [ECD1D856] [A3C2514E]
16 100,0 [D6A00103] [9C4AF29A]
17 100,0 [222ECD72] [E769D140]
18 100,0 [3196AA9D] [70F842DB]
19 100,0 [33B0C5E7] [0972358F]
20 92,5 [F15C2560] [ED088538]


Tracklist CD4:

01. Comme des roses
02. Avant la guerre
03. A ma femme
04. Les amours médicales
05. Par gourmandise
06. On se reveillera
07. Mourir d'aimer
08. Mes emmerdes
09. Liberte
10. Me voila seul
11. Mais C'etait Hier
12. Je n'ai pas vu le temps passer
13. Je me raccroche à toi
14. J'ai vu Paris
15. Les plaisirs demodes
16. Je meurs de toi
17. Un par un
18. Un corps
19. Une idee
20. Mon ami mon Judas

Exact Audio Copy V1.3 from 2. September 2016

Отчёт EAC об извлечении, выполненном 17. октября 2016, 12:54

Charles Aznavour / 100 chansons - CD 4

Дисковод: _NEC DVD_RW ND-3550A Adapter: 1 ID: 3

Режим чтения : Достоверность
Использование точного потока : Да
Отключение кэша аудио : Да
Использование указателей C2 : Нет

Коррекция смещения при чтении : 48
Способность читать области Lead-in и Lead-out : Нет
Заполнение пропущенных сэмплов тишиной : Да
Удаление блоков с тишиной в начале и конце : Нет
При вычислениях CRC использовались нулевые сэмплы : Да
Интерфейс : Встроенный Win32-интерфейс для Win NT/2000

Выходной формат : Пользовательский кодировщик
Выбранный битрейт : 1024 kBit/s
Качество : Высокий
Добавление ID3-тега : Нет
Утилита сжатия : C:\Program Files (x86)\Exact Audio Copy\FLAC\FLAC.EXE
Дополнительные параметры : -6 -V -T "ARTIST=%artist%" -T "TITLE=%title%" -T "ALBUM=%albumtitle%" -T "DATE=%year%" -T "TRACKNUMBER=%tracknr%" -T "GENRE=%genre%" -T "COMMENT=%comment%" -T "BAND=%albuminterpret%" -T "ALBUMARTIST=%albuminterpret%" -T "COMPOSER=%composer%" %haslyrics%–tag-from-file=LYRICS="%lyricsfile%"%haslyrics% -T "DISCNUMBER=%cdnumber%" -T "TOTALDISCS=%totalcds%" -T "TOTALTRACKS=%numtracks%" %hascover%–picture="%coverfile%"%hascover% %source% -o %dest%


TOC извлечённого CD

Трек | Старт | Длительность | Начальный сектор | Конечный сектор
––––––––––––––––––––––––––––––––––-
1 | 0:00.00 | 3:05.43 | 0 | 13917
2 | 3:05.43 | 2:56.08 | 13918 | 27125
3 | 6:01.51 | 4:57.32 | 27126 | 49432
4 | 10:59.08 | 2:34.55 | 49433 | 61037
5 | 13:33.63 | 3:11.21 | 61038 | 75383
6 | 16:45.09 | 2:44.56 | 75384 | 87739
7 | 19:29.65 | 3:57.43 | 87740 | 105557
8 | 23:27.33 | 3:07.24 | 105558 | 119606
9 | 26:34.57 | 2:02.24 | 119607 | 128780
10 | 28:37.06 | 4:34.27 | 128781 | 149357
11 | 33:11.33 | 2:43.18 | 149358 | 161600
12 | 35:54.51 | 3:28.53 | 161601 | 177253
13 | 39:23.29 | 3:53.50 | 177254 | 194778
14 | 43:17.04 | 3:42.29 | 194779 | 211457
15 | 46:59.33 | 5:55.01 | 211458 | 238083
16 | 52:54.34 | 3:06.27 | 238084 | 252060
17 | 56:00.61 | 2:39.55 | 252061 | 264040
18 | 58:40.41 | 3:20.45 | 264041 | 279085
19 | 62:01.11 | 2:36.66 | 279086 | 290851
20 | 64:38.02 | 3:36.45 | 290852 | 307096


Характеристики диапазона извлечения и сообщения об ошибках

Выбранный диапазон

Имя файла C:\Users\Desktop\CHA-CD4\Charles Aznavour - 100 chansons - CD 4.wav

Пиковый уровень 100.0 %
Скорость извлечения 7.6 X
Качество диапазона 100.0 %
CRC копии 2DEED1F3
Копирование… OK

Ошибок не произошло


AccurateRip: сводка

Трек 1 : извлечено точно (доверие 3) [86F62809] (AR v2)
Трек 2 : извлечено точно (доверие 3) [67A4182F] (AR v2)
Трек 3 : извлечено точно (доверие 3) [27AEB84E] (AR v2)
Трек 4 : извлечено точно (доверие 3) [B37DEDBC] (AR v2)
Трек 5 : извлечено точно (доверие 3) [85F9BC14] (AR v2)
Трек 6 : извлечено точно (доверие 3) [3EBDEACD] (AR v2)
Трек 7 : извлечено точно (доверие 3) [9F6F3E7B] (AR v2)
Трек 8 : извлечено точно (доверие 3) [371D077B] (AR v2)
Трек 9 : извлечено точно (доверие 3) [DEB57299] (AR v2)
Трек 10 : извлечено точно (доверие 3) [518A8142] (AR v2)
Трек 11 : извлечено точно (доверие 3) [04EAFE5E] (AR v2)
Трек 12 : извлечено точно (доверие 3) [11685976] (AR v2)
Трек 13 : извлечено точно (доверие 3) [3C6B2F03] (AR v2)
Трек 14 : извлечено точно (доверие 3) [A15319BD] (AR v2)
Трек 15 : извлечено точно (доверие 3) [ED46CD02] (AR v2)
Трек 16 : извлечено точно (доверие 3) [AAC6832A] (AR v2)
Трек 17 : извлечено точно (доверие 3) [43AB7E4E] (AR v2)
Трек 18 : извлечено точно (доверие 3) [BD99BC13] (AR v2)
Трек 19 : извлечено точно (доверие 3) [67BED78A] (AR v2)
Трек 20 : извлечено точно (доверие 3) [A25D9E05] (AR v2)

Все треки извлечены точно

Конец отчёта

–– CUETools DB Plugin V2.1.6

[CTDB TOCID: D1.KbPc911dJlANeMD_1X0LLL6Y-] found
Submit result: Время ожидания операции истекло
Track | CTDB Status
1 | (3/3) Accurately ripped
2 | (3/3) Accurately ripped
3 | (3/3) Accurately ripped
4 | (3/3) Accurately ripped
5 | (3/3) Accurately ripped
6 | (3/3) Accurately ripped
7 | (3/3) Accurately ripped
8 | (3/3) Accurately ripped
9 | (3/3) Accurately ripped
10 | (3/3) Accurately ripped
11 | (3/3) Accurately ripped
12 | (3/3) Accurately ripped
13 | (3/3) Accurately ripped
14 | (3/3) Accurately ripped
15 | (3/3) Accurately ripped
16 | (3/3) Accurately ripped
17 | (3/3) Accurately ripped
18 | (3/3) Accurately ripped
19 | (3/3) Accurately ripped
20 | (3/3) Accurately ripped


==== Контрольная сумма отчёта 061D57B10C2A9D03B64A45C164698A5F246BF4EA7137CA735B3E74DCB7EFADC9 ====


[CUETools log; Date: 18.10.2016 16:03:42; Version: 2.1.4]
[CTDB TOCID: D1.KbPc911dJlANeMD_1X0LLL6Y-] found.
Track | CTDB Status
1 | (4/4) Accurately ripped
2 | (4/4) Accurately ripped
3 | (4/4) Accurately ripped
4 | (4/4) Accurately ripped
5 | (4/4) Accurately ripped
6 | (4/4) Accurately ripped
7 | (4/4) Accurately ripped
8 | (4/4) Accurately ripped
9 | (4/4) Accurately ripped
10 | (4/4) Accurately ripped
11 | (4/4) Accurately ripped
12 | (4/4) Accurately ripped
13 | (4/4) Accurately ripped
14 | (4/4) Accurately ripped
15 | (4/4) Accurately ripped
16 | (4/4) Accurately ripped
17 | (4/4) Accurately ripped
18 | (4/4) Accurately ripped
19 | (4/4) Accurately ripped
20 | (4/4) Accurately ripped
[AccurateRip ID: 0030bd90-02ce8320-280ffe14] found.
Track [ CRC | V2 ] Status
01 [52656c31|86f62809] (5+3/8) Accurately ripped
02 [9ed4f52b|67a4182f] (5+3/8) Accurately ripped
03 [27d2c8eb|27aeb84e] (5+3/8) Accurately ripped
04 [70d858af|b37dedbc] (5+3/8) Accurately ripped
05 [77f8f55d|85f9bc14] (5+3/8) Accurately ripped
06 [2ab277ad|3ebdeacd] (5+3/8) Accurately ripped
07 [a56ed6c7|9f6f3e7b] (6+3/9) Accurately ripped
08 [8974b502|371d077b] (6+3/9) Accurately ripped
09 [88acac3c|deb57299] (5+3/8) Accurately ripped
10 [e299e5e6|518a8142] (5+3/8) Accurately ripped
11 [15f71700|04eafe5e] (5+3/8) Accurately ripped
12 [49049e2e|11685976] (6+3/9) Accurately ripped
13 [92e84bbd|3c6b2f03] (5+3/8) Accurately ripped
14 [918c2b97|a15319bd] (5+3/8) Accurately ripped
15 [73806859|ed46cd02] (6+3/9) Accurately ripped
16 [36e7a69f|aac6832a] (6+3/9) Accurately ripped
17 [1cf06879|43ab7e4e] (6+3/9) Accurately ripped
18 [916eec40|bd99bc13] (5+3/8) Accurately ripped
19 [a61b0292|67bed78a] (5+3/8) Accurately ripped
20 [bc4b1636|a25d9e05] (5+3/8) Accurately ripped

Track Peak [ CRC32 ] [W/O NULL] [ LOG ]
– 100,0 [2DEED1F3] [6ACA26B3] CRC32
01 100,0 [A143D2CE] [051317C7]
02 100,0 [F27C8A3D] [F4722D31]
03 100,0 [94DC1859] [16999560]
04 100,0 [37244838] [FED00E96]
05 100,0 [3C275E71] [DE74629C]
06 100,0 [74F0392C] [738789A2]
07 100,0 [D20AAE67] [A85418F7]
08 100,0 [C8604B3D] [0285E070]
09 100,0 [789C86ED] [5865BFDE]
10 100,0 [FDCEA379] [B588A557]
11 99,6 [95F6381E] [55F386DC]
12 100,0 [1E9C4D47] [8E060821]
13 100,0 [9F2D5EE8] [84AD1720]
14 100,0 [8D9F6BAF] [98622C8D]
15 100,0 [FD84267C] [0982A793]
16 100,0 [95309679] [CD40E932]
17 100,0 [1E4B82F2] [B28E89C9]
18 100,0 [0D21E647] [60D7648A]
19 100,0 [3A24AD52] [8F70583A]
20 100,0 [FF5F6D14] [F2D4D7FB]


Tracklist CD5:

01. La maison hantee
02. Deja
03. De moins en moins
04. Autobiographie
05. L'aiguille
06. Allez vai Marseille
07. Mon émouvant amour (live)
08. Je ne ferai pas mes adieux
09. Je bois Buy
10. Vous Et Tu
11. Te dire adieu
12. Le Souvenir De Toi (Live Olympia 80)
13. Rouler
14. Je n'aurais pas cru ça de toi
15. La Marguerite
16. On Ne Veut Plus De Nous Ici
17. L'album De Toi
18. Un amour en transit
19. Je t'aime a i m e
20. Ton doux visage

Exact Audio Copy V1.3 from 2. September 2016

Отчёт EAC об извлечении, выполненном 17. октября 2016, 13:26

Charles Aznavour / 100 chansons - CD 5

Дисковод: _NEC DVD_RW ND-3550A Adapter: 1 ID: 3

Режим чтения : Достоверность
Использование точного потока : Да
Отключение кэша аудио : Да
Использование указателей C2 : Нет

Коррекция смещения при чтении : 48
Способность читать области Lead-in и Lead-out : Нет
Заполнение пропущенных сэмплов тишиной : Да
Удаление блоков с тишиной в начале и конце : Нет
При вычислениях CRC использовались нулевые сэмплы : Да
Интерфейс : Встроенный Win32-интерфейс для Win NT/2000

Выходной формат : Пользовательский кодировщик
Выбранный битрейт : 1024 kBit/s
Качество : Высокий
Добавление ID3-тега : Нет
Утилита сжатия : C:\Program Files (x86)\Exact Audio Copy\FLAC\FLAC.EXE
Дополнительные параметры : -6 -V -T "ARTIST=%artist%" -T "TITLE=%title%" -T "ALBUM=%albumtitle%" -T "DATE=%year%" -T "TRACKNUMBER=%tracknr%" -T "GENRE=%genre%" -T "COMMENT=%comment%" -T "BAND=%albuminterpret%" -T "ALBUMARTIST=%albuminterpret%" -T "COMPOSER=%composer%" %haslyrics%–tag-from-file=LYRICS="%lyricsfile%"%haslyrics% -T "DISCNUMBER=%cdnumber%" -T "TOTALDISCS=%totalcds%" -T "TOTALTRACKS=%numtracks%" %hascover%–picture="%coverfile%"%hascover% %source% -o %dest%


TOC извлечённого CD

Трек | Старт | Длительность | Начальный сектор | Конечный сектор
––––––––––––––––––––––––––––––––––-
1 | 0:00.00 | 3:25.03 | 0 | 15377
2 | 3:25.03 | 3:33.17 | 15378 | 31369
3 | 6:58.20 | 3:53.37 | 31370 | 48881
4 | 10:51.57 | 7:04.42 | 48882 | 80723
5 | 17:56.24 | 5:08.58 | 80724 | 103881
6 | 23:05.07 | 4:08.45 | 103882 | 122526
7 | 27:13.52 | 2:42.40 | 122527 | 134716
8 | 29:56.17 | 3:21.10 | 134717 | 149801
9 | 33:17.27 | 3:10.33 | 149802 | 164084
10 | 36:27.60 | 3:24.06 | 164085 | 179390
11 | 39:51.66 | 3:02.16 | 179391 | 193056
12 | 42:54.07 | 3:20.45 | 193057 | 208101
13 | 46:14.52 | 2:41.06 | 208102 | 220182
14 | 48:55.58 | 4:03.73 | 220183 | 238480
15 | 52:59.56 | 4:29.13 | 238481 | 258668
16 | 57:28.69 | 4:32.49 | 258669 | 279117
17 | 62:01.43 | 3:51.34 | 279118 | 296476
18 | 65:53.02 | 2:51.53 | 296477 | 309354
19 | 68:44.55 | 3:42.18 | 309355 | 326022
20 | 72:26.73 | 4:37.28 | 326023 | 346825


Характеристики диапазона извлечения и сообщения об ошибках

Выбранный диапазон

Имя файла C:\Users\ОЛЕГ\Desktop\CHA-CD5\Charles Aznavour - 100 chansons - CD 5.wav

Пиковый уровень 100.0 %
Скорость извлечения 8.0 X
Качество диапазона 99.9 %
CRC копии BF7C57C4
Копирование… OK

Ошибок не произошло


AccurateRip: сводка

Трек 1 : извлечено точно (доверие 3) [0E617F1A] (AR v2)
Трек 2 : извлечено точно (доверие 2) [1664D91C] (AR v2)
Трек 3 : извлечено точно (доверие 3) [1FFE7256] (AR v2)
Трек 4 : извлечено точно (доверие 3) [467C5D81] (AR v2)
Трек 5 : извлечено точно (доверие 3) [D68EE66D] (AR v2)
Трек 6 : извлечено точно (доверие 3) [F0D9EAED] (AR v2)
Трек 7 : извлечено точно (доверие 3) [49BD15C4] (AR v2)
Трек 8 : извлечено точно (доверие 3) [07C10851] (AR v2)
Трек 9 : извлечено точно (доверие 3) [5320D5DA] (AR v2)
Трек 10 : извлечено точно (доверие 2) [7D570895] (AR v2)
Трек 11 : извлечено точно (доверие 3) [58186E84] (AR v2)
Трек 12 : извлечено точно (доверие 3) [A0B1B3C8] (AR v2)
Трек 13 : извлечено точно (доверие 3) [2FB95D47] (AR v2)
Трек 14 : извлечено точно (доверие 3) [3CA15C97] (AR v2)
Трек 15 : извлечено точно (доверие 3) [AF5E1963] (AR v2)
Трек 16 : извлечено точно (доверие 3) [D5817069] (AR v2)
Трек 17 : извлечено точно (доверие 3) [61E78656] (AR v2)
Трек 18 : извлечено точно (доверие 3) [C9F43100] (AR v2)
Трек 19 : извлечено точно (доверие 3) [6F1F5F33] (AR v2)
Трек 20 : извлечено точно (доверие 2) [C6118E07] (AR v2)

Все треки извлечены точно

Конец отчёта

–– CUETools DB Plugin V2.1.6

[CTDB TOCID: vQDtYXJxTjyAlmSlItYaoqEvEVM-] found
Submit result: Время ожидания операции истекло
Track | CTDB Status
1 | (3/3) Accurately ripped
2 | (2/3) Accurately ripped
3 | (3/3) Accurately ripped
4 | (3/3) Accurately ripped
5 | (3/3) Accurately ripped
6 | (3/3) Accurately ripped
7 | (3/3) Accurately ripped
8 | (3/3) Accurately ripped
9 | (3/3) Accurately ripped
10 | (2/3) Accurately ripped
11 | (3/3) Accurately ripped
12 | (3/3) Accurately ripped
13 | (3/3) Accurately ripped
14 | (3/3) Accurately ripped
15 | (3/3) Accurately ripped
16 | (3/3) Accurately ripped
17 | (3/3) Accurately ripped
18 | (3/3) Accurately ripped
19 | (3/3) Accurately ripped
20 | (2/3) Accurately ripped


==== Контрольная сумма отчёта E8B5311D4D40ACE863E22774AC2E1468A84A69927B1FC898B822E38D3AFF88BA ====


[CUETools log; Date: 18.10.2016 16:06:51; Version: 2.1.4]
[CTDB TOCID: vQDtYXJxTjyAlmSlItYaoqEvEVM-] found.
Track | CTDB Status
1 | (4/4) Accurately ripped
2 | (3/4) Accurately ripped
3 | (4/4) Accurately ripped
4 | (4/4) Accurately ripped
5 | (4/4) Accurately ripped
6 | (4/4) Accurately ripped
7 | (4/4) Accurately ripped
8 | (4/4) Accurately ripped
9 | (4/4) Accurately ripped
10 | (3/4) Accurately ripped
11 | (4/4) Accurately ripped
12 | (4/4) Accurately ripped
13 | (4/4) Accurately ripped
14 | (4/4) Accurately ripped
15 | (4/4) Accurately ripped
16 | (4/4) Accurately ripped
17 | (4/4) Accurately ripped
18 | (4/4) Accurately ripped
19 | (4/4) Accurately ripped
20 | (3/4) Accurately ripped
[AccurateRip ID: 003890a9-03355c7f-49121014] found.
Track [ CRC | V2 ] Status
01 [5782c63a|0e617f1a] (4+3/7) Accurately ripped
02 [0d0bc603|1664d91c] (5+2/7) Accurately ripped
03 [d14523a0|1ffe7256] (5+3/8) Accurately ripped
04 [6d37b84e|467c5d81] (5+3/8) Accurately ripped
05 [00b443e2|d68ee66d] (5+3/8) Accurately ripped
06 [b07b28b2|f0d9eaed] (5+3/8) Accurately ripped
07 [0dd1644f|49bd15c4] (5+3/8) Accurately ripped
08 [0a445268|07c10851] (5+3/8) Accurately ripped
09 [05490976|5320d5da] (5+3/8) Accurately ripped
10 [715d7c39|7d570895] (5+2/7) Accurately ripped
11 [c83cea03|58186e84] (5+3/8) Accurately ripped
12 [25cc4bf7|a0b1b3c8] (5+3/8) Accurately ripped
13 [b6a1d140|2fb95d47] (5+3/8) Accurately ripped
14 [2d3cc086|3ca15c97] (5+3/8) Accurately ripped
15 [a170cca6|af5e1963] (5+3/8) Accurately ripped
16 [2b3c8488|d5817069] (5+3/8) Accurately ripped
17 [139ad016|61e78656] (5+3/8) Accurately ripped
18 [c6ab85da|c9f43100] (5+3/8) Accurately ripped
19 [0d8c2112|6f1f5f33] (5+3/8) Accurately ripped
20 [317b71e8|c6118e07] (5+2/7) Accurately ripped

Track Peak [ CRC32 ] [W/O NULL] [ LOG ]
– 100,0 [BF7C57C4] [F670A6D5] CRC32
01 100,0 [B6A35857] [E68368F8]
02 100,0 [486B31C5] [3BB21CE5]
03 100,0 [0FC8F68D] [5380B17E]
04 100,0 [5C36A661] [79DB3F58]
05 100,0 [C71D56FF] [A46E58F6]
06 100,0 [1BEF5F8B] [8793FEAF]
07 100,0 [386E862C] [E50F871D]
08 100,0 [9A4BF98D] [0B44C387]
09 100,0 [39DD2AEF] [7466EA52]
10 100,0 [948EB13A] [1F7A58F5]
11 100,0 [052ECB60] [1E32A88E]
12 100,0 [7EC2DE18] [F2CB8173]
13 100,0 [5A1B5238] [F8757C4D]
14 100,0 [B87356F8] [407542A1]
15 100,0 [B39925BB] [7341BD68]
16 100,0 [464AE704] [0D26BF1C]
17 100,0 [17742EE7] [1F964C8E]
18 100,0 [3E73E5D2] [06535157]
19 100,0 [B154989B] [603CD35C]
20 100,0 [C8F05BCF] [6C0B00BB]


Charles Aznavour - 100 Chansons (2008)

All thanks go to Olegator

Charles Aznavour in my Blog

Download Charles Aznavour - 100 Chansons (2008):