Subcategories

Charles Lloyd / Jason Moran - Hagar's Song (2013) {ECM 2311}

Posted By: tiburon
Charles Lloyd / Jason Moran - Hagar's Song (2013) {ECM 2311}

Charles Lloyd / Jason Moran - Hagar's Song (2013) {ECM 2311}
EAC 1.0b3 | FLAC tracks level 8 | Cue+Log+M3U | Full Scans 300dpi | 319MB + 5% Recovery
Genre: Jazz

“Hagar’s Song”, the newest release from long-time ECM luminary Charles Lloyd, is an interactive duo recording with Jason Moran, the pianist who has been a key member of Lloyd’s latter-day quartet, contributing to the albums Rabo de Nube (2008), Mirror (2010) and Athens Concert (2012). The album features pieces especially dear to Lloyd, ranging from compositions by Billy Strayhorn (“Pretty Girl” a/k/a “Star-Crossed Lovers”), Duke Ellington (“Mood Indigo”), George Gershwin (“Bess, You Is My Woman Now”) and Earl Hines (“Rosetta”) to a standard strongly associated with Billie Holiday (“You’ve Changed”), Brian Wilson’s most famous Beach Boys ballad (“God Only Knows”) and a Bob Dylan song definitively interpreted by the Band (“I Shall Be Released”).
Track List
01. Pretty Girl 4:48
02. Mood Indigo 5:13
03. Bess, You Is My Woman Now 3:36
04. All About Ronnie 4:17
05. Pictogram 3:56
06. You’ve Changed 4:47
07. Hagar Suite I. Journey Up River 6:20
08. Hagar Suite II. Dreams Of White Bluff 9:45
09. Hagar Suite III. Alone 2:30
10. Hagar Suite IV. Bolivar Blues 4:16
11. Hagar Suite V. Hagar’s Lullaby 5:41
12. Rosetta 4:38
13. I Shall Be Released 5:07
14. God Only Knows 3:31

musicians
Charles Lloyd - alto and tenor saxophones, alto and bass flutes
Jason Moran - piano, tambourine

Produced by Charles Lloyd and Dorothy Darr


Exact Audio Copy V1.0 beta 3 from 29. August 2011

EAC extraction logfile from 8. February 2013, 17:21

Charles Lloyd, Jason Moran / Hagar's Song [ECM 2311]

Used drive : PLEXTOR DVDR PX-L890SA Adapter: 2 ID: 1

Read mode : Secure
Utilize accurate stream : Yes
Defeat audio cache : Yes
Make use of C2 pointers : No

Read offset correction : 6
Overread into Lead-In and Lead-Out : No
Fill up missing offset samples with silence : Yes
Delete leading and trailing silent blocks : No
Null samples used in CRC calculations : Yes
Used interface : Native Win32 interface for Win NT & 2000
Gap handling : Appended to previous track

Used output format : User Defined Encoder
Selected bitrate : 256 kBit/s
Quality : High
Add ID3 tag : No
Command line compressor : C:\Program Files (x86)\Exact Audio Copy\FLAC\FLAC.EXE
Additional command line options : -8 -V -T "ARTIST=%artist%" -T "TITLE=%title%" -T "ALBUM=%albumtitle%" -T "DATE=%year%" -T "TRACKNUMBER=%tracknr%" -T "TOTALTRACKS=%numtracks%" -T "GENRE=%genre%" -T "ALBUMARTIST=%albumartist%" -T "ALBUM ARTIST=%albumartist%" -T "COMMENT=EAC Secure Mode, Test & Copy, AccurateRip, FLAC -8" %source%


TOC of the extracted CD

Track | Start | Length | Start sector | End sector
––––––––––––––––––––––––––––-
1 | 0:00.00 | 4:51.54 | 0 | 21878
2 | 4:51.54 | 5:17.57 | 21879 | 45710
3 | 10:09.36 | 3:39.37 | 45711 | 62172
4 | 13:48.73 | 4:20.73 | 62173 | 81745
5 | 18:09.71 | 3:59.69 | 81746 | 99739
6 | 22:09.65 | 4:51.11 | 99740 | 121575
7 | 27:01.01 | 6:20.57 | 121576 | 150132
8 | 33:21.58 | 9:46.02 | 150133 | 194084
9 | 43:07.60 | 2:30.06 | 194085 | 205340
10 | 45:37.66 | 4:18.08 | 205341 | 224698
11 | 49:55.74 | 5:44.17 | 224699 | 250515
12 | 55:40.16 | 4:41.49 | 250516 | 271639
13 | 60:21.65 | 5:11.50 | 271640 | 295014
14 | 65:33.40 | 3:31.06 | 295015 | 310845


Track 1

Filename F:\Flac Rips\01 - Pretty Girl.wav

Pre-gap length 0:00:02.00

Peak level 91.0 %
Extraction speed 3.6 X
Track quality 100.0 %
Test CRC 08C26840
Copy CRC 08C26840
Track not present in AccurateRip database
Copy OK

Track 2

Filename F:\Flac Rips\02 - Mood Indigo.wav

Pre-gap length 0:00:03.37

Peak level 95.3 %
Extraction speed 4.1 X
Track quality 100.0 %
Test CRC 898D1D5C
Copy CRC 898D1D5C
Track not present in AccurateRip database
Copy OK

Track 3

Filename F:\Flac Rips\03 - Bess, You Is My Woman Now.wav

Pre-gap length 0:00:04.00

Peak level 94.4 %
Extraction speed 4.3 X
Track quality 100.0 %
Test CRC 1D4A434C
Copy CRC 1D4A434C
Track not present in AccurateRip database
Copy OK

Track 4

Filename F:\Flac Rips\04 - All About Ronnie.wav

Pre-gap length 0:00:03.37

Peak level 93.2 %
Extraction speed 4.7 X
Track quality 100.0 %
Test CRC D5C576A8
Copy CRC D5C576A8
Track not present in AccurateRip database
Copy OK

Track 5

Filename F:\Flac Rips\05 - Pictogram.wav

Pre-gap length 0:00:03.37

Peak level 93.4 %
Extraction speed 4.9 X
Track quality 100.0 %
Test CRC 6C0EFD00
Copy CRC 6C0EFD00
Track not present in AccurateRip database
Copy OK

Track 6

Filename F:\Flac Rips\06 - You've Changed.wav

Pre-gap length 0:00:03.37

Peak level 85.1 %
Extraction speed 4.4 X
Track quality 99.9 %
Test CRC 77CD8082
Copy CRC 77CD8082
Track not present in AccurateRip database
Copy OK

Track 7

Filename F:\Flac Rips\07 - Hagar Suite I Journey Up River.wav

Pre-gap length 0:00:03.37

Peak level 92.9 %
Extraction speed 5.1 X
Track quality 99.9 %
Test CRC 3D31A98C
Copy CRC 3D31A98C
Track not present in AccurateRip database
Copy OK

Track 8

Filename F:\Flac Rips\08 - Hagar Suite II Dreams Of White Bluff.wav

Pre-gap length 0:00:00.08

Peak level 94.8 %
Extraction speed 6.5 X
Track quality 100.0 %
Test CRC ECF4A5FD
Copy CRC ECF4A5FD
Track not present in AccurateRip database
Copy OK

Track 9

Filename F:\Flac Rips\09 - Hagar Suite III Alone.wav

Pre-gap length 0:00:00.14

Peak level 66.9 %
Extraction speed 4.2 X
Track quality 99.9 %
Test CRC 2A80B258
Copy CRC 2A80B258
Track not present in AccurateRip database
Copy OK

Track 10

Filename F:\Flac Rips\10 - Hagar Suite IV Bolivar Blues.wav

Peak level 93.2 %
Extraction speed 6.5 X
Track quality 100.0 %
Test CRC 584AA671
Copy CRC 584AA671
Track not present in AccurateRip database
Copy OK

Track 11

Filename F:\Flac Rips\11 - Hagar Suite V Hagar's Lullaby.wav

Pre-gap length 0:00:01.42

Peak level 89.4 %
Extraction speed 7.0 X
Track quality 100.0 %
Test CRC ACEDA9B5
Copy CRC ACEDA9B5
Track not present in AccurateRip database
Copy OK

Track 12

Filename F:\Flac Rips\12 - Rosetta.wav

Pre-gap length 0:00:02.56

Peak level 92.9 %
Extraction speed 7.1 X
Track quality 100.0 %
Test CRC C9EF4E24
Copy CRC C9EF4E24
Track not present in AccurateRip database
Copy OK

Track 13

Filename F:\Flac Rips\13 - I Shall Be Released.wav

Pre-gap length 0:00:03.37

Peak level 93.0 %
Extraction speed 7.4 X
Track quality 100.0 %
Test CRC C35DDE5B
Copy CRC C35DDE5B
Track not present in AccurateRip database
Copy OK

Track 14

Filename F:\Flac Rips\14 - God Only Knows.wav

Pre-gap length 0:00:04.10

Peak level 81.4 %
Extraction speed 7.1 X
Track quality 100.0 %
Test CRC A1754CA0
Copy CRC A1754CA0
Track not present in AccurateRip database
Copy OK


None of the tracks are present in the AccurateRip database

No errors occurred

End of status report

==== Log checksum 854688F1E812090DEBCCEDDD7DF8321DC47D444379CF646E86F7F7F4DC30BDD9 ====


––––––––––––––––––––––––––––––––––––––––
Analyzed: Charles Lloyd, Jason Moran / Hagar's Song [ECM 2311]
––––––––––––––––––––––––––––––––––––––––

DR Peak RMS Duration Track
––––––––––––––––––––––––––––––––––––––––
DR11 -0.82 dB -15.61 dB 4:52 01-Pretty Girl
DR12 -0.41 dB -14.19 dB 5:18 02-Mood Indigo
DR12 -0.50 dB -15.61 dB 3:39 03-Bess, You Is My Woman Now
DR11 -0.60 dB -15.52 dB 4:21 04-All About Ronnie
DR12 -0.59 dB -15.48 dB 4:00 05-Pictogram
DR10 -1.40 dB -15.36 dB 4:51 06-You've Changed
DR13 -0.63 dB -16.63 dB 6:21 07-Hagar Suite I Journey Up River
DR12 -0.46 dB -16.01 dB 9:46 08-Hagar Suite II Dreams Of White Bluff
DR9 -3.48 dB -14.93 dB 2:30 09-Hagar Suite III Alone
DR12 -0.61 dB -14.31 dB 4:18 10-Hagar Suite IV Bolivar Blues
DR11 -0.97 dB -15.65 dB 5:44 11-Hagar Suite V Hagar's Lullaby
DR11 -0.63 dB -13.85 dB 4:42 12-Rosetta
DR11 -0.62 dB -14.37 dB 5:12 13-I Shall Be Released
DR10 -1.78 dB -15.58 dB 3:31 14-God Only Knows
––––––––––––––––––––––––––––––––––––––––

Number of tracks: 14
Official DR value: DR11

Samplerate: 44100 Hz
Channels: 2
Bits per sample: 16
Bitrate: 519 kbps
Codec: FLAC
================================================================================

Charles Lloyd / Jason Moran - Hagar's Song (2013) {ECM 2311}
Charles Lloyd / Jason Moran - Hagar's Song (2013) {ECM 2311}
Charles Lloyd / Jason Moran - Hagar's Song (2013) {ECM 2311}


Rip by jlgt