Tags
Language
Tags

Charles Mingus - Blues & Roots (1960)

Posted By: gribovar
Charles Mingus - Blues & Roots (1960)

Charles Mingus - Blues & Roots (1960)
EAC Rip | WavPack (image+.cue+log) - 255 MB | MP3 CBR 320 kbps (LAME 3.93) - 91 MB | Covers - 78 MB
Genre: Jazz | RAR 3% Rec. | Label: Atlantic (7567-81336-2)

In response to critical carping that his ambitious, evocative music somehow didn't swing enough, Charles Mingus returned to the earthiest and earliest sources of black musical expression, namely the blues, gospel, and old-time New Orleans jazz. The resulting LP, Blues and Roots, isn't quite as wildly eclectic as usual, but it ranks as arguably Mingus' most joyously swinging outing. Working with simple forms, Mingus boosts the complexity of the music by assembling a nine-piece outfit and arranging multiple lines to be played simultaneously - somewhat akin to the Dixieland ensembles of old, but with an acutely modern flavor. Anyone who had heard "Haitian Fight Song" shouldn't have been surprised that such an album was well within Mingus' range, but jazz's self-appointed guardians have long greeted innovation with reactionary distaste. After Blues and Roots, there could be no question of Mingus' firm grounding in the basics, nor of his deeply felt affinity with them. Whether the music is explicitly gospel-based - like the groundbreaking classic "Wednesday Night Prayer Meeting" - or not, the whole album is performed with a churchy fervor that rips through both the exuberant swingers and the aching, mournful slow blues. Still, it's the blues that most prominently inform the feeling of the album, aside from the aforementioned "Wednesday Night Prayer Meeting" and the Jelly Roll Morton tribute "My Jelly Roll Soul." The recording session was reportedly very disorganized, but perhaps that actually helped give the performances the proper feel, since they wound up so loose and free-swinging. With a lineup including John Handy and Jackie McLean on alto, Booker Ervin on tenor, frequent anchor Pepper Adams on baritone, and Jimmy Knepper and Willie Dennis on trombones, among others, Blues and Roots isn't hurting for fiery soloists, and they help make the album perhaps the most soulful in Mingus' discography.
Tracklist:
01. Wednesday Night Prayer Meeting
02. Cryin' Blues
03. Moanin'
04. Tensions
05. My Jelly Roll Soul
06. E's Flat Ah's Flat Too

Total time: 38:52

Exact Audio Copy V1.0 beta 3 from 29. August 2011

EAC extraction logfile from 11. September 2012, 0:15

Charles Mingus / Blues & Roots

Used drive : PIONEER DVD-RW DVR-218L Adapter: 1 ID: 0

Read mode : Secure
Utilize accurate stream : Yes
Defeat audio cache : Yes
Make use of C2 pointers : No

Read offset correction : 6
Overread into Lead-In and Lead-Out : No
Fill up missing offset samples with silence : Yes
Delete leading and trailing silent blocks : No
Null samples used in CRC calculations : Yes
Used interface : Native Win32 interface for Win NT & 2000

Used output format : User Defined Encoder
Selected bitrate : 896 kBit/s
Quality : High
Add ID3 tag : No
Command line compressor : C:\Program Files\Exact Audio Copy\wavpack\wavpack.exe
Additional command line options : -hlmx2 %source% %dest%


TOC of the extracted CD

Track | Start | Length | Start sector | End sector
––––––––––––––––––––––––––––-
1 | 0:00.00 | 5:43.22 | 0 | 25746
2 | 5:43.22 | 5:02.23 | 25747 | 48419
3 | 10:45.45 | 8:02.62 | 48420 | 84631
4 | 18:48.32 | 6:30.33 | 84632 | 113914
5 | 25:18.65 | 6:49.72 | 113915 | 144661
6 | 32:08.62 | 6:42.58 | 144662 | 174869


Range status and errors

Selected range

Filename C:\Documents and Settings\empireisky\Мои документы\Моя музыка\Charles Mingus - Blues & Roots\Charles Mingus - Blues & Roots.wav

Peak level 99.8 %
Extraction speed 1.1 X
Range quality 99.9 %
Test CRC 139D1FDA
Copy CRC 139D1FDA
Copy OK

No errors occurred


AccurateRip summary

Track 1 accurately ripped (confidence 4) [CB365B00] (AR v1)
Track 2 accurately ripped (confidence 5) [95AAC721] (AR v1)
Track 3 accurately ripped (confidence 5) [AC43C965] (AR v1)
Track 4 accurately ripped (confidence 5) [FEB34616] (AR v1)
Track 5 accurately ripped (confidence 5) [C178D0E3] (AR v1)
Track 6 accurately ripped (confidence 4) [2EC7541F] (AR v1)

All tracks accurately ripped

End of status report

–– CUETools DB Plugin V2.1.3

[CTDB TOCID: WQvOTHb1HOFepUMeR9NVApsnw_g-] found, Submit result: WQvOTHb1HOFepUMeR9NVApsnw_g- has been confirmed
[ba14dc58] (3/3) Accurately ripped


==== Log checksum 030A9D643C77DB7F85C1C01267AFA71AD17DB6B91666EBC7EC38E7745E015E23 ====

[CUETools log; Date: 09.08.2019 11:09:25; Version: 2.1.4]
[CTDB TOCID: WQvOTHb1HOFepUMeR9NVApsnw_g-] found.
Track | CTDB Status
1 | (121/121) Accurately ripped
2 | (121/121) Accurately ripped
3 | (120/121) Accurately ripped
4 | (119/121) Accurately ripped
5 | (120/121) Accurately ripped
6 | (120/121) Accurately ripped
[AccurateRip ID: 00090976-0030c7f8-39091b06] found.
Track [ CRC | V2 ] Status
01 [cb365b00|1e197f2c] (04+15/87) Accurately ripped
02 [95aac721|78f1f9d3] (05+15/91) Accurately ripped
03 [ac43c965|ffd3b587] (05+15/89) Accurately ripped
04 [feb34616|49a30e93] (05+15/90) Accurately ripped
05 [c178d0e3|07723745] (05+15/91) Accurately ripped
06 [2ec7541f|ec7c01ef] (04+13/86) Accurately ripped
Offsetted by -1795:
01 [a059ef76] (15/87) Accurately ripped
02 [43dbdf22] (18/91) Accurately ripped
03 [eec93610] (17/89) Accurately ripped
04 [611ca66e] (17/90) Accurately ripped
05 [7e75ad47] (18/91) Accurately ripped
06 [c1b2d6a6] (16/86) Accurately ripped
Offsetted by -664:
01 [478d1bb0] (03/87) Accurately ripped
02 [803f4aa9] (03/91) Accurately ripped
03 [eea8c53d] (03/89) Accurately ripped
04 [c5f97cd6] (03/90) Accurately ripped
05 [892a1203] (03/91) Accurately ripped
06 [f0583b9b] (03/86) Accurately ripped
Offsetted by -658:
01 [95d96ec4] (00/87) No match (V2 was not tested)
02 [7bd074a7] (00/91) No match (V2 was not tested)
03 [dc5309e7] (00/89) No match (V2 was not tested)
04 [d20dac26] (00/90) No match (V2 was not tested)
05 [cfd7813b] (00/91) No match (V2 was not tested)
06 [7c79a702] (00/86) No match (V2 was not tested)

Track Peak [ CRC32 ] [W/O NULL] [ LOG ]
– 99,8 [139D1FDA] [B698012A] CRC32
01 99,8 [6269587C] [DCD913D7]
02 99,7 [871F99DD] [473169D3]
03 99,4 [0DD78750] [145CBE56]
04 86,3 [238AA694] [B3F1301B]
05 99,4 [A366087B] [F4EB633A]
06 99,3 [03B4CC4A] [ECAA22B8]

Thanks to arizonadream

See also: