Subcategories

Charlie Musselwhite - Delta Hardware (2006)

Posted By: popsakov
Charlie Musselwhite - Delta Hardware (2006)

Charlie Musselwhite - Delta Hardware (2006)
EAC Rip | FLAC (Img) + Cue + Log ~ 253 Mb | MP3 CBR320 ~ 97 Mb
Full Scans ~ 156 Mb | RAR 5% Recovery
Modern Electric Blues, Harp | Real World Records #09463 58547 2 5

As authentic as the lines on his forehead and his droopy eyes, veteran bluesman Charlie Musselwhite gets better with age. (At 62, he's a respected survivor with dozens of albums to his credit.) On Delta Hardware the journeyman musician pays tribute to, and revels in, his Mississippi roots. Although he's spent time in Chicago and on the West Coast, for this album of churning swamp and deep Southern blues he taps his formative years in the town of Kosciusko. Musselwhite's poignant voice and crying harmonica convey loss and sadness on the tense, swirling "Black Water," one of two tracks dealing with Hurricane Katrina. His full-bodied, amplified harp cuts like Paul Butterfield and especially Little Walter, two of whose songs he covers here. Give Musselwhite's backing group credit too, especially guitarist Chris "Kid" Anderson, who slices into the slow, riff-based, Walter-penned "Just a Feeling" with Ronnie Earl-styled precision. Even on the straight-ahead shuffle of "Blues for Yesterday," the band nails a sweaty, edgy groove that's as genuine as it is driving. Producer Chris Goldsmith keeps the sound lean, mean, and just muddy enough to conjure images of the band churning out these dark, dusky Delta blues on a porch in the midst of a sweltering summer's night. The no-frills approach is perfect for Musselwhite's otherworldly harp playing to express his years and miles on the endless blues highway.
~ Hal Horowitz, All Music
Charlie Musselwhite - Delta Hardware (2006)

Track List:

01. Church Is Out [0:03:32.62]
02. One Of These Mornings [0:02:36.60]
03. Sundown [0:04:06.38]
04. Black Water [0:05:40.57]
05. Clarksdale Boogie [0:03:38.45]
06. Just A Feeling [0:05:15.45]
07. Gone Too Long [0:02:58.38]
08. Invisible Ones [0:03:32.70]
09. Town To Town [0:03:16.72]
10. Blues For Yesterday [0:05:23.48]

Exact Audio Copy V0.99 prebeta 5 from 4. May 2009

EAC extraction logfile from 31. July 2010, 0:27

Charlie Musselwhite / Delta Hardware

Used drive : HL-DT-STDVD-RAM GH22NP20 Adapter: 0 ID: 0

Read mode : Secure
Utilize accurate stream : Yes
Defeat audio cache : Yes
Make use of C2 pointers : No

Read offset correction : 102
Overread into Lead-In and Lead-Out : No
Fill up missing offset samples with silence : Yes
Delete leading and trailing silent blocks : No
Null samples used in CRC calculations : Yes
Used interface : Native Win32 interface for Win NT & 2000

Used output format : User Defined Encoder
Selected bitrate : 1024 kBit/s
Quality : High
Add ID3 tag : No
Command line compressor : C:\Program Files\FLAC\flac.exe
Additional command line options : -8 -V -T "ARTIST=%a" -T "TITLE=%t" -T "ALBUM=%g" -T "DATE=%y" -T "TRACKNUMBER=%n" -T "GENRE=%m" -T "COMMENT=EAC FLAC -8" %s


TOC of the extracted CD

Track | Start | Length | Start sector | End sector
––––––––––––––––––––––––––––-
1 | 0:00.00 | 3:32.62 | 0 | 15961
2 | 3:32.62 | 2:36.60 | 15962 | 27721
3 | 6:09.47 | 4:06.38 | 27722 | 46209
4 | 10:16.10 | 5:40.57 | 46210 | 71766
5 | 15:56.67 | 3:38.45 | 71767 | 88161
6 | 19:35.37 | 5:15.45 | 88162 | 111831
7 | 24:51.07 | 2:58.38 | 111832 | 125219
8 | 27:49.45 | 3:32.70 | 125220 | 141189
9 | 31:22.40 | 3:16.72 | 141190 | 155961
10 | 34:39.37 | 5:23.48 | 155962 | 180234


Range status and errors

Selected range

Filename C:\pmx222\Charlie Musselwhite - Delta Hardware.wav

Peak level 98.8 %
Range quality 99.9 %
Test CRC 9BDF595F
Copy CRC 9BDF595F
Copy OK

No errors occurred


AccurateRip summary

Track 1 accurately ripped (confidence 17) [BA085CD3]
Track 2 accurately ripped (confidence 17) [325827D4]
Track 3 accurately ripped (confidence 17) [0563EA83]
Track 4 accurately ripped (confidence 17) [EEB22633]
Track 5 accurately ripped (confidence 17) [F4B70698]
Track 6 accurately ripped (confidence 17) [3E2B75B0]
Track 7 accurately ripped (confidence 17) [3A3BA92E]
Track 8 accurately ripped (confidence 17) [D0F45B85]
Track 9 accurately ripped (confidence 17) [82931BC6]
Track 10 accurately ripped (confidence 17) [170AF578]

All tracks accurately ripped

End of status report

Charlie Musselwhite - Delta Hardware (2006)

All thanks go to рмх222

>>> Charlie Musselwhite in my Blog <<<

Download from icerbox.com: