Subcategories

Charlie Musselwhite - Harpin' On A Riff: The Best Of Charlie Musselwhite (1999)

Posted By: popsakov
Charlie Musselwhite - Harpin' On A Riff: The Best Of Charlie Musselwhite (1999)

Charlie Musselwhite - Harpin' On A Riff: The Best Of Charlie Musselwhite (1999)
EAC Rip | FLAC (Tracks) + Cue + m3u + Log ~ 503 Mb | MP3 CBR320 ~ 198 Mb
Scans Included (JPG, 300 dpi) | RAR 5% Recovery
Harmonica Blues, Modern Electric Blues | Music Club #MCCD 400

Music Club has done it again with this amazing retrospective of blues guitarist and harmonicat Charlie Musselwhite. The Mississippi-born, Memphis-raised, and Chicago-trained bluesman has issued so many strong recordings it's a wonder that this isn't a box set. But if you have to boil it down to a single disc for a budget price, this is the one to have without question. Contained within its 20 selections are tracks from his two 1970s Arhoolie albums, Takin' My Time and Goin' Back Down South, from 1971 and 1974, respectively; The Harmonica According to Charlie Musselwhite, issued first on Kicking Mule and later on Blind Pig in 1978 and 1994, respectively; and finally from his Alligator albums, Ace of Harps (1990 and a Grammy winner), Signature (1992 and Grammy nominated), and In My Time (1994, also Grammy nominated). These tracks come from Musselwhite's most fertile years when he was playing with reckless abandon a style of music he learned playing with Big Joe Williams on Maxwell Street and Muddy Waters in the clubs of Chicago. Featured here are the title track, "Finger Lickin' Good," "When It Rains It Pours," "Revelation," "Hear Me Talkin'," "This Old Nightlife," "It's Getting Warm In Here," "Crazy for My Baby," and more than a dozen more. The pace is nonstop, and it shows Musselwhite's development and refinement of his signature style on the harp and on the guitar. This is a blues album that's guaranteed to raise the roof at a party before it burns the joint down and will satisfy any aficionado's ear for the best of Musselwhite. The only criticism might have been to include some of the '60s live stuff he did with Muddy Waters, but it's really a small complaint. This thing delivers the bluer-than-blue goods raw, immediate, and full of pathos. For the price, there isn't a better Musselwhite album available anywhere.
~ Thom Jurek, All Music

***************

Charlie Musselwhite - Harpin' On A Riff: The Best Of Charlie Musselwhite (1999)

Charlie Musselwhite - Harpin' On A Riff: The Best Of Charlie Musselwhite (1999)

Track List:

01. Harpin' On A Riff [3:32]
02. Blues Got Me Again [5:22]
03. Hear Me Talkin' [4:56]
04. Way I Feel [4:02]
05. Fast Life Blues [2:02]
06. It's Gettin' Warm In Here [4:52]
07. Finger Lickin' Good [3:55]
08. Crazy For My Baby [2:53]
09. Yesterdays [5:12]
10. Hey! Miss Bessie [5:10]
11. Run Here Mama [3:25]
12. Take Me Back [5:17]
13. When It Rains It Pours [4:28]
14. Revelation [4:53]
15. Taylor's, Arkansas [2:47]
16. This Old Nightlife [5:18]
17. Azul Para Amparo [1:38]
18. Blues In The Dark [1:55]
19. Hangin' On [3:29]
20. My Road Lies In Darkness [2:44]

Exact Audio Copy V1.1 from 23. June 2015

EAC extraction logfile from 6. May 2018, 11:16

Charlie Musselwhite / Harpin' On A Riff - The Best Of

Used drive : HL-DT-STDVD-RAM GH22NP20 Adapter: 1 ID: 0

Read mode : Secure
Utilize accurate stream : Yes
Defeat audio cache : Yes
Make use of C2 pointers : No

Read offset correction : 102
Overread into Lead-In and Lead-Out : No
Fill up missing offset samples with silence : Yes
Delete leading and trailing silent blocks : No
Null samples used in CRC calculations : Yes
Used interface : Native Win32 interface for Win NT & 2000
Gap handling : Appended to previous track

Used output format : User Defined Encoder
Selected bitrate : 128 kBit/s
Quality : High
Add ID3 tag : No
Command line compressor : C:\Program Files (x86)\Exact Audio Copy\Flac\flac.exe
Additional command line options : -8 -e -V -T "ARTIST=%artist%" -T "TITLE=%title%" -T "ALBUM=%albumtitle%" -T "DATE=%year%" -T "TRACKNUMBER=%tracknr%" -T "GENRE=%genre%" -T "PERFORMER=%albuminterpret%" -T "COMPOSER=%composer%" %haslyrics%–tag-from-file=LYRICS="%lyricsfile%"%haslyrics% -T "ALBUMARTIST=%albumartist%" -T "DISCNUMBER=%cdnumber%" -T "TOTALDISCS=%totalcds%" -T "TOTALTRACKS=%numtracks%" -T "COMMENT=%comment%" %source% -o %dest%


TOC of the extracted CD

Track | Start | Length | Start sector | End sector
––––––––––––––––––––––––––––-
1 | 0:00.00 | 3:33.63 | 0 | 16037
2 | 3:33.63 | 5:23.20 | 16038 | 40282
3 | 8:57.08 | 4:57.36 | 40283 | 62593
4 | 13:54.44 | 4:03.43 | 62594 | 80861
5 | 17:58.12 | 2:03.30 | 80862 | 90116
6 | 20:01.42 | 4:53.59 | 90117 | 112150
7 | 24:55.26 | 3:57.08 | 112151 | 129933
8 | 28:52.34 | 2:55.05 | 129934 | 143063
9 | 31:47.39 | 5:13.29 | 143064 | 166567
10 | 37:00.68 | 5:11.28 | 166568 | 189920
11 | 42:12.21 | 3:26.25 | 189921 | 205395
12 | 45:38.46 | 5:18.51 | 205396 | 229296
13 | 50:57.22 | 4:29.14 | 229297 | 249485
14 | 55:26.36 | 4:55.08 | 249486 | 271618
15 | 60:21.44 | 2:48.35 | 271619 | 284253
16 | 63:10.04 | 5:19.70 | 284254 | 308248
17 | 68:29.74 | 1:39.17 | 308249 | 315690
18 | 70:09.16 | 1:56.39 | 315691 | 324429
19 | 72:05.55 | 3:30.68 | 324430 | 340247
20 | 75:36.48 | 2:43.69 | 340248 | 352541


Track 1

Filename D:\01 - Harpin' On A Riff.wav

Pre-gap length 0:00:02.00

Peak level 99.8 %
Extraction speed 1.7 X
Track quality 100.0 %
Test CRC 49B6FBA1
Copy CRC 49B6FBA1
Accurately ripped (confidence 2) [343AAF4E] (AR v2)
Copy OK

Track 2

Filename D:\02 - Blues Got Me Again.wav

Pre-gap length 0:00:01.66

Peak level 98.7 %
Extraction speed 2.0 X
Track quality 100.0 %
Test CRC A8A16726
Copy CRC A8A16726
Accurately ripped (confidence 2) [E3C9812C] (AR v2)
Copy OK

Track 3

Filename D:\03 - Hear Me Talkin'.wav

Pre-gap length 0:00:01.66

Peak level 99.8 %
Extraction speed 2.0 X
Track quality 99.9 %
Test CRC D7121DCA
Copy CRC D7121DCA
Accurately ripped (confidence 2) [85A64016] (AR v2)
Copy OK

Track 4

Filename D:\04 - Way I Feel.wav

Pre-gap length 0:00:01.66

Peak level 99.8 %
Extraction speed 2.3 X
Track quality 100.0 %
Test CRC 3804A568
Copy CRC 3804A568
Accurately ripped (confidence 2) [D9E34FED] (AR v2)
Copy OK

Track 5

Filename D:\05 - Fast Life Blues.wav

Pre-gap length 0:00:01.66

Peak level 70.2 %
Extraction speed 2.1 X
Track quality 100.0 %
Test CRC 7B70E4A6
Copy CRC 7B70E4A6
Accurately ripped (confidence 2) [A2AA6B78] (AR v2)
Copy OK

Track 6

Filename D:\06 - It's Gettin' Warm In Here.wav

Pre-gap length 0:00:01.66

Peak level 99.8 %
Extraction speed 2.2 X
Track quality 99.9 %
Test CRC 5CB19249
Copy CRC 5CB19249
Accurately ripped (confidence 2) [D0E798DB] (AR v2)
Copy OK

Track 7

Filename D:\07 - Finger Lickin' Good.wav

Pre-gap length 0:00:01.66

Peak level 87.2 %
Extraction speed 2.6 X
Track quality 100.0 %
Test CRC CAE94CB6
Copy CRC CAE94CB6
Accurately ripped (confidence 2) [9482F982] (AR v2)
Copy OK

Track 8

Filename D:\08 - Crazy For My Baby.wav

Pre-gap length 0:00:01.66

Peak level 99.8 %
Extraction speed 2.5 X
Track quality 100.0 %
Test CRC DD57546E
Copy CRC DD57546E
Accurately ripped (confidence 2) [95CBF44C] (AR v2)
Copy OK

Track 9

Filename D:\09 - Yesterdays.wav

Pre-gap length 0:00:01.66

Peak level 84.0 %
Extraction speed 2.5 X
Track quality 99.9 %
Test CRC 0CD7B419
Copy CRC 0CD7B419
Accurately ripped (confidence 2) [C23C5391] (AR v2)
Copy OK

Track 10

Filename D:\10 - Hey! Miss Bessie.wav

Pre-gap length 0:00:01.68

Peak level 98.8 %
Extraction speed 3.0 X
Track quality 100.0 %
Test CRC 93458EAA
Copy CRC 93458EAA
Accurately ripped (confidence 2) [EFFAD463] (AR v2)
Copy OK

Track 11

Filename D:\11 - Run Here Mama.wav

Pre-gap length 0:00:01.66

Peak level 81.5 %
Extraction speed 2.9 X
Track quality 100.0 %
Test CRC 3B293221
Copy CRC 3B293221
Accurately ripped (confidence 2) [79FD4C0C] (AR v2)
Copy OK

Track 12

Filename D:\12 - Take Me Back.wav

Pre-gap length 0:00:01.66

Peak level 99.8 %
Extraction speed 3.2 X
Track quality 100.0 %
Test CRC D8626AF2
Copy CRC D8626AF2
Accurately ripped (confidence 2) [6292E920] (AR v2)
Copy OK

Track 13

Filename D:\13 - When It Rains It Pours.wav

Pre-gap length 0:00:01.66

Peak level 99.8 %
Extraction speed 3.3 X
Track quality 100.0 %
Test CRC E104092D
Copy CRC E104092D
Accurately ripped (confidence 2) [717D49F2] (AR v2)
Copy OK

Track 14

Filename D:\14 - Revelation.wav

Pre-gap length 0:00:01.66

Peak level 99.2 %
Extraction speed 3.1 X
Track quality 99.9 %
Test CRC F9F058BA
Copy CRC F9F058BA
Accurately ripped (confidence 2) [CA8DD960] (AR v2)
Copy OK

Track 15

Filename D:\15 - Taylor's, Arkansas.wav

Pre-gap length 0:00:01.66

Peak level 99.8 %
Extraction speed 3.2 X
Track quality 100.0 %
Test CRC CFCEF56A
Copy CRC CFCEF56A
Accurately ripped (confidence 2) [8B9CE72F] (AR v2)
Copy OK

Track 16

Filename D:\16 - This Old Nightlife.wav

Pre-gap length 0:00:01.66

Peak level 99.8 %
Extraction speed 3.6 X
Track quality 100.0 %
Test CRC 8B4C43B3
Copy CRC 8B4C43B3
Accurately ripped (confidence 2) [D2C48830] (AR v2)
Copy OK

Track 17

Filename D:\17 - Azul Para Amparo.wav

Pre-gap length 0:00:01.66

Peak level 70.9 %
Extraction speed 3.0 X
Track quality 100.0 %
Test CRC 2CB94E7B
Copy CRC 2CB94E7B
Accurately ripped (confidence 2) [6BF11397] (AR v2)
Copy OK

Track 18

Filename D:\18 - Blues In The Dark.wav

Pre-gap length 0:00:01.66

Peak level 90.6 %
Extraction speed 2.5 X
Track quality 99.9 %
Test CRC A2ED25C4
Copy CRC A2ED25C4
Accurately ripped (confidence 2) [A42921DB] (AR v2)
Copy OK

Track 19

Filename D:\19 - Hangin' On.wav

Pre-gap length 0:00:01.66

Peak level 99.8 %
Extraction speed 3.6 X
Track quality 100.0 %
Test CRC 26042E63
Copy CRC 26042E63
Accurately ripped (confidence 2) [15F8DEF5] (AR v2)
Copy OK

Track 20

Filename D:\20 - My Road Lies In Darkness.wav

Pre-gap length 0:00:01.66

Peak level 86.2 %
Extraction speed 3.5 X
Track quality 100.0 %
Test CRC 0CD3EF62
Copy CRC 0CD3EF62
Accurately ripped (confidence 2) [FC8349F7] (AR v2)
Copy OK


All tracks accurately ripped

No errors occurred

End of status report

–– CUETools DB Plugin V2.1.6

[CTDB TOCID: KlQQ6Wr_uV9syjnwbSNAh4F4Hl8-] found
Submit result: KlQQ6Wr_uV9syjnwbSNAh4F4Hl8- has been confirmed
Track | CTDB Status
1 | (15/15) Accurately ripped
2 | (15/15) Accurately ripped
3 | (15/15) Accurately ripped
4 | (15/15) Accurately ripped
5 | (15/15) Accurately ripped
6 | (15/15) Accurately ripped
7 | (15/15) Accurately ripped
8 | (15/15) Accurately ripped
9 | (15/15) Accurately ripped
10 | (14/15) Accurately ripped
11 | (15/15) Accurately ripped
12 | (15/15) Accurately ripped
13 | (14/15) Accurately ripped
14 | (15/15) Accurately ripped
15 | (14/15) Accurately ripped
16 | (15/15) Accurately ripped
17 | (15/15) Accurately ripped
18 | (15/15) Accurately ripped
19 | (15/15) Accurately ripped
20 | (15/15) Accurately ripped


==== Log checksum 111700F25BAFA835D98285F62C74229D31352DC02410C37D4C99316A4827B291 ====

foobar2000 1.3.16 / Dynamic Range Meter 1.1.1
log date: 2018-06-15 13:12:16

––––––––––––––––––––––––––––––––––––––––
Analyzed: Charlie Musselwhite / Harpin' On A Riff - The Best Of
––––––––––––––––––––––––––––––––––––––––

DR Peak RMS Duration Track
––––––––––––––––––––––––––––––––––––––––
DR13 -0.01 dB -13.54 dB 3:34 01-Harpin' On A Riff
DR13 -0.11 dB -14.30 dB 5:23 02-Blues Got Me Again
DR13 -0.01 dB -14.10 dB 4:57 03-Hear Me Talkin'
DR12 -0.01 dB -14.47 dB 4:04 04-Way I Feel
DR15 -3.07 dB -19.42 dB 2:03 05-Fast Life Blues
DR13 -0.01 dB -14.15 dB 4:54 06-It's Gettin' Warm In Here
DR12 -1.19 dB -14.88 dB 3:57 07-Finger Lickin' Good
DR13 -0.01 dB -14.46 dB 2:55 08-Crazy For My Baby
DR13 -1.51 dB -16.72 dB 5:13 09-Yesterdays
DR12 -0.10 dB -14.00 dB 5:11 10-Hey! Miss Bessie
DR13 -1.77 dB -17.58 dB 3:26 11-Run Here Mama
DR11 -0.01 dB -13.17 dB 5:19 12-Take Me Back
DR12 -0.01 dB -13.89 dB 4:29 13-When It Rains It Pours
DR12 -0.06 dB -15.27 dB 4:55 14-Revelation
DR13 -0.01 dB -14.69 dB 2:48 15-Taylor's, Arkansas
DR13 -0.01 dB -13.96 dB 5:20 16-This Old Nightlife
DR13 -2.98 dB -19.20 dB 1:39 17-Azul Para Amparo
DR12 -0.85 dB -14.25 dB 1:57 18-Blues In The Dark
DR11 -0.01 dB -12.58 dB 3:31 19-Hangin' On
DR14 -1.29 dB -19.52 dB 2:44 20-My Road Lies In Darkness
––––––––––––––––––––––––––––––––––––––––

Number of tracks: 20
Official DR value: DR13

Samplerate: 44100 Hz
Channels: 2
Bits per sample: 16
Bitrate: 675 kbps
Codec: FLAC
================================================================================

[CUETools log; Date: 15.06.2018 13:11:33; Version: 2.1.6]
[CTDB TOCID: KlQQ6Wr_uV9syjnwbSNAh4F4Hl8-] found.
Track | CTDB Status
1 | (16/16) Accurately ripped
2 | (16/16) Accurately ripped
3 | (16/16) Accurately ripped
4 | (16/16) Accurately ripped
5 | (16/16) Accurately ripped
6 | (16/16) Accurately ripped
7 | (16/16) Accurately ripped
8 | (16/16) Accurately ripped
9 | (16/16) Accurately ripped
10 | (15/16) Accurately ripped
11 | (16/16) Accurately ripped
12 | (16/16) Accurately ripped
13 | (15/16) Accurately ripped
14 | (16/16) Accurately ripped
15 | (15/16) Accurately ripped
16 | (16/16) Accurately ripped
17 | (16/16) Accurately ripped
18 | (16/16) Accurately ripped
19 | (16/16) Accurately ripped
20 | (16/16) Accurately ripped
[AccurateRip ID: 003bb428-0366d64b-0d125c14] found.
Track [ CRC | V2 ] Status
01 [5320f6d7|343aaf4e] (08+02/13) Accurately ripped
02 [5101b0a1|e3c9812c] (07+02/12) Accurately ripped
03 [b12cc254|85a64016] (07+02/12) Accurately ripped
04 [2ea1f2f9|d9e34fed] (07+02/12) Accurately ripped
05 [23d06536|a2aa6b78] (07+02/12) Accurately ripped
06 [847e9a82|d0e798db] (07+02/12) Accurately ripped
07 [dea1c80c|9482f982] (07+02/12) Accurately ripped
08 [ded40bc6|95cbf44c] (07+02/12) Accurately ripped
09 [8e2f3480|c23c5391] (07+02/12) Accurately ripped
10 [07ef22aa|effad463] (07+02/11) Accurately ripped
11 [875a4c15|79fd4c0c] (07+02/12) Accurately ripped
12 [662fa503|6292e920] (07+02/11) Accurately ripped
13 [c8a08c99|717d49f2] (07+02/12) Accurately ripped
14 [bda7fa56|ca8dd960] (07+02/12) Accurately ripped
15 [bc6ec576|8b9ce72f] (07+02/12) Accurately ripped
16 [6562377f|d2c48830] (07+02/11) Accurately ripped
17 [969ebfae|6bf11397] (07+02/12) Accurately ripped
18 [29977240|a42921db] (07+02/11) Accurately ripped
19 [71e192eb|15f8def5] (07+02/11) Accurately ripped
20 [265da031|fc8349f7] (07+02/11) Accurately ripped
Offsetted by -1328:
01 [09382f07] (00/13) No match (V2 was not tested)
02 [6d052261] (00/12) No match (V2 was not tested)
03 [c56e09a4] (00/12) No match (V2 was not tested)
04 [4e42b3e9] (00/12) No match (V2 was not tested)
05 [dbc7f246] (00/12) No match (V2 was not tested)
06 [acbb9f52] (00/12) No match (V2 was not tested)
07 [8ea9d8cc] (00/12) No match (V2 was not tested)
08 [85b72f26] (00/12) No match (V2 was not tested)
09 [b8791630] (00/12) No match (V2 was not tested)
10 [ed982c2a] (00/11) No match (V2 was not tested)
11 [f8ac9075] (00/12) No match (V2 was not tested)
12 [c0258903] (00/11) No match (V2 was not tested)
13 [5a32acf9] (00/12) No match (V2 was not tested)
14 [cef20b56] (00/12) No match (V2 was not tested)
15 [36d20fb6] (00/12) No match (V2 was not tested)
16 [bd7097ff] (00/11) No match (V2 was not tested)
17 [9db257de] (00/12) No match (V2 was not tested)
18 [fbb55120] (00/11) No match (V2 was not tested)
19 [aa29b9cb] (00/11) No match (V2 was not tested)
20 [988ee5b1] (00/11) No match (V2 was not tested)
Offsetted by -664:
01 [ae2c92ef] (00/13) No match (V2 was not tested)
02 [df036981] (00/12) No match (V2 was not tested)
03 [3b4d65fc] (00/12) No match (V2 was not tested)
04 [be725371] (00/12) No match (V2 was not tested)
05 [ffcc2bbe] (00/12) No match (V2 was not tested)
06 [189d1cea] (00/12) No match (V2 was not tested)
07 [b6a5d06c] (00/12) No match (V2 was not tested)
08 [b2459d76] (00/12) No match (V2 was not tested)
09 [a3542558] (00/12) No match (V2 was not tested)
10 [7ac3a76a] (00/11) No match (V2 was not tested)
11 [40036e45] (00/12) No match (V2 was not tested)
12 [932a9703] (00/11) No match (V2 was not tested)
13 [91699cc9] (00/12) No match (V2 was not tested)
14 [464d02d6] (00/12) No match (V2 was not tested)
15 [79a06a96] (00/12) No match (V2 was not tested)
16 [916967bf] (00/11) No match (V2 was not tested)
17 [1a288bc6] (00/12) No match (V2 was not tested)
18 [12a661b0] (00/11) No match (V2 was not tested)
19 [8e05a65b] (00/11) No match (V2 was not tested)
20 [df7642f1] (00/11) No match (V2 was not tested)

Track Peak [ CRC32 ] [W/O NULL] [ LOG ]
– 99,8 [094CD68A] [B39C242F]
01 99,8 [49B6FBA1] [29371DA2] CRC32
02 98,7 [A8A16726] [9EAFEC77] CRC32
03 99,8 [D7121DCA] [DECB3414] CRC32
04 99,8 [3804A568] [DCEED996] CRC32
05 70,2 [7B70E4A6] [D524527A] CRC32
06 99,8 [5CB19249] [E614D81F] CRC32
07 87,2 [CAE94CB6] [EF64A823] CRC32
08 99,8 [DD57546E] [D9BCC92F] CRC32
09 84,0 [0CD7B419] [B3BCBD85] CRC32
10 98,8 [93458EAA] [D838082D] CRC32
11 81,5 [3B293221] [7A73B9AB] CRC32
12 99,8 [D8626AF2] [4AC03BC0] CRC32
13 99,8 [E104092D] [B400277E] CRC32
14 99,2 [F9F058BA] [C5B286D8] CRC32
15 99,8 [CFCEF56A] [DA02B41F] CRC32
16 99,8 [8B4C43B3] [40621210] CRC32
17 70,9 [2CB94E7B] [C6641C89] CRC32
18 90,6 [A2ED25C4] [2E16894A] CRC32
19 99,8 [26042E63] [56CA813E] CRC32
20 86,2 [0CD3EF62] [DD65D960] CRC32

Charlie Musselwhite - Harpin' On A Riff: The Best Of Charlie Musselwhite (1999)

All thanks go to the original ripper(s) …

>>> Charlie Musselwhite in my Blog <<<

Download from icerbox.com: