Tags
Language
Tags

Charlie Parker - Bird at St. Nick's (1950) [Reissue 1992] (Repost)

Posted By: gribovar
Charlie Parker - Bird at St. Nick's (1950) [Reissue 1992] (Repost)

Charlie Parker - Bird at St. Nick's (1950) [Reissue 1992]
EAC Rip | FLAC (tracks+.cue+log) - 119 MB | MP3 CBR 320 kbps (LAME 3.93) - 105 MB | Covers (5 MB) included
Genre: Jazz | RAR 3% Rec. | Label: Jazz Workshop Records/Fantasy (00025218604123)

Veteran Charlie Parker collectors generally know that they should avoid all but his most famous live sessions. It is not that Parker plays badly on this CD reissue (in fact his solo on "Confirmation" is quite miraculous) but, as is often the case with these privately recorded sets, the recording quality is horrible. Bird (with trumpeter Red Rodney, pianist Al Haig, bassist Tommy Potter, and drummer Roy Haynes) plays quite well but these versions only hint at what the music must have sounded like.
Tracklist:
01. I Didn't Know What Time It Was
02. Ornithology
03. Embraceable You
04. Visa
05. I Cover the Waterfront
06. Scrapple from the Apple
07. Star Eyes (Andrew-Speaks)/52nd Street Theme
08. Confirmation
09. Out of Nowhere
10. Hot House
11. What's New?
12. Now's the Time
13. Smoke Gets in Your Eyes (Harbach-Kern)/52nd Street Theme

Total time: 42:15

Exact Audio Copy V0.99 prebeta 5 from 4. May 2009

EAC extraction logfile from 23. January 2010, 23:44

Charlie Parker / Bird At St Nick's

Used drive : PLEXTOR CD-R PREMIUM2 Adapter: 1 ID: 1

Read mode : Secure
Utilize accurate stream : Yes
Defeat audio cache : Yes
Make use of C2 pointers : No

Read offset correction : 30
Overread into Lead-In and Lead-Out : No
Fill up missing offset samples with silence : Yes
Delete leading and trailing silent blocks : No
Null samples used in CRC calculations : Yes
Used interface : Installed external ASPI interface
Gap handling : Appended to previous track

Used output format : User Defined Encoder
Selected bitrate : 32 kBit/s
Quality : High
Add ID3 tag : No
Command line compressor : C:\Programmi\FLAC\flac.exe
Additional command line options : -8 -V -T "ARTIST=%a" -T "TITLE=%t" -T "ALBUM=%g" -T "DATE=%y" -T "TRACKNUMBER=%n" -T "GENRE=%m" -T "COMMENT=EAC FLAC -8" %s


TOC of the extracted CD

Track | Start | Length | Start sector | End sector
––––––––––––––––––––––––––––-
1 | 0:00.00 | 2:37.28 | 0 | 11802
2 | 2:37.28 | 3:30.22 | 11803 | 27574
3 | 6:07.50 | 2:20.30 | 27575 | 38104
4 | 8:28.05 | 3:00.45 | 38105 | 51649
5 | 11:28.50 | 1:46.70 | 51650 | 59669
6 | 13:15.45 | 4:40.00 | 59670 | 80669
7 | 17:55.45 | 3:09.08 | 80670 | 94852
8 | 21:04.53 | 3:16.50 | 94853 | 109602
9 | 24:21.28 | 2:19.67 | 109603 | 120094
10 | 26:41.20 | 3:49.48 | 120095 | 137317
11 | 30:30.68 | 2:45.67 | 137318 | 149759
12 | 33:16.60 | 4:18.38 | 149760 | 169147
13 | 37:35.23 | 4:46.45 | 169148 | 190642


Track 1

Filename D:\My Rip\01 - I Didn't Know What Time It Was.wav

Pre-gap length 0:00:02.00

Peak level 79.0 %
Track quality 99.9 %
Test CRC 18F8D22A
Copy CRC 18F8D22A
Cannot be verified as accurate (confidence 1) [CEFEA46A], AccurateRip returned [BBAA3B90]
Copy OK

Track 2

Filename D:\My Rip\02 - Ornithology.wav

Pre-gap length 0:00:02.04

Peak level 94.7 %
Track quality 100.0 %
Test CRC B969C524
Copy CRC B969C524
Cannot be verified as accurate (confidence 1) [5DA54DAB], AccurateRip returned [6FEAC2EA]
Copy OK

Track 3

Filename D:\My Rip\03 - Embraceable You.wav

Pre-gap length 0:00:02.69

Peak level 75.9 %
Track quality 100.0 %
Test CRC 8DC46C12
Copy CRC 8DC46C12
Cannot be verified as accurate (confidence 1) [EEF27D0D], AccurateRip returned [0C80FEBA]
Copy OK

Track 4

Filename D:\My Rip\04 - Visa.wav

Pre-gap length 0:00:02.56

Peak level 91.6 %
Track quality 100.0 %
Test CRC CFCDCD74
Copy CRC CFCDCD74
Cannot be verified as accurate (confidence 1) [D27EEBD6], AccurateRip returned [A44E80AC]
Copy OK

Track 5

Filename D:\My Rip\05 - I Cover The Waterfront.wav

Pre-gap length 0:00:02.46

Peak level 87.2 %
Track quality 99.9 %
Test CRC BF21F880
Copy CRC BF21F880
Cannot be verified as accurate (confidence 1) [14708C75], AccurateRip returned [EEC30F71]
Copy OK

Track 6

Filename D:\My Rip\06 - Scrapple From The Apple.wav

Pre-gap length 0:00:02.33

Peak level 88.2 %
Track quality 100.0 %
Test CRC BF3B9041
Copy CRC BF3B9041
Cannot be verified as accurate (confidence 1) [13BA679B], AccurateRip returned [52C0DE0A]
Copy OK

Track 7

Filename D:\My Rip\07 - Star Eyes-52Nd Street Theme.wav

Pre-gap length 0:00:02.09

Peak level 73.8 %
Track quality 100.0 %
Test CRC BC5F0A40
Copy CRC BC5F0A40
Cannot be verified as accurate (confidence 1) [2EC5D845], AccurateRip returned [BFE23767]
Copy OK

Track 8

Filename D:\My Rip\08 - Confirmation.wav

Pre-gap length 0:00:03.10

Peak level 90.9 %
Track quality 100.0 %
Test CRC 83282C73
Copy CRC 83282C73
Cannot be verified as accurate (confidence 1) [053510F5], AccurateRip returned [A302A029]
Copy OK

Track 9

Filename D:\My Rip\09 - Out Of Nowhere.wav

Pre-gap length 0:00:02.60

Peak level 75.6 %
Track quality 100.0 %
Test CRC E9B89487
Copy CRC E9B89487
Cannot be verified as accurate (confidence 1) [D59D0E8B], AccurateRip returned [1F889936]
Copy OK

Track 10

Filename D:\My Rip\10 - Hot House.wav

Pre-gap length 0:00:02.66

Peak level 92.6 %
Track quality 100.0 %
Test CRC C835228F
Copy CRC C835228F
Cannot be verified as accurate (confidence 1) [5D63139D], AccurateRip returned [A10E5246]
Copy OK

Track 11

Filename D:\My Rip\11 - What's New.wav

Pre-gap length 0:00:03.46

Peak level 84.8 %
Track quality 100.0 %
Test CRC 8734A2FE
Copy CRC 8734A2FE
Cannot be verified as accurate (confidence 1) [D47B09E5], AccurateRip returned [B27A4CA3]
Copy OK

Track 12

Filename D:\My Rip\12 - Now's The Time.wav

Pre-gap length 0:00:02.56

Peak level 87.8 %
Track quality 100.0 %
Test CRC A1BB1601
Copy CRC A1BB1601
Cannot be verified as accurate (confidence 1) [A37852F4], AccurateRip returned [8343CB03]
Copy OK

Track 13

Filename D:\My Rip\13 - Smoke Gets In Your Eyes-52Nd Street Theme.wav

Pre-gap length 0:00:02.53

Peak level 78.1 %
Track quality 100.0 %
Test CRC 2AC6A55F
Copy CRC 2AC6A55F
Cannot be verified as accurate (confidence 1) [81498EBF], AccurateRip returned [2F64AD47]
Copy OK


No tracks could be verified as accurate
You may have a different pressing from the one(s) in the database

No errors occurred

End of status report

[CUETools log; Date: 30.03.2018 23:03:34; Version: 2.1.4]
[CTDB TOCID: _OtUBFS.JxwYUGB8kVhK54Ox_Xc-] found.
Track | CTDB Status
1 | (19/20) Accurately ripped
2 | (18/20) Accurately ripped
3 | (19/20) Accurately ripped
4 | (19/20) Accurately ripped
5 | (19/20) Accurately ripped
6 | (19/20) Accurately ripped
7 | (18/20) Accurately ripped
8 | (19/20) Accurately ripped
9 | (19/20) Accurately ripped
10 | (19/20) Accurately ripped
11 | (19/20) Accurately ripped
12 | (19/20) Accurately ripped
13 | (18/20) Accurately ripped
[AccurateRip ID: 0012ef3d-00bfac31-be09ed0d] found.
Track [ CRC | V2 ] Status
01 [cefea46a|4e721b2f] (02+04/18) Accurately ripped
02 [5da54dab|e812f750] (02+04/18) Accurately ripped
03 [eef27d0d|1b206258] (02+04/18) Accurately ripped
04 [d27eebd6|db825f26] (02+04/18) Accurately ripped
05 [14708c75|344bc655] (02+04/18) Accurately ripped
06 [13ba679b|b9adbfe3] (02+04/18) Accurately ripped
07 [2ec5d845|83d0a7e3] (02+04/18) Accurately ripped
08 [053510f5|c0b1098d] (02+04/18) Accurately ripped
09 [d59d0e8b|01954a58] (02+04/18) Accurately ripped
10 [5d63139d|040a90fd] (02+04/18) Accurately ripped
11 [d47b09e5|a4eeb3fd] (02+04/18) Accurately ripped
12 [a37852f4|b585b050] (02+04/18) Accurately ripped
13 [81498ebf|6d6d0701] (02+04/18) Accurately ripped
Offsetted by 664:
01 [bbaa3b90] (02/18) Accurately ripped
02 [6feac2ea] (02/18) Accurately ripped
03 [0c80feba] (02/18) Accurately ripped
04 [a44e80ac] (02/18) Accurately ripped
05 [eec30f71] (02/18) Accurately ripped
06 [52c0de0a] (02/18) Accurately ripped
07 [bfe23767] (02/18) Accurately ripped
08 [a302a029] (02/18) Accurately ripped
09 [1f889936] (02/18) Accurately ripped
10 [a10e5246] (02/18) Accurately ripped
11 [b27a4ca3] (02/18) Accurately ripped
12 [8343cb03] (02/18) Accurately ripped
13 [2f64ad47] (02/18) Accurately ripped
Offsetted by 665:
01 [63599bd5] (00/18) No match (V2 was not tested)
02 [133076fe] (00/18) No match (V2 was not tested)
03 [29b7b56e] (00/18) No match (V2 was not tested)
04 [077bfc9e] (00/18) No match (V2 was not tested)
05 [b6a52103] (00/18) No match (V2 was not tested)
06 [63b106dd] (00/18) No match (V2 was not tested)
07 [801e0ffd] (00/18) No match (V2 was not tested)
08 [95487e1d] (00/18) No match (V2 was not tested)
09 [0b8c475e] (00/18) No match (V2 was not tested)
10 [fde66812] (00/18) No match (V2 was not tested)
11 [3b98ac86] (00/18) No match (V2 was not tested)
12 [c9c54149] (00/18) No match (V2 was not tested)
13 [fb38c412] (00/18) No match (V2 was not tested)

Track Peak [ CRC32 ] [W/O NULL] [ LOG ]
– 94,7 [FDCA3EF9] [D2ED5790]
01 79,0 [18F8D22A] [E8AB0843] CRC32
02 94,7 [B969C524] [01D81588] CRC32
03 75,9 [8DC46C12] [28FE60ED] CRC32
04 91,6 [CFCDCD74] [C0FB3E15] CRC32
05 87,2 [BF21F880] [276FA86A] CRC32
06 88,2 [BF3B9041] [FF3F1A7D] CRC32
07 73,8 [BC5F0A40] [FCCA4A2D] CRC32
08 90,9 [83282C73] [115EB6B9] CRC32
09 75,6 [E9B89487] [29ADB0F5] CRC32
10 92,6 [C835228F] [D7022F46] CRC32
11 84,8 [8734A2FE] [2B7511D3] CRC32
12 87,8 [A1BB1601] [C98673E2] CRC32
13 78,1 [2AC6A55F] [2623D60E] CRC32

Thanks to Sarchiapone