Tags
Language
Tags

Charlie Parker - Charlie Parker At Storyville [Recorded 1953] (1985)

Posted By: gribovar
Charlie Parker - Charlie Parker At Storyville [Recorded 1953] (1985)

Charlie Parker - Charlie Parker At Storyville [Recorded 1953] (1985)
EAC Rip | APE (image+.cue+log) - 190 MB | Covers (7 MB) included
Genre: Jazz | RAR 3% Rec. | Label: Blue Note (D 100801), 1988

This LP contains two broadcasts featuring Charlie Parker at Boston's Storyville club in 1953. one set finds him accompanied by the Red Garland Trio (two years before Garland became famous playing with Miles Davis) while the other one also features trumpeter Herb Pomeroy and a trio led by pianist Sir Charles Thompson. The recording quality is just so-so but Bird was in fine form for these sessions, playing hot versions of his usual repertoire.
Tracklist:
01. Moose the Mooche
02. I'll Walk Alone
03. Ornithology
04. Out of Nowhere
05. Now's the Time
06. Don't Blame Me
07. Dancing on the Ceiling
08. Cool Blues
09. Groovin' High

Total time: 41:08

Exact Audio Copy V0.99 prebeta 4 from 23. January 2008

Отчёт EAC об извлечении, выполненном 24. января 2009, 12:21

Charlie Parker / Charlie Parker At Storyville

Дисковод: _NEC NR-7900A Adapter: 3 ID: 1

Режим чтения : Достоверность
Использование точного потока : Да
Отключение кэша аудио : Да
Использование указателей C2 : Нет

Коррекция смещения при чтении : 685
Способность читать области Lead-in и Lead-out : Нет
Заполнение пропущенных сэмплов тишиной : Да
Удаление блоков с тишиной в начале и конце : Нет
При вычислениях CRC использовались нулевые сэмплы : Да
Интерфейс : Установленный внешний ASPI-интерфейс

Выходной формат : Внутренние WAV-операции
Формат сэмплов : 44.100 Гц; 16 бит; стерео


TOC извлечённого CD

Трек | Старт | Длительность | Начальный сектор | Конечный сектор
––––––––––––––––––––––––––––––––––-
1 | 0:00.00 | 5:16.13 | 0 | 23712
2 | 5:16.13 | 4:57.10 | 23713 | 45997
3 | 10:13.23 | 4:26.50 | 45998 | 65997
4 | 14:39.73 | 4:36.65 | 65998 | 86762
5 | 19:16.63 | 4:18.67 | 86763 | 106179
6 | 23:35.55 | 5:01.48 | 106180 | 128802
7 | 28:37.28 | 2:31.30 | 128803 | 140157
8 | 31:08.58 | 4:53.42 | 140158 | 162174
9 | 36:02.25 | 5:05.13 | 162175 | 185062


Характеристики диапазона извлечения и сообщения об ошибках

Выбранный диапазон

Имя файла D:\My Music\ext\Архивы\Charlie Parker - Charlie Parker At Storyville.wav

Пиковый уровень 100.0 %
Качество диапазона 100.0 %
CRC копии 7E9C3A35
Копирование… OK

Ошибок не произошло


AccurateRip: сводка

Трек 1 точное извлечение (доверие 2) [E24E89CD]
Трек 2 точное извлечение (доверие 2) [14290C27]
Трек 3 точное извлечение (доверие 2) [4D7121E2]
Трек 4 точное извлечение (доверие 2) [2C82EA75]
Трек 5 точное извлечение (доверие 2) [B4892DA4]
Трек 6 точное извлечение (доверие 2) [B06F2F25]
Трек 7 точное извлечение (доверие 2) [50EA72A0]
Трек 8 точное извлечение (доверие 2) [9BC0A99D]
Трек 9 точное извлечение (доверие 2) [C2773FA8]

Все треки извлечены точно

Конец отчёта

[CUETools log; Date: 24.04.2018 19:05:58; Version: 2.1.4]
[CTDB TOCID: uGidLbjr3_2CLisYCfH2nQD00cs-] found.
Track | CTDB Status
1 | (15/75) Accurately ripped
2 | (15/75) Accurately ripped
3 | (15/75) Accurately ripped
4 | (15/75) Accurately ripped
5 | (14/75) Accurately ripped
6 | (14/75) Accurately ripped
7 | (15/75) Accurately ripped
8 | (15/75) Accurately ripped
9 | (15/75) Accurately ripped
[AccurateRip ID: 000e6ad3-00689316-7609a309] found.
Track [ CRC | V2 ] Status
01 [e24e89cd|788be59f] (07+10/77) Accurately ripped
02 [14290c27|d42223ca] (07+10/78) Accurately ripped
03 [4d7121e2|b5d448e4] (07+10/78) Accurately ripped
04 [2c82ea75|f32327cc] (07+10/79) Accurately ripped
05 [b4892da4|4a92ec5f] (07+09/78) Accurately ripped
06 [b06f2f25|2ff04041] (07+09/78) Accurately ripped
07 [50ea72a0|a5b75c46] (07+10/79) Accurately ripped
08 [9bc0a99d|5c1ea8b0] (07+10/79) Accurately ripped
09 [c2773fa8|547e8f00] (07+10/79) Accurately ripped

Track Peak [ CRC32 ] [W/O NULL] [ LOG ]
– 100,0 [7E9C3A35] [CA15FB0A] CRC32
01 83,9 [78134770] [E525B168]
02 81,0 [65B8D685] [C54C058D]
03 83,8 [3A4A5567] [C353056B]
04 100,0 [FF1370D3] [F7403EB4]
05 54,5 [8894BB46] [3E02EE34]
06 49,4 [D042FAE3] [56437ADC]
07 57,5 [D3C33BBF] [75145F50]
08 63,0 [A0A86B30] [B2F24451]
09 49,3 [C863D9D7] [AE33A6F8]

Thanks to strizh64