Subcategories
Tags
Language
Tags

Charlie Parker - The Complete Verve Master Takes [Recorded 1947-1954, 3CD Box Set] (2003)

Posted By: gribovar
Charlie Parker - The Complete Verve Master Takes [Recorded 1947-1954, 3CD Box Set] (2003)

Charlie Parker - The Complete Verve Master Takes [Recorded 1947-1954, 3CD Box Set] (2003)
EAC Rip | APE (image+.cue+log) - 856 MB | Covers (13 MB) included
Genre: Jazz, Big Band | RAR 3% Rec. | Label: Verve (0044006559728)

Not considering the 24 "with strings" performances, there are 50 other master takes here produced by Norman Granz, ranging from a 1947 Carnegie Hall date to Parker's last in 1954. Many of the cuts here come from 1950-1952. Half of the 1949 sessions are string dates; the rest come from sessions with Kenny Dorham, Tommy Turk, Al Haig, Tommy Potter, and Carlos Vidal. The most rewarding performances here are a reunion of sorts with Dizzy Gillespie and Thelonious Monk, along with Curly Russell and Buddy Rich, from April 1950. These tracks are nearly seminal versions of "Mohawk," "Leapfrog," and "Relaxin' with Lee," along with fine reads of "Bloomdido," "An Oscar for Treadwell," and "My Melancholy Baby." Four other cuts come from a brief reunion with Miles Davis and Max Roach in January of 1951 with Teddy Kotick and Walter Bishop, Jr. rounding out the band and include smokingly hot versions of "Au Privave," "She Rote," and "K.C Blues." Other musicians who appear here are Oscar Peterson, Red Rodney, Kenny Clarke, John Lewis, and Billy Bauer, among dozens of others.
CD 1 Tracklist:
01. The Bird
02. Cardboard
03. Visa
04. Segment
05. Passport
06. Passport
07. Just Frinds
08. Evrything Happens to Me
09. April in Paris
10. Summertime
11. I Didn't Know What Time It Was
12. If I Should Lose You
13. Star Eyes
14. Blues (Fast)
15. I'm In The Mood For Love
16. Bloomdido
17. An Oscar For Treadwell
18. Mohawk
19. My Melancholy Baby
20. Leap Frog
21. Relaxin' With Lee
22. Dansing In The Dark
23. Out Of Nowhere
24. Laura

Total time: 01:17:08

CD 2 Tracklist:
01. East Of The Sun (And West Of The Moon)
02. They Can't Take That Away From Me
03. Easy To Love
04. I'm In The Mood For Love
05. I'll Remember April
06. Au Privave
07. She Rote
08. K.C. Blues
09. Star Eyes
10. My Little Suede Shoes
11. Un Poquito De Tu Amor
12. Tico-Tico (aka "Tico-Tico No Fuba")
13. Fiesta
14. Why Do I Love You?
15. Blues For Alice
16. Si Si
17. Swedish Schnapps
18. Back Home Blues
19. Loverman
20. Temptation
21. Lover
22. Autumn In New York
23. Stella By Starlight
24. Mama Inez
25. La Cucuracha

Total time: 01:18:50

CD 3 Tracklist:
01. Estrellita
02. Begin The Beguine
03. La Paloma
04. Night And Day
05. Almost Like Being In Love
06. I Can't Get Started
07. What Is This Thing Called Love?
08. The Song Is You
09. Laird Baird
10. Kim
11. Cosmic Rays
12. In The Still Of The Night
13. Old Folks
14. If I Love Again
15. Chi-Chi
16. I Remember You
17. Now's The Time
18. Confirmation
19. I Get A Kick Out Of You
20. Just One Of Those Things
21. My Heart Belongs To Daddy
22. I've Got You Under My Skin
23. Love For Sale
24. I Love Paris

Total time: 01:17:42

Exact Audio Copy V0.99 prebeta 4 from 23. January 2008

Отчёт EAC об извлечении, выполненном 24. июня 2009, 12:45

Charlie Parker / The Complete Verve Master Takes CD1

Дисковод: Optiarc DVD RW AD-7170A Adapter: 0 ID: 0

Режим чтения : Достоверность
Использование точного потока : Да
Отключение кэша аудио : Да
Использование указателей C2 : Нет

Коррекция смещения при чтении : 48
Способность читать области Lead-in и Lead-out : Нет
Заполнение пропущенных сэмплов тишиной : Да
Удаление блоков с тишиной в начале и конце : Нет
При вычислениях CRC использовались нулевые сэмплы : Да
Интерфейс : Встроенный Win32-интерфейс для Win NT/2000

Выходной формат : Внутренние WAV-операции
Формат сэмплов : 44.100 Гц; 16 бит; стерео


TOC извлечённого CD

Трек | Старт | Длительность | Начальный сектор | Конечный сектор
––––––––––––––––––––––––––––––––––-
1 | 0:00.00 | 4:47.55 | 0 | 21579
2 | 4:47.55 | 3:10.28 | 21580 | 35857
3 | 7:58.08 | 3:01.02 | 35858 | 49434
4 | 10:59.10 | 3:21.53 | 49435 | 64562
5 | 14:20.63 | 2:57.57 | 64563 | 77894
6 | 17:18.45 | 3:02.55 | 77895 | 91599
7 | 20:21.25 | 3:32.10 | 91600 | 107509
8 | 23:53.35 | 3:18.28 | 107510 | 122387
9 | 27:11.63 | 3:09.00 | 122388 | 136562
10 | 30:20.63 | 2:48.67 | 136563 | 149229
11 | 33:09.55 | 3:15.40 | 149230 | 163894
12 | 36:25.20 | 2:49.03 | 163895 | 176572
13 | 39:14.23 | 3:31.05 | 176573 | 192402
14 | 42:45.28 | 2:48.20 | 192403 | 205022
15 | 45:33.48 | 2:54.17 | 205023 | 218089
16 | 48:27.65 | 3:27.60 | 218090 | 233674
17 | 51:55.50 | 3:25.55 | 233675 | 249104
18 | 55:21.30 | 3:38.03 | 249105 | 265457
19 | 58:59.33 | 3:27.00 | 265458 | 280982
20 | 62:26.33 | 2:32.10 | 280983 | 292392
21 | 64:58.43 | 2:49.34 | 292393 | 305101
22 | 67:48.02 | 3:13.69 | 305102 | 319645
23 | 71:01.71 | 3:07.73 | 319646 | 333743
24 | 74:09.69 | 2:57.68 | 333744 | 347086


Характеристики диапазона извлечения и сообщения об ошибках

Выбранный диапазон

Имя файла D:\TempTorrent\Charlie Parker - The Complete Verve Master Takes CD1.wav

Пиковый уровень 98.8 %
Качество диапазона 100.0 %
CRC теста 5FDF119D
CRC копии 5FDF119D
Копирование… OK

Ошибок не произошло

Конец отчёта

[CUETools log; Date: 25.05.2019 23:30:50; Version: 2.1.4]
[CTDB TOCID: VRiT7HrpRibjVysjqRElpnn0aaM-] found.
Track | CTDB Status
1 | (33/33) Accurately ripped
2 | (33/33) Accurately ripped
3 | (33/33) Accurately ripped
4 | (33/33) Accurately ripped
5 | (33/33) Accurately ripped
6 | (33/33) Accurately ripped
7 | (33/33) Accurately ripped
8 | (33/33) Accurately ripped
9 | (33/33) Accurately ripped
10 | (33/33) Accurately ripped
11 | (33/33) Accurately ripped
12 | (33/33) Accurately ripped
13 | (33/33) Accurately ripped
14 | (33/33) Accurately ripped
15 | (33/33) Accurately ripped
16 | (33/33) Accurately ripped
17 | (33/33) Accurately ripped
18 | (33/33) Accurately ripped
19 | (33/33) Accurately ripped
20 | (33/33) Accurately ripped
21 | (33/33) Accurately ripped
22 | (33/33) Accurately ripped
23 | (33/33) Accurately ripped
24 | (33/33) Accurately ripped
[AccurateRip ID: 0043bef7-048bf201-50121318] found.
Track [ CRC | V2 ] Status
01 [c868cbe4|52360a26] (23+37/60) Accurately ripped
02 [de5e2c1a|f99db93b] (23+36/59) Accurately ripped
03 [cc27d9cf|18c27b01] (23+36/59) Accurately ripped
04 [e9c7c9ca|afeaa93d] (23+36/59) Accurately ripped
05 [c2d47b52|3c9a7e93] (23+36/59) Accurately ripped
06 [34a84b92|893285ae] (23+36/59) Accurately ripped
07 [4568b637|cfee8a2b] (23+36/59) Accurately ripped
08 [43261917|e8ee479c] (23+36/59) Accurately ripped
09 [5f7d80b3|290efc4b] (23+36/59) Accurately ripped
10 [75fd9530|3766f410] (23+36/59) Accurately ripped
11 [3ef896f4|59f1f058] (23+36/59) Accurately ripped
12 [12a62161|ed873756] (23+36/59) Accurately ripped
13 [0518d2b8|fe6037b6] (24+36/60) Accurately ripped
14 [bbf681b1|1e7d41f9] (23+36/59) Accurately ripped
15 [a55cb059|5ada1f14] (24+36/60) Accurately ripped
16 [e8da46ff|7ac310ad] (23+36/59) Accurately ripped
17 [d967443e|cec94be3] (23+36/59) Accurately ripped
18 [e712c692|b022f358] (23+36/59) Accurately ripped
19 [291c5132|292dcd5e] (24+36/60) Accurately ripped
20 [683f62ef|66149207] (23+36/59) Accurately ripped
21 [11708bc7|b5e97f64] (24+36/60) Accurately ripped
22 [c491d534|c2e89b2b] (23+36/59) Accurately ripped
23 [6957eeee|9c3fa290] (23+36/59) Accurately ripped
24 [979cd7a1|a1f6f186] (22+37/59) Accurately ripped

Track Peak [ CRC32 ] [W/O NULL] [ LOG ]
– 98,8 [5FDF119D] [38B9083B] CRC32
01 98,8 [15709D5D] [B4507E63]
02 94,3 [DA9F27C2] [E2BF5EBF]
03 98,8 [F7DD056F] [A0D90C64]
04 98,8 [C3735F82] [E4178213]
05 98,8 [C5756656] [1BD7A605]
06 98,8 [73CFEAC9] [8C8D8C2B]
07 93,5 [ED9A9DFB] [CE5CA869]
08 94,3 [5D748487] [15576C47]
09 78,6 [CD13D4B6] [AAA58FC4]
10 79,3 [500C7D6A] [3428A583]
11 83,7 [4C6C86FF] [C81E7918]
12 79,8 [F7A872E4] [4DCCDB5E]
13 98,8 [5BC6F147] [BFC70093]
14 98,8 [1AF6642A] [D4430AB5]
15 77,8 [D525B7D1] [B24F231F]
16 89,2 [2B5C2E03] [8223BAC6]
17 94,7 [AD8106D7] [F1840C41]
18 93,6 [DAD63344] [8C560DFE]
19 98,8 [DCA5C1EB] [CFA9D988]
20 86,0 [FEBEC848] [D781669B]
21 84,4 [CBD8CAAF] [A781AEDA]
22 94,5 [D8CA7729] [89889685]
23 98,8 [49117FFC] [41C13776]
24 98,8 [D4BF93D6] [B4138C49]

Exact Audio Copy V0.99 prebeta 4 from 23. January 2008

Отчёт EAC об извлечении, выполненном 24. июня 2009, 14:13

Charlie Parker / The Complete Verve Master Takes CD2

Дисковод: Optiarc DVD RW AD-7170A Adapter: 0 ID: 0

Режим чтения : Достоверность
Использование точного потока : Да
Отключение кэша аудио : Да
Использование указателей C2 : Нет

Коррекция смещения при чтении : 48
Способность читать области Lead-in и Lead-out : Нет
Заполнение пропущенных сэмплов тишиной : Да
Удаление блоков с тишиной в начале и конце : Нет
При вычислениях CRC использовались нулевые сэмплы : Да
Интерфейс : Встроенный Win32-интерфейс для Win NT/2000

Выходной формат : Внутренние WAV-операции
Формат сэмплов : 44.100 Гц; 16 бит; стерео


TOC извлечённого CD

Трек | Старт | Длительность | Начальный сектор | Конечный сектор
––––––––––––––––––––––––––––––––––-
1 | 0:00.00 | 3:41.42 | 0 | 16616
2 | 3:41.42 | 3:22.15 | 16617 | 31781
3 | 7:03.57 | 3:32.25 | 31782 | 47706
4 | 10:36.07 | 3:36.15 | 47707 | 63921
5 | 14:12.22 | 3:07.05 | 63922 | 77951
6 | 17:19.27 | 2:46.15 | 77952 | 90416
7 | 20:05.42 | 3:08.62 | 90417 | 104578
8 | 23:14.29 | 3:27.55 | 104579 | 120158
9 | 26:42.09 | 3:37.20 | 120159 | 136453
10 | 30:19.29 | 3:06.18 | 136454 | 150421
11 | 33:25.47 | 2:44.25 | 150422 | 162746
12 | 36:09.72 | 2:47.40 | 162747 | 175311
13 | 38:57.37 | 2:53.07 | 175312 | 188293
14 | 41:50.44 | 3:09.03 | 188294 | 202471
15 | 44:59.47 | 2:48.57 | 202472 | 215128
16 | 47:48.29 | 2:41.13 | 215129 | 227216
17 | 50:29.42 | 3:13.25 | 227217 | 241716
18 | 53:42.67 | 2:49.50 | 241717 | 254441
19 | 56:32.42 | 3:26.00 | 254442 | 269891
20 | 59:58.42 | 3:33.65 | 269892 | 285931
21 | 63:32.32 | 3:09.35 | 285932 | 300141
22 | 66:41.67 | 3:31.45 | 300142 | 316011
23 | 70:13.37 | 2:59.15 | 316012 | 329451
24 | 73:12.52 | 2:55.20 | 329452 | 342596
25 | 76:07.72 | 2:41.63 | 342597 | 354734


Характеристики диапазона извлечения и сообщения об ошибках

Выбранный диапазон

Имя файла D:\TempTorrent\Charlie Parker - The Complete Verve Master Takes CD2.wav

Пиковый уровень 98.8 %
Качество диапазона 99.9 %
CRC теста 488DAE02
CRC копии 488DAE02
Копирование… OK

Ошибок не произошло

Конец отчёта

[CUETools log; Date: 25.05.2019 23:32:02; Version: 2.1.4]
[CTDB TOCID: oenjGBNgKkBhhoFXpzSYHprH9i4-] found.
Track | CTDB Status
1 | (31/31) Accurately ripped
2 | (31/31) Accurately ripped
3 | (31/31) Accurately ripped
4 | (31/31) Accurately ripped
5 | (31/31) Accurately ripped
6 | (31/31) Accurately ripped
7 | (31/31) Accurately ripped
8 | (31/31) Accurately ripped
9 | (31/31) Accurately ripped
10 | (31/31) Accurately ripped
11 | (31/31) Accurately ripped
12 | (31/31) Accurately ripped
13 | (31/31) Accurately ripped
14 | (31/31) Accurately ripped
15 | (31/31) Accurately ripped
16 | (31/31) Accurately ripped
17 | (31/31) Accurately ripped
18 | (31/31) Accurately ripped
19 | (31/31) Accurately ripped
20 | (31/31) Accurately ripped
21 | (31/31) Accurately ripped
22 | (31/31) Accurately ripped
23 | (31/31) Accurately ripped
24 | (31/31) Accurately ripped
25 | (31/31) Accurately ripped
[AccurateRip ID: 0047cf37-05025c9f-38127919] found.
Track [ CRC | V2 ] Status
01 [0ccb8bda|00d215c8] (21+35/58) Accurately ripped
02 [df16c2ba|4c732eac] (21+36/59) Accurately ripped
03 [34af9d20|61ccffc0] (21+36/59) Accurately ripped
04 [5cd6bb2f|a50b50dd] (21+35/58) Accurately ripped
05 [94bc3994|6c2ef04e] (21+35/58) Accurately ripped
06 [7ddf7e3b|d4630b4c] (21+35/58) Accurately ripped
07 [f374d08e|40f061fa] (21+35/58) Accurately ripped
08 [2d2c18bc|7f9112ea] (21+35/58) Accurately ripped
09 [c60bfde4|e3ff753a] (22+35/59) Accurately ripped
10 [d58b0266|189650cb] (22+35/59) Accurately ripped
11 [bdf1f99d|beb69dcb] (21+35/58) Accurately ripped
12 [cb92418a|f2ec0954] (21+35/58) Accurately ripped
13 [e68bf795|7fa79ba1] (21+35/58) Accurately ripped
14 [60e79b62|e8e2c12d] (21+35/58) Accurately ripped
15 [589059a0|23fb101b] (22+35/59) Accurately ripped
16 [eb2909ac|599f0637] (22+35/59) Accurately ripped
17 [e043c3b9|c2bcc9b7] (21+35/58) Accurately ripped
18 [fd98e30f|7bb31a26] (21+35/58) Accurately ripped
19 [838eba8a|e3f7908e] (22+35/59) Accurately ripped
20 [06f76d22|37f9a2d7] (21+35/58) Accurately ripped
21 [766bf047|baa5fd3e] (21+35/58) Accurately ripped
22 [82cc1cda|b83046be] (21+35/58) Accurately ripped
23 [e2355f01|2b44a430] (21+35/58) Accurately ripped
24 [4a2c2a3c|3f3994e8] (21+35/58) Accurately ripped
25 [c2936371|118a1543] (21+35/58) Accurately ripped
Offsetted by -664:
01 [56ae2090] (00/58) No match (V2 was not tested)
02 [3aae3822] (00/59) No match (V2 was not tested)
03 [dda4b682] (00/59) No match (V2 was not tested)
04 [76b2cf57] (00/58) No match (V2 was not tested)
05 [c90ff564] (00/58) No match (V2 was not tested)
06 [00bfc0f3] (00/58) No match (V2 was not tested)
07 [d26b954e] (00/58) No match (V2 was not tested)
08 [dc17d8b4] (00/58) No match (V2 was not tested)
09 [632fa7c4] (00/59) No match (V2 was not tested)
10 [8644bb2e] (00/59) No match (V2 was not tested)
11 [2c43585d] (00/58) No match (V2 was not tested)
12 [57c3be72] (00/58) No match (V2 was not tested)
13 [c3f3ced5] (00/58) No match (V2 was not tested)
14 [da2222fa] (00/58) No match (V2 was not tested)
15 [de2fc188] (00/59) No match (V2 was not tested)
16 [cfca6254] (00/59) No match (V2 was not tested)
17 [c678c8f1] (00/58) No match (V2 was not tested)
18 [b5108517] (00/58) No match (V2 was not tested)
19 [2143375a] (00/59) No match (V2 was not tested)
20 [447f367a] (00/58) No match (V2 was not tested)
21 [98425d1f] (00/58) No match (V2 was not tested)
22 [ea964dda] (00/58) No match (V2 was not tested)
23 [c7d1ad39] (00/58) No match (V2 was not tested)
24 [652d0054] (00/58) No match (V2 was not tested)
25 [f236af52] (00/58) No match (V2 was not tested)

Track Peak [ CRC32 ] [W/O NULL] [ LOG ]
– 98,8 [488DAE02] [543AD971] CRC32
01 98,8 [2E0FA110] [33910444]
02 98,8 [EE5E0A0E] [9E43E34D]
03 96,0 [C5EECC41] [5D83682C]
04 78,9 [1CA82B47] [02296EBF]
05 94,0 [3625491F] [359381E3]
06 98,8 [CA6012EF] [36A7A129]
07 87,1 [4EB3CA1F] [22ED8C4C]
08 98,6 [D0F01E27] [ABC5667A]
09 95,7 [B1B412B0] [E0C82055]
10 90,1 [8E5471B4] [1C7037A2]
11 87,8 [D3A23C7F] [463D7DA5]
12 97,9 [52C268E4] [F2397846]
13 98,8 [73798CB9] [E8703F7E]
14 98,8 [241CA8D3] [CFF12AD1]
15 88,5 [0018E527] [C9AFDE09]
16 90,0 [A08845B6] [993CAF6D]
17 96,0 [E5CB5D8D] [C9268A5C]
18 98,8 [700B8456] [2339FF87]
19 97,2 [E3945A93] [9B9C2567]
20 83,9 [66FDAF5C] [0C2AE86A]
21 94,1 [F9D39CDA] [37E59FB1]
22 98,8 [1B54C91F] [BC835C51]
23 74,1 [D121F21B] [548C3E8B]
24 98,8 [1F6ACEBE] [19DDBD70]
25 98,8 [ED9F7162] [1E523774]

Exact Audio Copy V0.99 prebeta 4 from 23. January 2008

Отчёт EAC об извлечении, выполненном 24. июня 2009, 16:37

Charlie Parker / The Complete Verve Master Takes CD3

Дисковод: Optiarc DVD RW AD-7170A Adapter: 0 ID: 0

Режим чтения : Достоверность
Использование точного потока : Да
Отключение кэша аудио : Да
Использование указателей C2 : Нет

Коррекция смещения при чтении : 48
Способность читать области Lead-in и Lead-out : Нет
Заполнение пропущенных сэмплов тишиной : Да
Удаление блоков с тишиной в начале и конце : Нет
При вычислениях CRC использовались нулевые сэмплы : Да
Интерфейс : Встроенный Win32-интерфейс для Win NT/2000

Выходной формат : Внутренние WAV-операции
Формат сэмплов : 44.100 Гц; 16 бит; стерео


TOC извлечённого CD

Трек | Старт | Длительность | Начальный сектор | Конечный сектор
––––––––––––––––––––––––––––––––––-
1 | 0:00.00 | 2:46.00 | 0 | 12449
2 | 2:46.00 | 3:16.35 | 12450 | 27184
3 | 6:02.35 | 2:42.03 | 27185 | 39337
4 | 8:44.38 | 2:52.67 | 39338 | 52304
5 | 11:37.30 | 2:36.35 | 52305 | 64039
6 | 14:13.65 | 3:10.48 | 64040 | 78337
7 | 17:24.38 | 2:37.65 | 78338 | 90177
8 | 20:02.28 | 2:58.67 | 90178 | 103594
9 | 23:01.20 | 2:46.73 | 103595 | 116117
10 | 25:48.18 | 2:59.65 | 116118 | 129607
11 | 28:48.08 | 3:07.60 | 129608 | 143692
12 | 31:55.68 | 3:26.62 | 143693 | 159204
13 | 35:22.55 | 3:38.03 | 159205 | 175557
14 | 39:00.58 | 2:28.07 | 175558 | 186664
15 | 41:28.65 | 3:05.45 | 186665 | 200584
16 | 44:34.35 | 3:05.10 | 200585 | 214469
17 | 47:39.45 | 3:03.15 | 214470 | 228209
18 | 50:42.60 | 2:59.63 | 228210 | 241697
19 | 53:42.48 | 3:36.27 | 241698 | 257924
20 | 57:19.00 | 2:42.40 | 257925 | 270114
21 | 60:01.40 | 3:20.70 | 270115 | 285184
22 | 63:22.35 | 3:35.35 | 285185 | 301344
23 | 66:57.70 | 5:36.65 | 301345 | 326609
24 | 72:34.60 | 5:07.40 | 326610 | 349674


Характеристики диапазона извлечения и сообщения об ошибках

Выбранный диапазон

Имя файла D:\TempTorrent\Charlie Parker - The Complete Verve Master Takes CD3.wav

Пиковый уровень 97.7 %
Качество диапазона 100.0 %
CRC теста 43DBD3C0
CRC копии 43DBD3C0
Копирование… OK

Ошибок не произошло

Конец отчёта

[CUETools log; Date: 25.05.2019 23:33:00; Version: 2.1.4]
[CTDB TOCID: Gvx2pHhx9TVcytjihnA.iOOR0zM-] found.
Track | CTDB Status
1 | (33/33) Accurately ripped
2 | (33/33) Accurately ripped
3 | (33/33) Accurately ripped
4 | (33/33) Accurately ripped
5 | (33/33) Accurately ripped
6 | (33/33) Accurately ripped
7 | (33/33) Accurately ripped
8 | (33/33) Accurately ripped
9 | (33/33) Accurately ripped
10 | (33/33) Accurately ripped
11 | (33/33) Accurately ripped
12 | (33/33) Accurately ripped
13 | (33/33) Accurately ripped
14 | (33/33) Accurately ripped
15 | (33/33) Accurately ripped
16 | (33/33) Accurately ripped
17 | (33/33) Accurately ripped
18 | (33/33) Accurately ripped
19 | (33/33) Accurately ripped
20 | (33/33) Accurately ripped
21 | (33/33) Accurately ripped
22 | (33/33) Accurately ripped
23 | (32/33) Accurately ripped
24 | (32/33) Accurately ripped
[AccurateRip ID: 003ddc4e-043a2fc5-45123618] found.
Track [ CRC | V2 ] Status
01 [a1512658|e6ed09c9] (21+37/58) Accurately ripped
02 [fd2de1e3|e12e55f2] (21+37/58) Accurately ripped
03 [4cc206c9|7a8dda2e] (21+37/58) Accurately ripped
04 [13b6bfca|866d47aa] (21+37/58) Accurately ripped
05 [7f58c024|d242f9db] (22+37/59) Accurately ripped
06 [04bc6dbf|4decd2fd] (22+37/59) Accurately ripped
07 [499988d8|5a67357e] (21+37/58) Accurately ripped
08 [70175010|62da1026] (21+37/58) Accurately ripped
09 [7b8e74ab|8693dacc] (22+37/59) Accurately ripped
10 [11516ef6|6599e98f] (21+37/58) Accurately ripped
11 [85bc1aa0|c5323532] (21+37/58) Accurately ripped
12 [c98f6edf|1757d1c9] (21+37/58) Accurately ripped
13 [1214fabf|663e0510] (21+37/58) Accurately ripped
14 [178f6a54|3203bf5d] (21+37/58) Accurately ripped
15 [b1a65766|f7f436e6] (22+37/59) Accurately ripped
16 [aa256308|bf2f5f5d] (22+37/59) Accurately ripped
17 [7f6c8a34|91869b7b] (22+37/59) Accurately ripped
18 [310d243b|f6e23107] (23+37/60) Accurately ripped
19 [28ac8623|0f8da169] (22+37/59) Accurately ripped
20 [74ff62ba|50e82be8] (22+37/59) Accurately ripped
21 [3cac9107|1d249f77] (22+37/59) Accurately ripped
22 [16fc569f|69066b57] (22+37/59) Accurately ripped
23 [e3da8dc4|8456da13] (22+37/59) Accurately ripped
24 [ea36e669|3180203b] (22+37/59) Accurately ripped

Track Peak [ CRC32 ] [W/O NULL] [ LOG ]
– 97,7 [43DBD3C0] [0A35328A] CRC32
01 97,7 [847A3BB3] [7EFB1439]
02 79,7 [D58C6FEA] [00D42F5A]
03 83,1 [255E900A] [4DAFB382]
04 92,8 [0E9DE134] [C0B45A56]
05 79,6 [82F2E8A0] [582B6E6B]
06 76,4 [D3180CB4] [46329DC5]
07 88,9 [2D927C2C] [277DBE0D]
08 89,2 [49F77859] [557EF7F4]
09 97,7 [86429AC3] [ACC15D20]
10 97,7 [AF2162B1] [4A60D44D]
11 97,7 [56F9F2A6] [2317A03D]
12 78,1 [5BBA5328] [E5C0A22B]
13 73,4 [991752E2] [439B5AC9]
14 76,8 [79DB7006] [3D800C2A]
15 74,3 [E84A44FB] [CB233F60]
16 83,8 [39CA0429] [A40C2D0D]
17 71,8 [85FB136F] [5166551C]
18 80,5 [A2598B40] [3FDC17DD]
19 77,0 [22953AB8] [B7379A66]
20 86,7 [3BC49829] [9CBF6520]
21 75,8 [0CE860D6] [E2F12710]
22 76,3 [AAB28804] [97D2A064]
23 81,6 [D3CC5564] [E9E66067]
24 74,0 [3AC83E43] [F43BD442]

Thanks to Serdgoz

See also:
Charlie Parker - Bird at St. Nick's (1950) [Reissue 1992]
Charlie Parker - Charlie Parker At Storyville [Recorded 1953] (1985)
Dizzy Gillespie & Charlie ...ork City, June 22, 1945 (2005)