Subcategories

Cheap Trick - Silver (2001) {2004, CD + DVD} Re-Up

Posted By: popsakov
Cheap Trick - Silver (2001) {2004, CD + DVD} Re-Up

Cheap Trick - Silver (2001)
2CD | EAC Rip | FLAC (Img) + Cue + Log ~ 921 Mb | MP3 CBR320 ~ 338 Mb | Scans ~ 147 Mb
DVD-9 | MPEG-2, PAL 4:3 (720x576), 25.00 fps, VBR ~ 6649 kbps | Audio #1: LPCM 2.0, 1536 Kbps
Audio #2: DD 5.1, 448 kbps | 02:14:24 | ~ 7,68 Gb | RAR 5% Recovery
Rock | SPV GmbH #SPV 97632 DCD / Cheap Trick Unlimited

Silver is the third live album released by Cheap Trick. It was performed at Davis Park in the band's hometown of Rockford, Illinois in 1999, to celebrate the band's 25th anniversary since their formation. The album was recorded and released as a two-disc set in 2001, and re-released in 2004 with two additional tracks ("Daddy Should Have Stayed in High School" and "On Top of the World").

On August 28, 1999, power pop masters Cheap Trick played a special show for fans at Davis Park in their hometown of Rockford, IL, to salute their 25th anniversary as a band together. The show included several musical celebrities making cameo appearances (as well as relatives of Cheap Trick bandmembers) and the inclusion of the Rockford Symphony Orchestra String Quartet on several tracks, while the 29-song set list dipped deep into the band's catalog – including at least one song from every album of their career thus far. The evening's proceedings have been captured on the 2001 double-disc Silver, the band's second live release in two years. All of the expected fan faves are included – "Ain't That a Shame," "I Want You to Want Me," "Surrender," "Dream Police" – but longtime fans will go straight to the set's abundance of more uncommon material. Standouts include two standards of early MTV ("If You Want My Love" and "She's Tight"), the Big Star tribute "That 70s Song," the forgotten 1979 Beatlesque power ballad "Voices," a song that two members of CT cut with John Lennon back in 1980 ("I'm Losin' You"), the jamfest "Gonna Raise Hell," plus tracks sung by other members – "World's Greatest Lover" (Rick Nielsen) and "I Know What I Want" (Tom Petersson). Also featured are guest appearances by big-name fans Billy Corgan ("Just Got Back"), Slash ("You're All Talk"), and Art Alexakis ("Day Tripper"). Although it lacks the punch of their 1979 classic At Budokan (widely regarded as one of the greatest live rock albums of all time), Silver shows that the band is still having fun on stage 25 years later. The 2004 edition of the album adds two songs: "Daddy Should Have Stayed in High School" and "On Top of the World."
~ Greg Prato, All Music Guide

***************

Cheap Trick - Silver (2001) {2004, CD + DVD} Re-Up

Track List CD1:

01. Ain't That A Shame [05:10]
02. I Want You To Want Me [03:38]
03. Oh, Candy [02:59]
04. That 70's Song [03:01]
05. Voices [05:05]
06. If You Want My Love [03:30]
07. She's Tight [03:57]
08. Can't Stop Fallin' Into Love [04:04]
09. Gonna Raise Hell [08:57]
10. I Can't Take It [03:44]
11. Take Me To The Top [04:22]
12. It All Comes Back To You [03:37]
13. Tonight It's You [05:27]
14. Time Will Let You Know [06:19]
15. World's Greatest Lover [05:01]

Exact Audio Copy V1.0 beta 3 from 29. August 2011

EAC extraction logfile from 4. September 2012, 23:09

Cheap Trick / Silver

Used drive : Optiarc DVD-ROM DDU1675S Adapter: 3 ID: 0

Read mode : Secure
Utilize accurate stream : Yes
Defeat audio cache : Yes
Make use of C2 pointers : No

Read offset correction : 6
Overread into Lead-In and Lead-Out : No
Fill up missing offset samples with silence : Yes
Delete leading and trailing silent blocks : No
Null samples used in CRC calculations : Yes
Used interface : Native Win32 interface for Win NT & 2000

Used output format : User Defined Encoder
Selected bitrate : 1024 kBit/s
Quality : High
Add ID3 tag : No
Command line compressor : C:\Program Files (x86)\Exact Audio Copy\Flac\flac.exe
Additional command line options : -V -8 -T "Date=%year%" -T "Genre=%genre%" %source%


TOC of the extracted CD

Track | Start | Length | Start sector | End sector
––––––––––––––––––––––––––––-
1 | 0:00.00 | 5:09.32 | 0 | 23206
2 | 5:09.32 | 3:37.73 | 23207 | 39554
3 | 8:47.30 | 2:58.60 | 39555 | 52964
4 | 11:46.15 | 3:00.72 | 52965 | 66536
5 | 14:47.12 | 5:04.23 | 66537 | 89359
6 | 19:51.35 | 3:29.62 | 89360 | 105096
7 | 23:21.22 | 3:56.18 | 105097 | 122814
8 | 27:17.40 | 4:03.15 | 122815 | 141054
9 | 31:20.55 | 8:56.62 | 141055 | 181316
10 | 40:17.42 | 3:43.35 | 181317 | 198076
11 | 44:01.02 | 4:22.00 | 198077 | 217726
12 | 48:23.02 | 3:36.05 | 217727 | 233931
13 | 51:59.07 | 5:26.35 | 233932 | 258416
14 | 57:25.42 | 6:18.18 | 258417 | 286784
15 | 63:43.60 | 5:00.70 | 286785 | 309354


Range status and errors

Selected range

Filename F:\Torrent\# MY\Cheap Trick - Discography (1977-2009)\2001 - Silver ('2004 Re-issue) (SPV 97632 DCD, Germany)\CD-1\Cheap Trick - Silver (CD-1).wav

Peak level 97.0 %
Extraction speed 9.2 X
Range quality 99.9 %
Test CRC 3BD8341C
Copy CRC 3BD8341C
Copy OK

No errors occurred


AccurateRip summary

Track 1 cannot be verified as accurate (confidence 5) [1D1E04FA], AccurateRip returned [7E038A2B] (AR v2)
Track 2 cannot be verified as accurate (confidence 5) [124399CB], AccurateRip returned [9EAFB11B] (AR v2)
Track 3 cannot be verified as accurate (confidence 5) [7F1F6000], AccurateRip returned [A4643ACA] (AR v2)
Track 4 cannot be verified as accurate (confidence 5) [F48FD093], AccurateRip returned [586B0A2D] (AR v2)
Track 5 cannot be verified as accurate (confidence 5) [7EF00C7D], AccurateRip returned [F4EB63B6] (AR v2)
Track 6 cannot be verified as accurate (confidence 5) [88CF9B74], AccurateRip returned [A9FFD45A] (AR v2)
Track 7 cannot be verified as accurate (confidence 5) [8F69EC9E], AccurateRip returned [F9D6F118] (AR v2)
Track 8 cannot be verified as accurate (confidence 5) [06A287F9], AccurateRip returned [14D475A4] (AR v2)
Track 9 cannot be verified as accurate (confidence 5) [2FBF3B6F], AccurateRip returned [BEC08DA4] (AR v2)
Track 10 cannot be verified as accurate (confidence 5) [36BBB624], AccurateRip returned [6DAF9E16] (AR v2)
Track 11 cannot be verified as accurate (confidence 5) [DD680F79], AccurateRip returned [F12EA646] (AR v2)
Track 12 cannot be verified as accurate (confidence 5) [C9D4A1D8], AccurateRip returned [80D7D801] (AR v2)
Track 13 cannot be verified as accurate (confidence 5) [63A7F58E], AccurateRip returned [F7CFB481] (AR v2)
Track 14 cannot be verified as accurate (confidence 5) [DD10751E], AccurateRip returned [A9A8A124] (AR v2)
Track 15 cannot be verified as accurate (confidence 5) [321B67CA], AccurateRip returned [4A052FC9] (AR v2)

No tracks could be verified as accurate
You may have a different pressing from the one(s) in the database

End of status report

==== Log checksum FBBB60507BE33EEA681A8A16B7F85BE5344B2DC765A194D0BA368243BC9D81D6 ====

foobar2000 1.2.6 / Dynamic Range Meter 1.1.1
log date: 2015-07-24 01:36:15

––––––––––––––––––––––––––––––––––––––––
Analyzed: Cheap Trick / Silver
––––––––––––––––––––––––––––––––––––––––

DR Peak RMS Duration Track
––––––––––––––––––––––––––––––––––––––––
DR12 -0.63 dB -13.51 dB 5:09 01-Ain't That A Shame
DR9 -2.77 dB -13.50 dB 3:38 02-I Want You To Want Me
DR12 -0.88 dB -13.99 dB 2:59 03-Oh, Candy
DR12 -0.89 dB -14.29 dB 3:01 04-That 70's Song
DR11 -0.82 dB -12.93 dB 5:04 05-Voices
DR12 -0.85 dB -13.56 dB 3:30 06-If You Want My Love
DR12 -0.85 dB -13.87 dB 3:56 07-She's Tight
DR12 -0.83 dB -13.67 dB 4:03 08-Can't Stop Fallin' Into Love
DR12 -0.66 dB -13.39 dB 8:57 09-Gonna Raise Hell
DR11 -1.07 dB -15.30 dB 3:43 10-I Can't Take It
DR12 -0.82 dB -14.78 dB 4:22 11-Take Me To The Top
DR13 -0.62 dB -14.86 dB 3:36 12-It All Comes Back To You
DR12 -0.64 dB -15.54 dB 5:26 13-Tonight It's You
DR12 -0.26 dB -15.10 dB 6:18 14-Time Will Let You Know
DR11 -0.65 dB -13.41 dB 5:01 15-World's Greatest Lover
––––––––––––––––––––––––––––––––––––––––

Number of tracks: 15
Official DR value: DR12

Samplerate: 44100 Hz
Channels: 2
Bits per sample: 16
Bitrate: 886 kbps
Codec: FLAC
================================================================================

[CUETools log; Date: 24.07.2015 1:36:19; Version: 2.1.5]
[CTDB TOCID: r6ZkyxRN_Y6QJa8VW.rnMEgqvnE-] found.
Track | CTDB Status
1 | (6/6) Accurately ripped
2 | (2/6) Accurately ripped
3 | (2/6) Accurately ripped
4 | (2/6) Accurately ripped
5 | (2/6) Accurately ripped
6 | (2/6) Accurately ripped
7 | (2/6) Accurately ripped
8 | (2/6) Accurately ripped
9 | (2/6) Accurately ripped
10 | (2/6) Accurately ripped
11 | (2/6) Accurately ripped
12 | (2/6) Accurately ripped
13 | (2/6) Accurately ripped
14 | (2/6) Accurately ripped
15 | (2/6) Accurately ripped
[AccurateRip ID: 00237eb9-019826d5-d5101c0f] found.
Track [ CRC | V2 ] Status
01 [6080afe9|1d1e04fa] (00+00/15) No match
02 [bcfa847b|124399cb] (00+00/14) No match
03 [62ac1637|7f1f6000] (00+00/15) No match
04 [4d6f87c2|f48fd093] (00+00/14) No match
05 [d0211c9b|7ef00c7d] (00+00/14) No match
06 [5922a579|88cf9b74] (00+00/15) No match
07 [bc3cf0f0|8f69ec9e] (00+00/15) No match
08 [ad9a8362|06a287f9] (00+00/15) No match
09 [8ca650fb|2fbf3b6f] (00+00/15) No match
10 [d67941b4|36bbb624] (00+00/15) No match
11 [f14145c7|dd680f79] (00+00/15) No match
12 [01c9691b|c9d4a1d8] (00+00/15) No match
13 [eb5fb2d5|63a7f58e] (00+00/15) No match
14 [4620fb38|dd10751e] (00+00/15) No match
15 [4c50f6e0|321b67ca] (00+00/15) No match
Offsetted by 144:
01 [06332095] (02/15) Accurately ripped
02 [b95c07ae] (00/14) No match (V2 was not tested)
03 [0a4704be] (00/15) No match (V2 was not tested)
04 [df72b144] (00/14) No match (V2 was not tested)
05 [7989e4a9] (00/14) No match (V2 was not tested)
06 [6641b140] (00/15) No match (V2 was not tested)
07 [a37357db] (00/15) No match (V2 was not tested)
08 [25ecaac7] (00/15) No match (V2 was not tested)
09 [c79c1fb1] (00/15) No match (V2 was not tested)
10 [0aecee88] (00/15) No match (V2 was not tested)
11 [80096af4] (00/15) No match (V2 was not tested)
12 [12217aa7] (00/15) No match (V2 was not tested)
13 [cb48821a] (00/15) No match (V2 was not tested)
14 [ebd16696] (00/15) No match (V2 was not tested)
15 [b8f29e0b] (00/15) No match (V2 was not tested)

Track Peak [ CRC32 ] [W/O NULL] [ LOG ]
– 97,0 [3BD8341C] [BA309BD7] CRC32
01 93,0 [D0F919FE] [5FB136E9]
02 72,6 [18CF3EA2] [F69387E5]
03 90,3 [4063AC7A] [AD357A68]
04 90,2 [F786E70A] [280E214E]
05 90,9 [E0DFB2D0] [AD6FF6EB]
06 90,6 [23C1FDBC] [80842D40]
07 90,7 [06B14E75] [564DA7AE]
08 90,9 [5B42F062] [7EDC9214]
09 92,6 [498A0489] [4C3C94B8]
10 88,3 [BDB77AE3] [BF91504C]
11 90,9 [A093A587] [9D545C6E]
12 93,1 [CA60BD6A] [39E620A5]
13 92,8 [238DCB3C] [73976B09]
14 97,0 [5CF61DBC] [24097A48]
15 92,8 [5B9D2D0D] [E3A56A67]

Cheap Trick - Silver (2001) {2004, CD + DVD} Re-Up

Track List CD2:

01. The Flame [06:32]
02. Stop This Game [04:48]
03. Dream Police [04:44]
04. I Know What I Want [04:20]
05. Woke Up With A Monster [04:55]
06. Never Had A Lot To Lose [03:51]
07. You're All Talk [05:23]
08. I'm Losin' You [05:14]
09. Hard To Tell [03:41]
10. Oh, Claire [01:07]
11. Surrender [05:08]
12. Just Got Back [03:41]
13. Day Tripper [04:30]
14. Who D' King [03:12]
15. Daddy Should Have Stayed In High School [05:02]
16. On Top Of The World [05:19]

Exact Audio Copy V1.0 beta 3 from 29. August 2011

EAC extraction logfile from 4. September 2012, 23:50

Cheap Trick / Silver

Used drive : Optiarc DVD-ROM DDU1675S Adapter: 3 ID: 0

Read mode : Secure
Utilize accurate stream : Yes
Defeat audio cache : Yes
Make use of C2 pointers : No

Read offset correction : 6
Overread into Lead-In and Lead-Out : No
Fill up missing offset samples with silence : Yes
Delete leading and trailing silent blocks : No
Null samples used in CRC calculations : Yes
Used interface : Native Win32 interface for Win NT & 2000

Used output format : User Defined Encoder
Selected bitrate : 1024 kBit/s
Quality : High
Add ID3 tag : No
Command line compressor : C:\Program Files (x86)\Exact Audio Copy\Flac\flac.exe
Additional command line options : -V -8 -T "Date=%year%" -T "Genre=%genre%" %source%


TOC of the extracted CD

Track | Start | Length | Start sector | End sector
––––––––––––––––––––––––––––-
1 | 0:00.00 | 6:31.45 | 0 | 29369
2 | 6:31.45 | 4:47.48 | 29370 | 50942
3 | 11:19.18 | 4:43.63 | 50943 | 72230
4 | 16:03.06 | 4:19.74 | 72231 | 91729
5 | 20:23.05 | 4:54.63 | 91730 | 113842
6 | 25:17.68 | 3:50.07 | 113843 | 131099
7 | 29:08.00 | 5:22.10 | 131100 | 155259
8 | 34:30.10 | 5:13.19 | 155260 | 178753
9 | 39:43.29 | 3:40.32 | 178754 | 195285
10 | 43:23.61 | 1:06.22 | 195286 | 200257
11 | 44:30.08 | 5:07.43 | 200258 | 223325
12 | 49:37.51 | 3:40.22 | 223326 | 239847
13 | 53:17.73 | 4:29.06 | 239848 | 260028
14 | 57:47.04 | 3:11.31 | 260029 | 274384
15 | 60:58.35 | 5:01.73 | 274385 | 297032
16 | 66:00.33 | 5:18.34 | 297033 | 320916


Range status and errors

Selected range

Filename F:\Torrent\# MY\Cheap Trick - Discography (1977-2009)\2001 - Silver ('2004 Re-issue) (SPV 97632 DCD, Germany)\CD-2\Cheap Trick - Silver (CD-2).wav

Peak level 100.0 %
Extraction speed 9.2 X
Range quality 100.0 %
Test CRC B0C41BAD
Copy CRC B0C41BAD
Copy OK

No errors occurred


AccurateRip summary

Track 1 cannot be verified as accurate (confidence 5) [4946FEC3], AccurateRip returned [4AB88CE0] (AR v2)
Track 2 cannot be verified as accurate (confidence 5) [B4FF8447], AccurateRip returned [6FD1531F] (AR v2)
Track 3 cannot be verified as accurate (confidence 5) [736C0534], AccurateRip returned [22F83A41] (AR v2)
Track 4 cannot be verified as accurate (confidence 5) [29C49B0F], AccurateRip returned [F273AA04] (AR v2)
Track 5 cannot be verified as accurate (confidence 5) [195E7EA0], AccurateRip returned [76DA8742] (AR v2)
Track 6 cannot be verified as accurate (confidence 5) [D499B1E0], AccurateRip returned [AB0A84AC] (AR v2)
Track 7 cannot be verified as accurate (confidence 5) [AE1498A5], AccurateRip returned [4EA82862] (AR v2)
Track 8 cannot be verified as accurate (confidence 5) [9BCC45F4], AccurateRip returned [42D65999] (AR v2)
Track 9 cannot be verified as accurate (confidence 5) [2E2D0782], AccurateRip returned [740E7EFE] (AR v2)
Track 10 cannot be verified as accurate (confidence 5) [36E0300C], AccurateRip returned [475D89C7] (AR v2)
Track 11 cannot be verified as accurate (confidence 5) [A4A52683], AccurateRip returned [B689791A] (AR v2)
Track 12 cannot be verified as accurate (confidence 5) [E382404E], AccurateRip returned [7858C278] (AR v2)
Track 13 cannot be verified as accurate (confidence 5) [67914D96], AccurateRip returned [EAA1818A] (AR v2)
Track 14 cannot be verified as accurate (confidence 5) [C79D6E61], AccurateRip returned [B49E2D04] (AR v2)
Track 15 cannot be verified as accurate (confidence 5) [1D9C48D6], AccurateRip returned [6C547AF7] (AR v2)
Track 16 cannot be verified as accurate (confidence 5) [4472CD57], AccurateRip returned [AC299016] (AR v2)

No tracks could be verified as accurate
You may have a different pressing from the one(s) in the database

End of status report

==== Log checksum 366777D4C98F44FC781B876845157BA2BDC4186E9C76EC10C30E52DB242E1BB3 ====

foobar2000 1.2.6 / Dynamic Range Meter 1.1.1
log date: 2015-07-24 01:38:37

––––––––––––––––––––––––––––––––––––––––
Analyzed: Cheap Trick / Silver
––––––––––––––––––––––––––––––––––––––––

DR Peak RMS Duration Track
––––––––––––––––––––––––––––––––––––––––
DR12 0.00 dB -13.47 dB 6:32 01-The Flame
DR13 0.00 dB -14.64 dB 4:48 02-Stop This Game
DR12 -0.02 dB -13.86 dB 4:44 03-Dream Police
DR14 0.00 dB -14.73 dB 4:20 04-I Know What I Want
DR14 0.00 dB -14.73 dB 4:55 05-Woke Up With A Monster
DR14 0.00 dB -15.04 dB 3:50 06-Never Had A Lot To Lose
DR11 -1.62 dB -14.67 dB 5:22 07-You're All Talk
DR14 -0.17 dB -14.81 dB 5:13 08-I'm Losin' You
DR13 0.00 dB -14.15 dB 3:40 09-Hard To Tell
DR14 0.00 dB -14.71 dB 1:06 10-Oh, Claire
DR13 -0.37 dB -14.88 dB 5:08 11-Surrender
DR13 -0.38 dB -14.99 dB 3:40 12-Just Got Back
DR14 0.00 dB -14.45 dB 4:29 13-Day Tripper
DR13 -0.59 dB -16.51 dB 3:11 14-Who D' King
DR13 0.00 dB -13.99 dB 5:02 15-Daddy Should Have Stayed In High School
DR9 0.00 dB -9.71 dB 5:18 16-On Top Of The World
––––––––––––––––––––––––––––––––––––––––

Number of tracks: 16
Official DR value: DR13

Samplerate: 44100 Hz
Channels: 2
Bits per sample: 16
Bitrate: 861 kbps
Codec: FLAC
================================================================================

[CUETools log; Date: 24.07.2015 1:38:42; Version: 2.1.5]
[CTDB TOCID: EWj1MtucEu0lxeQtmScmQZvvjt8-] found.
Track | CTDB Status
1 | (2/8) Accurately ripped, or (6/8) differs in 493 samples @00:54:73-00:54:74,02:20:08-02:20:09
2 | (2/8) Accurately ripped, or (6/8) differs in 92 samples @00:00:02,01:48:24-01:48:25
3 | (2/8) Accurately ripped, or (6/8) differs in 40 samples @00:00:02
4 | (2/8) Accurately ripped, or (6/8) differs in 40 samples @00:00:02
5 | (2/8) Accurately ripped, or (6/8) differs in 40 samples @00:00:02
6 | (2/8) Accurately ripped, or (6/8) differs in 40 samples @00:00:02
7 | (2/8) Accurately ripped, or (6/8) differs in 40 samples @00:00:02
8 | (2/8) Accurately ripped, or (6/8) differs in 40 samples @00:00:02
9 | (2/8) Accurately ripped, or (6/8) differs in 40 samples @00:00:02
10 | (2/8) Accurately ripped, or (6/8) differs in 40 samples @00:00:02
11 | (2/8) Accurately ripped, or (6/8) differs in 40 samples @00:00:02
12 | (2/8) Accurately ripped, or (6/8) differs in 40 samples @00:00:02
13 | (2/8) Accurately ripped, or (6/8) differs in 40 samples @00:00:02
14 | (2/8) Accurately ripped, or (6/8) differs in 40 samples @00:00:02
15 | (8/8) Accurately ripped
16 | (2/8) Accurately ripped, or (6/8) differs in 29 samples @00:00:02
[AccurateRip ID: 002b3f89-01fc8e3c-0110b610] found.
Track [ CRC | V2 ] Status
01 [65424ad4|4946fec3] (00+00/15) No match
02 [303ba9fc|b4ff8447] (00+00/15) No match
03 [24848b74|736c0534] (00+00/15) No match
04 [5a078fc3|29c49b0f] (00+00/15) No match
05 [144b87f1|195e7ea0] (00+00/15) No match
06 [f447ffca|d499b1e0] (00+00/15) No match
07 [d29bae89|ae1498a5] (00+00/15) No match
08 [d6953c2e|9bcc45f4] (00+00/15) No match
09 [94653afe|2e2d0782] (00+00/15) No match
10 [e4164e9e|36e0300c] (00+00/14) No match
11 [d1ad6b7d|a4a52683] (00+00/14) No match
12 [6331602c|e382404e] (00+00/15) No match
13 [98e396f5|67914d96] (00+00/15) No match
14 [d205c6b0|c79d6e61] (00+00/15) No match
15 [7079b6b6|1d9c48d6] (00+00/15) No match
16 [7a6abaed|4472cd57] (00+00/15) No match
Offsetted by 800:
01 [97a104cd] (00/15) No match (V2 was not tested)
02 [b2aabf45] (00/15) No match (V2 was not tested)
03 [41c14957] (00/15) No match (V2 was not tested)
04 [b8b971c7] (00/15) No match (V2 was not tested)
05 [3ace5454] (00/15) No match (V2 was not tested)
06 [6692d4e6] (00/15) No match (V2 was not tested)
07 [06e3ce7d] (00/15) No match (V2 was not tested)
08 [d85bba0c] (00/15) No match (V2 was not tested)
09 [fc433ad5] (00/15) No match (V2 was not tested)
10 [8f837a1a] (00/14) No match (V2 was not tested)
11 [e98dd378] (00/14) No match (V2 was not tested)
12 [61852e7e] (00/15) No match (V2 was not tested)
13 [37a9f959] (00/15) No match (V2 was not tested)
14 [c2c224da] (00/15) No match (V2 was not tested)
15 [06f49112] (02/15) Accurately ripped
16 [bd76f6e2] (00/15) No match (V2 was not tested)

Track Peak [ CRC32 ] [W/O NULL] [ LOG ]
– 100,0 [B0C41BAD] [57944D00] CRC32
01 100,0 [1D2A3903] [B39A171B]
02 99,9 [2FD6517C] [359BFCE6]
03 99,7 [114E38C6] [6EA2503C]
04 100,0 [428BDEED] [3B86A96F]
05 100,0 [BB8F0FE3] [E81A5FE3]
06 100,0 [2F70F12E] [651D6D19]
07 83,0 [12D081ED] [52FD1EAF]
08 98,0 [43244B8D] [FFA5317B]
09 99,9 [F9741B91] [D6C98452]
10 100,0 [C0C77EFC] [32DECBC5]
11 95,7 [B2817245] [6AF59ECB]
12 95,7 [B0D79E30] [285C30B2]
13 99,9 [E9CD589F] [4E081F96]
14 93,3 [0604C94B] [21FAF4CD]
15 100,0 [4D40A26E] [EDA2F002]
16 100,0 [AFD3A81B] [3A27D6D8]

Cheap Trick - Silver (2001) {2004, CD + DVD} Re-Up

***************

Cheap Trick - Silver (2001) {2004, CD + DVD} Re-Up

Cheap Trick has been through it all: from barrooms to Budokan to barbecues to this birthday bash. And what a fiesta: the boys blow through their career catalogue, hitting the numerous high points of their 25 years as a group and nailing each crowing achievement with the precision and confidence that could only come from rockin' the house together night after night. Several guests – some famous and some family – show up, but the true stars are, obviously: Rick Nielsen, Robin Zander, Tom Petersson, and Bun E. Carlos. Cheap Trick is the brainstorm of colorful guitarist Nielsen, who is one of the most memorable wise-acres ever in rock, but on this night, the Master of Ceremonies diplomatically steps aside (except for wartime valentine "World's Greatest Lover" and the spellbinding train wreck "Gonna Raise Hell") and lets his cohorts shine throughout the mammoth 29-song show. One of the greatest, but unsung, voices in rock, Robin Zander's singing never needs support. His tone hardened with age, but never lost an ounce of power and still sets the standard against which all pop voices are measured. In fact, here he delivers the best version of "Voices" ever. Midway through the set, Zander proclaims he's sung enough ballads and intently begins belting out the rocky stuff. Whether snarling the incomprehensive lyrics of "You're All Talk " (while playing a mean set of maracas) or crooning "Time Will Let You Know" with his daughter, Robin, he inadvertently blows away whoever is on-stage with him. (A long-lost live version of "Johnny Be Good" reveals Zander could even out-scream Bon Scott.) Meanwhile, Petersson's full-bodied 12-string lays the bedrock for Nielson's flailing hot licks and Carlos' wavering big beat. Petersson's turn at the mic on the immortal throwaway "I Know What I Want" is always a pleasure, even though Nielsen has tortured his once-delicious solo beyond recognition. And in the end, as in the beginning, it all comes back to Carlos and the "Tusk"-like chant "Who D' King." Odd-man-out Jon Brant shows up in some kooky headgear, working it on a couple of '80s killers he worked on. Shout-along should-have-beens like "She's Tight" and "Never Had a Lot to Lose" sound good, oh so good. The poignant pop perfection of "Oh Candy" and "Tonight It's You" still resonates decades later. Like most great bands, Cheap Trick possesses two personalities, one in the studio and the other under the spotlight. In the mid-'90s, when Cheap Trick returned to the club circuit, the band didn't bring a keyboard player and each song benefited highly from the bare-bones Live at Leeds powerhouse delivery that first broke the quartet back in the '70s. Such is the case with the opening numbers here, but the deadly keys of fifth member Tod Howarth soon crash into the set. Luckily, his big-'80s chimes perfectly fit the wonderfully ridiculous "Can't Stop Falling into Love" and the Rockford Symphony orchestration accompanying grand opuses like "Stop This Game" and "World's Greatest Lover" finally frames those works as the masterpieces they are. Silver signals the end of an era for one of the greatest live bands and one of the greatest rock bands in history. This DVD works for the lucky people who were there and for the people who weren't. What more could anyone want?

~ Doug Stone, All Music Guide
Track List DVD:

01. Intro
02. Ain't That a Shame
03. I Want You to Want Me
04. Oh Candy
05. That 70's Song
06. Voices
07. If You Want My Love
08. She's Tight
09. Can't Stop Fallin' Into Love
10. Gonna Raise Hell
11. I Can't Take It
12. Take Me to the Top
13. It All Comes Back to You
14. Tonight It's You
15. Time Will Let You Know
16. World's Greatest Lover
17. The Flame
18. Stop This Game
19. Dream Police
20. I Know What I Want
21. Woke Up With a Monster
22. Never Had a Lot to Lose
23. You're All Talk
24. I'm Losin' You
25. Hard to Tell
26. Oh Claire
27. Surrender
28. Just Got Back
29. Day Tripper
30. Who D'King
31. Credits

Additional Release Materials:

Bonus Commentary
Behind The Scenes
Photo Gallery
Discography

Title: Cheap Trick - Silver (2001) DVD9
Size: 7.31 Gb ( 7 669 556,00 KBytes ) - DVD-9
Enabled regions: 1, 2, 3, 4, 5, 6, 7, 8

VTS_01 :
Play Length: 02:14:24
Video: PAL 4:3 (720x576) VBR
Audio:
Not specified, LPCM, Delay = 0 mSec
Not specified, AC3, 3/2 (L,C,R,SL,SR)+LFE ch, 448 kbps, Delay 0 mSec


VTS_02 :
Play Length: 00:00:12
Video: PAL 4:3 (720x576) VBR

VTS_03 :
Play Length: 00:26:54
Video: PAL 4:3 (720x576) VBR
Audio:
Not specified (Dolby AC3, 2 ch)

VTS_04 :
Play Length: 00:03:47
Video: PAL 4:3 (720x576) VBR
Audio:
Not specified (Dolby AC3, 2 ch)

VTS_05 :
Play Length: 00:00:10
Video: PAL 4:3 (720x576) VBR
Subtitles:
Not specified

Cheap Trick - Silver (2001) {2004, CD + DVD} Re-Up

Cheap Trick - Silver (2001) {2004, CD + DVD} Re-Up

Cheap Trick - Silver (2001) {2004, CD + DVD} Re-Up

Cheap Trick - Silver (2001) {2004, CD + DVD} Re-Up

Cheap Trick - Silver (2001) {2004, CD + DVD} Re-Up

Cheap Trick - Silver (2001) {2004, CD + DVD} Re-Up

Cheap Trick - Silver (2001) {2004, CD + DVD} Re-Up

Cheap Trick - Silver (2001) {2004, CD + DVD} Re-Up

Cheap Trick - Silver (2001) {2004, CD + DVD} Re-Up

All thanks go to Ginger Devil and Alvin-H

>>> "Cheap Trick" in my Blog <<<

Download from icerbox.com: