Subcategories

Chet Baker - This Is Jazz (1996)

Posted By: popsakov
Chet Baker - This Is Jazz (1996)

Chet Baker - This Is Jazz (1996)
EAC Rip | FLAC (Img) + Cue + Log ~ 152 Mb | MP3 CBR320 ~ 97 Mb
Full Scans ~ 70 Mb | 00:40:01 | RAR 5% Recovery
Columbia / Legacy / X-cellent / Sony Music #CK 064779 0 / 064779 0
Cool Jazz / Modal / Vocal Jazz

This Is Jazz, Vol. 2 isn't an ideal overview of Chet Baker's seminal Columbia recordings, but it isn't bad, either. Many of the featured 16 songs are among Baker's very best, giving novices a good idea of the sound, style, and depth of his music, even if it doesn't provide an ideal context. Nevertheless, This Is Jazz doesn't intend to provide context, which will undoubtedly frustrate collectors and jazz purists. However, it does succeed in offering an affordable sampler of his classic Columbia recordings for curious listeners – and it succeeds quite well in that regard.

~ Stephen Thomas Erlewine, All Music

***************

Chet Baker - This Is Jazz (1996)

Chet Baker - This Is Jazz (1996)

Track List:

01. Little Duet for Zoot and Chet [2:35]
02. Love Walked In [2:58]
03. You Don't Know What Love Is [3:30]
04. I'm Through With Love [2:39]
05. You Better Go Now [3:06]
06. The Wind [3:59]
07. Autumn Leaves [7:05]
08. She Was Too Good to Me [4:43]
09. Tangerine [5:29]
10. What'll I Do [3:55]

Exact Audio Copy V1.3 from 2. September 2016

Отчёт EAC об извлечении, выполненном 18. октября 2016, 19:18

Chet Baker / This Is Jazz 2

Дисковод: _NEC DVD_RW ND-3550A Adapter: 1 ID: 3

Режим чтения : Достоверность
Использование точного потока : Да
Отключение кэша аудио : Да
Использование указателей C2 : Нет

Коррекция смещения при чтении : 48
Способность читать области Lead-in и Lead-out : Нет
Заполнение пропущенных сэмплов тишиной : Да
Удаление блоков с тишиной в начале и конце : Нет
При вычислениях CRC использовались нулевые сэмплы : Да
Интерфейс : Встроенный Win32-интерфейс для Win NT/2000

Выходной формат : Пользовательский кодировщик
Выбранный битрейт : 1024 kBit/s
Качество : Высокий
Добавление ID3-тега : Нет
Утилита сжатия : C:\Program Files (x86)\Exact Audio Copy\FLAC\FLAC.EXE
Дополнительные параметры : -6 -V -T "ARTIST=%artist%" -T "TITLE=%title%" -T "ALBUM=%albumtitle%" -T "DATE=%year%" -T "TRACKNUMBER=%tracknr%" -T "GENRE=%genre%" -T "COMMENT=%comment%" -T "BAND=%albuminterpret%" -T "ALBUMARTIST=%albuminterpret%" -T "COMPOSER=%composer%" %haslyrics%–tag-from-file=LYRICS="%lyricsfile%"%haslyrics% -T "DISCNUMBER=%cdnumber%" -T "TOTALDISCS=%totalcds%" -T "TOTALTRACKS=%numtracks%" %hascover%–picture="%coverfile%"%hascover% %source% -o %dest%


TOC извлечённого CD

Трек | Старт | Длительность | Начальный сектор | Конечный сектор
––––––––––––––––––––––––––––––––––-
1 | 0:00.00 | 2:35.32 | 0 | 11656
2 | 2:35.32 | 2:58.35 | 11657 | 25041
3 | 5:33.67 | 3:29.58 | 25042 | 40774
4 | 9:03.50 | 2:38.72 | 40775 | 52696
5 | 11:42.47 | 3:05.58 | 52697 | 66629
6 | 14:48.30 | 3:59.37 | 66630 | 84591
7 | 18:47.67 | 7:05.25 | 84592 | 116491
8 | 25:53.17 | 4:42.58 | 116492 | 137699
9 | 30:36.00 | 5:29.37 | 137700 | 162411
10 | 36:05.37 | 3:55.23 | 162412 | 180059


Характеристики диапазона извлечения и сообщения об ошибках

Выбранный диапазон

Имя файла C:\Users\Desktop\Chet Baker - This Is Jazz (1996)\Chet Baker - This Is Jazz 2.wav

Пиковый уровень 81.2 %
Скорость извлечения 6.5 X
Качество диапазона 100.0 %
CRC копии CD66CB6A
Копирование… OK

Ошибок не произошло


AccurateRip: сводка

Трек 1 точность не определена (достоверность 12) [86A93379], AccurateRip вернул [70CEAE3E] (AR v2)
Трек 2 точность не определена (достоверность 12) [69F573EF], AccurateRip вернул [FE7D48D8] (AR v2)
Трек 3 точность не определена (достоверность 12) [B056363B], AccurateRip вернул [D0FAAEF1] (AR v2)
Трек 4 точность не определена (достоверность 12) [2E3D9B97], AccurateRip вернул [B3EEBC3E] (AR v2)
Трек 5 точность не определена (достоверность 12) [FF79CCA6], AccurateRip вернул [6DD6BB2E] (AR v2)
Трек 6 точность не определена (достоверность 12) [EC62E771], AccurateRip вернул [2E75CACA] (AR v2)
Трек 7 точность не определена (достоверность 12) [A2B34149], AccurateRip вернул [7519BE2F] (AR v2)
Трек 8 точность не определена (достоверность 12) [651EC8CA], AccurateRip вернул [929A12F0] (AR v2)
Трек 9 точность не определена (достоверность 12) [66B0415C], AccurateRip вернул [5018192F] (AR v2)
Трек 10 точность не определена (достоверность 12) [E17952DC], AccurateRip вернул [698646F9] (AR v2)

Ни один трек не прошёл проверки на точность
В вашей базе может быть иной вариант штамповки диска

Конец отчёта

–– CUETools DB Plugin V2.1.6

[CTDB TOCID: qg2KVFA45QbKSpKgUpDK_kp8uVs-] found
Submit result: qg2KVFA45QbKSpKgUpDK_kp8uVs- has been confirmed
Track | CTDB Status
1 | (18/18) Accurately ripped
2 | (18/18) Accurately ripped
3 | (18/18) Accurately ripped
4 | (18/18) Accurately ripped
5 | (18/18) Accurately ripped
6 | (18/18) Accurately ripped
7 | (18/18) Accurately ripped
8 | (18/18) Accurately ripped
9 | (18/18) Accurately ripped
10 | (18/18) Accurately ripped


==== Контрольная сумма отчёта 48C329DF6787244F9AF5482925671258695FCBEEEF71CEB3015BFF82A1431E1A ====

[CUETools log; Date: 18.10.2016 23:47:47; Version: 2.1.5]
[CTDB TOCID: qg2KVFA45QbKSpKgUpDK_kp8uVs-] found.
Track | CTDB Status
1 | (19/19) Accurately ripped
2 | (19/19) Accurately ripped
3 | (19/19) Accurately ripped
4 | (19/19) Accurately ripped
5 | (19/19) Accurately ripped
6 | (19/19) Accurately ripped
7 | (19/19) Accurately ripped
8 | (19/19) Accurately ripped
9 | (19/19) Accurately ripped
10 | (19/19) Accurately ripped
[AccurateRip ID: 000d65e9-006f4826-8509600a] found.
Track [ CRC | V2 ] Status
01 [2de96245|86a93379] (00+00/22) No match
02 [194c7ffd|69f573ef] (00+00/22) No match
03 [7b1843f0|b056363b] (00+00/23) No match
04 [2651c237|2e3d9b97] (00+00/23) No match
05 [61ea38b4|ff79cca6] (00+00/23) No match
06 [7d773587|ec62e771] (00+00/23) No match
07 [10fd4e2f|a2b34149] (00+00/23) No match
08 [7fa9df11|651ec8ca] (00+00/22) No match
09 [acbb4add|66b0415c] (00+00/21) No match
10 [f044aa91|e17952dc] (00+00/23) No match
Offsetted by 693:
01 [a681f2d3] (10/22) Accurately ripped
02 [4bcad64b] (10/22) Accurately ripped
03 [6590a96a] (11/23) Accurately ripped
04 [3981d6f0] (11/23) Accurately ripped
05 [7417fdd0] (11/23) Accurately ripped
06 [a642f2a8] (11/23) Accurately ripped
07 [73fffcb2] (11/23) Accurately ripped
08 [bc0c61ff] (10/22) Accurately ripped
09 [c6ed60e6] (09/21) Accurately ripped
10 [6034ef76] (11/23) Accurately ripped

Track Peak [ CRC32 ] [W/O NULL] [ LOG ]
– 81,2 [CD66CB6A] [9369E488] CRC32
01 71,2 [E64DF57F] [D7323880]
02 75,1 [1C9F6308] [80BD455A]
03 68,6 [715704CB] [E85AC352]
04 72,2 [0F2BE950] [0A437732]
05 66,6 [792AD0BF] [78237C7D]
06 76,6 [E31BBCF5] [531940FB]
07 81,2 [77F6CC86] [42CE7579]
08 44,0 [3111AE8E] [452A90D6]
09 79,4 [F33DF31B] [638639BD]
10 45,0 [2B797E44] [BB4B1E27]

Chet Baker - This Is Jazz (1996)


All thanks go to Olegator

>>> Chet Baker in my Blog <<<

DOWNLOAD: