Subcategories

Chet Baker With The Bradley Young Trio - Chet In Chicago (2008)

Posted By: popsakov
Chet Baker With The Bradley Young Trio - Chet In Chicago (2008)

Chet Baker With The Bradley Young Trio - Chet In Chicago (2008)
EAC Rip | WV (Img) + Cue + Log ~ 349 Mb | MP3 CBR320 ~ 132 Mb
Scans (PNG, 300 dpi) ~ 122 Mb | RAR 5% Recovery
Jazz | Enja Records #ENJ-9524 2

For much of the last two decades of his life, Chet Baker seemed to go in the studios so often that one never knew what to expect. The results were a crapshoot, depending on whether or not Baker was suffering the effects of his drug addiction at the time. Fortunately, his friendship with Chicago-based pianist Bradley Young in the early 1980s gave the younger man an opportunity to sit in with the trumpeter. As a result, Young impulsively suggested a record date during a return engagement in 1986, which Baker accepted, though everything had to come together quickly within two days, including finding a studio and assembling a band. Oddly enough, everything works, from the fine rhythm section (bassist Larry Gray and drummer Rusty Jones) to the performance of the standards and jazz tunes that had long been a part of Baker's repertoire. Baker is in good form on his horn and seems stimulated by the local rhythm section, particularly in the brisk treatment of "Old Devil Moon," the dreamy "We'll Be Together Again," and the burning rendition of "Solar." Baker adds his trademarked fragile vocals to yet another take of "My Funny Valentine," while tenor saxophonist Ed Peterson is a valuable guest on several tracks, including a breezy "Ornithology." In spite of the many Chet Baker CDs to choose from that were made in the '80s, this disc is one of his better efforts in that era.
~ Ken Dryden, All Music
Chet Baker With The Bradley Young Trio - Chet In Chicago (2008)


***************

Chet Baker With The Bradley Young Trio - Chet In Chicago (2008)

Chet Baker With The Bradley Young Trio - Chet In Chicago (2008)

Track List:

01. Old Devil Moon [0:09:19.31]
02. It's You Or No One [0:06:47.18]
03. We'll Be Together Again [0:07:12.41]
04. Ornithology [0:07:40.74]
05. Crazy Rhythm [0:05:12.55]
06. My Funny Valentine [0:06:28.33]
07. Sippin' At Bells [0:05:47.48]
08. Solar [0:06:01.24]

Personnel:
Bass – Larry Gray
Drums – Rusty Jones
Piano – Bradley Young
Tenor Saxophone – Ed Petersen
Trumpet – Chet Baker
Vocals – Chet Baker

Recorded in Chicago, May 1986

Exact Audio Copy V1.0 beta 3 from 29. August 2011

EAC extraction logfile from 17. April 2013, 11:31

Chet Baker with Bradley Young Trio / Chet in Chicago [Enja ENJ-9224 2]

Used drive : Optiarc DVD RW AD-7200S Adapter: 5 ID: 1

Read mode : Secure
Utilize accurate stream : Yes
Defeat audio cache : Yes
Make use of C2 pointers : No

Read offset correction : 48
Overread into Lead-In and Lead-Out : No
Fill up missing offset samples with silence : Yes
Delete leading and trailing silent blocks : No
Null samples used in CRC calculations : Yes
Used interface : Installed external ASPI interface

Used output format : User Defined Encoder
Selected bitrate : 1024 kBit/s
Quality : High
Add ID3 tag : No
Command line compressor : D:\Program Files (x86)\Exact Audio Copy\wavpack.exe
Additional command line options : -hlmx2 %source% %dest%


TOC of the extracted CD

Track | Start | Length | Start sector | End sector
––––––––––––––––––––––––––––-
1 | 0:00.00 | 9:19.31 | 0 | 41955
2 | 9:19.31 | 6:47.18 | 41956 | 72498
3 | 16:06.49 | 7:12.41 | 72499 | 104939
4 | 23:19.15 | 7:40.74 | 104940 | 139513
5 | 31:00.14 | 5:12.55 | 139514 | 162968
6 | 36:12.69 | 6:28.33 | 162969 | 192101
7 | 42:41.27 | 5:47.48 | 192102 | 218174
8 | 48:29.00 | 6:01.24 | 218175 | 245273


Range status and errors

Selected range

Filename D:\eac\Chet Baker with Bradley Young Trio\Chet Baker with Bradley Young Trio - Chet in Chicago [Enja ENJ-9224 2].wav

Peak level 100.0 %
Extraction speed 3.8 X
Range quality 99.9 %
Test CRC 5D5AEE6F
Copy CRC 5D5AEE6F
Copy OK

No errors occurred


AccurateRip summary

Track 1 accurately ripped (confidence 3) [FF07DA2B] (AR v2)
Track 2 accurately ripped (confidence 2) [B16DECF2] (AR v2)
Track 3 accurately ripped (confidence 2) [3D6DFC3E] (AR v2)
Track 4 accurately ripped (confidence 2) [5CEB71EC] (AR v2)
Track 5 accurately ripped (confidence 2) [16A2F96D] (AR v2)
Track 6 accurately ripped (confidence 2) [F17BF730] (AR v2)
Track 7 accurately ripped (confidence 2) [4BBE1AE0] (AR v2)
Track 8 accurately ripped (confidence 2) [FA97E1BE] (AR v2)

All tracks accurately ripped

End of status report

–– CUETools DB Plugin V2.1.3

[CTDB TOCID: H.utkpafe3jWAPNbdfKmZvBHSnE-] found, Submit result: H.utkpafe3jWAPNbdfKmZvBHSnE- has been confirmed
[14da91a1] (1/2) Accurately ripped
[132c8c19] (1/2) Differs in 15 samples @23:16:07-23:16:08,23:25:67,28:18:27
You can use CUETools to repair this rip.


==== Log checksum 84F873745EEA58BD3DBA0255AE73AF207BEEA1A6F4EB92B6F2080B2AC3983B38 ====

foobar2000 1.2.6 / Dynamic Range Meter 1.1.1
log date: 2017-05-18 17:13:42

––––––––––––––––––––––––––––––––––––––––
Analyzed: Chet Baker with Bradley Young Trio / Chet in Chicago [Enja ENJ-9524 2]
––––––––––––––––––––––––––––––––––––––––

DR Peak RMS Duration Track
––––––––––––––––––––––––––––––––––––––––
DR13 0.00 dB -16.17 dB 9:19 01-Old Devil Moon
DR13 -0.10 dB -16.46 dB 6:47 02-It's You Or No One
DR15 -0.10 dB -18.55 dB 7:13 03-We'll Be Together Again
DR14 -0.20 dB -16.89 dB 7:41 04-Ornithology
DR14 -0.10 dB -16.46 dB 5:13 05-Crazy Rhythm
DR13 -0.10 dB -16.67 dB 6:28 06-My Funny Valentine
DR14 -0.20 dB -16.49 dB 5:48 07-Sippin' At Bells
DR13 -0.10 dB -16.53 dB 6:01 08-Solar
––––––––––––––––––––––––––––––––––––––––

Number of tracks: 8
Official DR value: DR14

Samplerate: 44100 Hz
Channels: 2
Bits per sample: 16
Bitrate: 850 kbps
Codec: WavPack
================================================================================

[CUETools log; Date: 18.05.2017 17:13:57; Version: 2.1.5]
[CTDB TOCID: H.utkpafe3jWAPNbdfKmZvBHSnE-] found.
Track | CTDB Status
1 | (19/19) Accurately ripped
2 | (19/19) Accurately ripped
3 | (18/19) Accurately ripped, or (1/19) differs in 9 samples @07:09:33-07:09:34
4 | (18/19) Accurately ripped, or (1/19) differs in 6 samples @00:06:52,04:59:12
5 | (18/19) Accurately ripped
6 | (19/19) Accurately ripped
7 | (19/19) Accurately ripped
8 | (18/19) Accurately ripped
[AccurateRip ID: 0011f755-00756736-670cc608] found.
Track [ CRC | V2 ] Status
01 [dd775af1|ff07da2b] (16+14/30) Accurately ripped
02 [a90334c6|b16decf2] (16+14/30) Accurately ripped
03 [59470e34|3d6dfc3e] (16+15/31) Accurately ripped
04 [3f08a48c|5ceb71ec] (16+14/30) Accurately ripped
05 [0a1b9aae|16a2f96d] (16+14/30) Accurately ripped
06 [c50c2c1e|f17bf730] (16+15/31) Accurately ripped
07 [e3d58a5b|4bbe1ae0] (16+14/30) Accurately ripped
08 [e165950c|fa97e1be] (16+14/30) Accurately ripped

Track Peak [ CRC32 ] [W/O NULL] [ LOG ]
– 99,9 [5D5AEE6F] [2450FFA7] CRC32
01 99,9 [D3C82F8E] [737D7887]
02 98,8 [213C6DB4] [F0C66F30]
03 98,8 [8D33A50C] [CB80BD73]
04 97,7 [6CC99A10] [4629B52C]
05 98,8 [CA1CC073] [3A8EA126]
06 98,8 [EB0C53BB] [05AC48FF]
07 97,7 [01974D35] [44D6ABD8]
08 98,8 [5E18B3BB] [BC06394A]

Chet Baker With The Bradley Young Trio - Chet In Chicago (2008)

All thanks go to taurus66

>>> Chet Baker in my Blog <<<

Download from icerbox.com: