Subcategories

Chick Corea - My Spanish Heart (1976) [Re-Up]

Posted By: tiburon
Chick Corea - My Spanish Heart (1976) [Re-Up]

Chick Corea - My Spanish Heart (1976) {Verve 543303}
EAC 1.0b2 | FLAC tracks level 8 | Cue+Log+M3U+MD5 | Full Scans 300dpi | 507MB + 5% Recovery
Genre: Jazz, Fusion, Latin Jazz
Chick Corea - My Spanish Heart (1976) [Re-Up]

This 1976 release features Chick Corea in what was then, and remains, a unique musical setting. While it is truly an electric jazz fusion record, it is also the only solo recording of Corea's on which he attempted to truly explore the Latin side of his musical heritage. My Spanish Heart marks a full-scale yet thoroughly modern exploration in the musical lineage Corea sprang from. Making full use of synthesizer technology, a string section, and synth-linked choruses – and of two voices, his own and that of Gayle Moran – as well as percussionist Don Alias, drummer Steve Gadd, a full brass section, and the sparse use of Jean-Luc Ponty ("Armando's Rumba") and bassist Stanley Clarke, Corea largely succeeded in creating a Spanish/Latin tapestry of sounds, textures, impressions, and even two suites: "Spanish Fantasy" and "El Boro."
Track List
01. Love Castle
02. The Gardens
03. Day Danse
04. My Spanish Heart
05. Night Streets
06. The Hilltop
07. The Sky
08. Wind Danse
09. Armando's Rhumba
10. Prelude To El Bozo
11. El Bozo, Part I
12. El Bozo, Part II
13. El Bozo, Part III
14. Spanish Fantasy, Part I
15. Spanish Fantasy, Part II
16. Spanish Fantasy, Part III
17. Spanish Fantasy, Part IV
18. The Clouds

Tracks 1-17 original LP issue My Spanish Heart,Polydor PD-2-9003
Track 18 previously inissued

musicians
Chick Corea - Piano, Organ, Synthesizer, Percussion, Vocals, Production, Arrangement, Composer
Stanley Clarke - Double bass, Bass Guitar
Steve Gadd - drums
Narada Michael Walden - Drums, Handclaps
Don Alias - Percussion
Jean-Luc Ponty - Violin
Gayle Moran - Vocals

String quartet:
Connie Kupka - Violin
Barry Socher - Violin
Carole Mukogawa - Viola
David Speltz - Cello

Brass section:
Stuart Blumberg - Trumpet
John Rosenburg - Trumpet
John Thomas - Trumpet
Ron Mass - Trombone

Produced by Chick Corea


Exact Audio Copy V1.0 beta 2 from 29. April 2011

EAC extraction logfile from 11. January 2013, 12:57

Chick Corea / My Spanish Heart

Used drive : PLEXTOR CD-R PREMIUM2 Adapter: 1 ID: 1

Read mode : Secure
Utilize accurate stream : Yes
Defeat audio cache : Yes
Make use of C2 pointers : No

Read offset correction : 30
Overread into Lead-In and Lead-Out : No
Fill up missing offset samples with silence : Yes
Delete leading and trailing silent blocks : No
Null samples used in CRC calculations : Yes
Used interface : Installed external ASPI interface
Gap handling : Appended to previous track

Used output format : User Defined Encoder
Selected bitrate : 256 kBit/s
Quality : High
Add ID3 tag : No
Command line compressor : C:\Programmi\eac-1.00\Flac\flac.exe
Additional command line options : -8 -V -T "ARTIST=%artist%" -T "TITLE=%title%" -T "ALBUM=%albumtitle%" -T "DATE=%year%" -T "TRACKNUMBER=%tracknr%" %source%


TOC of the extracted CD

Track | Start | Length | Start sector | End sector
––––––––––––––––––––––––––––-
1 | 0:00.00 | 4:45.65 | 0 | 21439
2 | 4:45.65 | 3:12.35 | 21440 | 35874
3 | 7:58.25 | 4:27.37 | 35875 | 55936
4 | 12:25.62 | 1:37.73 | 55937 | 63284
5 | 14:03.60 | 6:08.07 | 63285 | 90891
6 | 20:11.67 | 6:16.40 | 90892 | 119131
7 | 26:28.32 | 4:57.48 | 119132 | 141454
8 | 31:26.05 | 5:00.57 | 141455 | 164011
9 | 36:26.62 | 5:19.05 | 164012 | 187941
10 | 41:45.67 | 1:34.20 | 187942 | 195011
11 | 43:20.12 | 2:52.33 | 195012 | 207944
12 | 46:12.45 | 2:03.45 | 207945 | 217214
13 | 48:16.15 | 5:03.62 | 217215 | 240001
14 | 53:20.02 | 6:06.00 | 240002 | 267451
15 | 59:26.02 | 5:14.55 | 267452 | 291056
16 | 64:40.57 | 3:06.30 | 291057 | 305036
17 | 67:47.12 | 5:16.35 | 305037 | 328771
18 | 73:03.47 | 4:33.28 | 328772 | 349274


Track 1

Filename D:\My Rip\01 - Love Castle.wav

Pre-gap length 0:00:02.00

Peak level 100.0 %
Extraction speed 8.2 X
Track quality 99.9 %
Test CRC F6CEEFD4
Copy CRC F6CEEFD4
Accurately ripped (confidence 16) [690935D1] (AR v1)
Copy OK

Track 2

Filename D:\My Rip\02 - The Gardens.wav

Pre-gap length 0:00:00.03

Peak level 99.9 %
Extraction speed 9.6 X
Track quality 100.0 %
Test CRC E99B69F0
Copy CRC E99B69F0
Accurately ripped (confidence 16) [C1891C49] (AR v1)
Copy OK

Track 3

Filename D:\My Rip\03 - Day Danse.wav

Peak level 92.7 %
Extraction speed 10.5 X
Track quality 100.0 %
Test CRC 5DFB60E6
Copy CRC 5DFB60E6
Accurately ripped (confidence 16) [5C0944B3] (AR v1)
Copy OK

Track 4

Filename D:\My Rip\04 - My Spanish Heart.wav

Pre-gap length 0:00:00.02

Peak level 82.0 %
Extraction speed 9.9 X
Track quality 100.0 %
Test CRC 75DF089A
Copy CRC 75DF089A
Accurately ripped (confidence 16) [4AD6939A] (AR v1)
Copy OK

Track 5

Filename D:\My Rip\05 - Night Streets.wav

Pre-gap length 0:00:00.03

Peak level 99.3 %
Extraction speed 11.8 X
Track quality 100.0 %
Test CRC 9F5BDC2D
Copy CRC 9F5BDC2D
Accurately ripped (confidence 16) [EE707B34] (AR v1)
Copy OK

Track 6

Filename D:\My Rip\06 - The Hilltop.wav

Pre-gap length 0:00:06.15

Peak level 85.8 %
Extraction speed 12.6 X
Track quality 100.0 %
Test CRC DD60D0C6
Copy CRC DD60D0C6
Accurately ripped (confidence 15) [4112AFEB] (AR v1)
Copy OK

Track 7

Filename D:\My Rip\07 - The Sky.wav

Pre-gap length 0:00:00.62

Peak level 99.3 %
Extraction speed 13.4 X
Track quality 100.0 %
Test CRC C51148DB
Copy CRC C51148DB
Accurately ripped (confidence 16) [DFCD5298] (AR v1)
Copy OK

Track 8

Filename D:\My Rip\08 - Wind Danse.wav

Peak level 89.3 %
Extraction speed 12.2 X
Track quality 99.9 %
Test CRC 094600AA
Copy CRC 094600AA
Accurately ripped (confidence 15) [91DE3A6F] (AR v1)
Copy OK

Track 9

Filename D:\My Rip\09 - Armando's Rhumba.wav

Pre-gap length 0:00:05.72

Peak level 99.3 %
Extraction speed 12.5 X
Track quality 99.9 %
Test CRC EC9EAEE3
Copy CRC EC9EAEE3
Accurately ripped (confidence 14) [9AE347D3] (AR v1)
Copy OK

Track 10

Filename D:\My Rip\10 - Prelude to el Bozo.wav

Pre-gap length 0:00:00.02

Peak level 81.1 %
Extraction speed 8.5 X
Track quality 99.8 %
Test CRC E330238B
Copy CRC E330238B
Accurately ripped (confidence 16) [CB54661A] (AR v1)
Copy OK

Track 11

Filename D:\My Rip\11 - El Bozo, Part I.wav

Pre-gap length 0:00:00.02

Peak level 99.3 %
Extraction speed 14.6 X
Track quality 100.0 %
Test CRC 38055FC6
Copy CRC 38055FC6
Accurately ripped (confidence 16) [CA30FA70] (AR v1)
Copy OK

Track 12

Filename D:\My Rip\12 - El Bozo, Part II.wav

Pre-gap length 0:00:00.03

Peak level 99.3 %
Extraction speed 14.1 X
Track quality 100.0 %
Test CRC B4DB9795
Copy CRC B4DB9795
Accurately ripped (confidence 16) [A78D0438] (AR v1)
Copy OK

Track 13

Filename D:\My Rip\13 - El Bozo, Part III.wav

Peak level 99.3 %
Extraction speed 15.9 X
Track quality 100.0 %
Test CRC 9E0944BC
Copy CRC 9E0944BC
Accurately ripped (confidence 16) [CAA6DC94] (AR v1)
Copy OK

Track 14

Filename D:\My Rip\14 - Spanish Fantasy, Part I.wav

Pre-gap length 0:00:05.15

Peak level 99.9 %
Extraction speed 16.6 X
Track quality 100.0 %
Test CRC D1751115
Copy CRC D1751115
Accurately ripped (confidence 16) [FD7EA14F] (AR v1)
Copy OK

Track 15

Filename D:\My Rip\15 - Spanish Fantasy, Part II.wav

Pre-gap length 0:00:00.02

Peak level 84.5 %
Extraction speed 14.3 X
Track quality 99.9 %
Test CRC 60E1EA96
Copy CRC 60E1EA96
Accurately ripped (confidence 16) [3FBC1C93] (AR v1)
Copy OK

Track 16

Filename D:\My Rip\16 - Spanish Fantasy, Part III.wav

Peak level 86.8 %
Extraction speed 16.6 X
Track quality 100.0 %
Test CRC E62F3E6B
Copy CRC E62F3E6B
Accurately ripped (confidence 16) [406CFB68] (AR v1)
Copy OK

Track 17

Filename D:\My Rip\17 - Spanish Fantasy, Part IV.wav

Peak level 99.9 %
Extraction speed 17.7 X
Track quality 100.0 %
Test CRC 2DC57454
Copy CRC 2DC57454
Accurately ripped (confidence 16) [FAEA1034] (AR v1)
Copy OK

Track 18

Filename D:\My Rip\18 - The Clouds.wav

Pre-gap length 0:00:10.27

Peak level 100.0 %
Extraction speed 16.3 X
Track quality 100.0 %
Test CRC 838173BE
Copy CRC 838173BE
Accurately ripped (confidence 15) [E2EDF44B] (AR v1)
Copy OK


All tracks accurately ripped

No errors occurred

End of status report

==== Log checksum 722C5C74BC11D14138858D45FB379E166EFCCD455F926C565CABF72AB841578B ====


––––––––––––––––––––––––––––––––––––––––
Analyzed: Chick Corea / My Spanish Heart
––––––––––––––––––––––––––––––––––––––––

DR Peak RMS Duration Track
––––––––––––––––––––––––––––––––––––––––
DR12 0.00 dB -15.98 dB 4:46 01-Love Castle
DR13 0.00 dB -17.24 dB 3:12 02-The Gardens
DR12 -0.66 dB -16.84 dB 4:27 03-Day Danse
DR10 -1.72 dB -16.70 dB 1:38 04-My Spanish Heart
DR13 -0.06 dB -15.96 dB 6:08 05-Night Streets
DR15 -1.33 dB -21.78 dB 6:17 06-The Hilltop
DR14 -0.06 dB -19.06 dB 4:58 07-The Sky
DR11 -0.98 dB -15.75 dB 5:01 08-Wind Danse
DR14 -0.06 dB -16.88 dB 5:19 09-Armando's Rhumba
DR13 -1.82 dB -18.37 dB 1:34 10-Prelude to el Bozo
DR10 -0.06 dB -14.49 dB 2:52 11-El Bozo, Part I
DR11 -0.06 dB -13.42 dB 2:04 12-El Bozo, Part II
DR12 -0.06 dB -14.11 dB 5:04 13-El Bozo, Part III
DR12 0.00 dB -16.35 dB 6:06 14-Spanish Fantasy, Part I
DR14 -1.46 dB -18.95 dB 5:15 15-Spanish Fantasy, Part II
DR13 -1.22 dB -19.28 dB 3:06 16-Spanish Fantasy, Part III
DR13 0.00 dB -15.89 dB 5:16 17-Spanish Fantasy, Part IV
DR16 0.00 dB -21.44 dB 4:33 18-The Clouds
––––––––––––––––––––––––––––––––––––––––

Number of tracks: 18
Official DR value: DR13

Samplerate: 44100 Hz
Channels: 2
Bits per sample: 16
Bitrate: 641 kbps
Codec: FLAC
================================================================================

Chick Corea - My Spanish Heart (1976) [Re-Up]
Chick Corea - My Spanish Heart (1976) [Re-Up]
Chick Corea - My Spanish Heart (1976) [Re-Up]


Rip by Sarchiapone