Subcategories

Chico Hamilton - The Dealer (1966) {Impulse!}

Posted By: tiburon
Chico Hamilton - The Dealer (1966) {Impulse!}

Chico Hamilton - The Dealer (1966) {Impulse!}
EAC 0.99pb4 | FLAC Image level 6 | Cue+Log | Full Scans 300dpi | 357MB + 5% Recovery
MP3 CBR 320 Kbps | 141MB + 5% Recovery
Genre: Jazz, Post-Bop

Drummer Chico Hamilton introduced many top young players during his years as a bandleader, but few probably realize that Larry Coryell made his recording debut with Chico a year before joining Gary Burton's quartet. The Dealer marks Coryell's initial appearance on record, and at times he sounded oddly like Chuck Berry (especially on "The Dealer"). Also heard on this set are altoist Arnie Lawrence, bassist Richard Davis, organist Ernie Hayes (on two numbers), and, on his spirited boogaloo "For Mods Only," Archie Shepp making a rare appearance on piano. Most of the performances still sound surprisingly fresh, especially the explorative "A Trip," making this an underrated but worthy release.
Track List
1. The Dealer (Chico Hamilton / Jimmy Cheatham)
2. For Mods Only (Archie Shepp)
3. A Trip (Chico Hamilton / Jimmy Cheatham)
4. Baby, You Know (Chico Hamilton / Jimmy Cheatham)
5. Larry of Arabia (Larry Coryell)
6. Thoughts (Chico Hamilton)
7. Jim-Jeannie (Chico Hamilton)
8. Chic Chic Chico (Manny Albam)
9. Big Noise from Winnetka (Ray Bauduc / Bob Haggart / Bob Crosby / Gil Rodin)
10. The Second Time Around (Jimmy Van Heusen / Sammy Cahn)
11. El Toro (Chico Hamilton / Charles Lloyd / Gabor Szabo)

musicians
Chico Hamilton (Drums and Percussion, Vocals)
Arnie Lawrence (Alto Saxophone) - 1-7
Larry Coryell (Guitar) - 1-7
Richard Davis (Double Bass) - 1-7
Ernie Hayes (Organ) - 4,5
Archie Shepp (Piano) - 2
Charles Lloyd (Tenor Saxophone and Flute) - 8,10,11
Gabor Szabo (Guitar) - 8,10,11
Jimmy Woods (Tenor Saxophone) - 8
Albert Stinson (Double Bass and Vocals) - 8-11
Willie Bobo (Maracas, Cowbells) - 8,9
George Bohanon (Trombone) - 10

Produced by Bob Thiele


Exact Audio Copy V0.99 prebeta 4 from 23. January 2008

EAC extraction logfile from 2. September 2010, 15:22

Chico Hamilton / The Dealer

Used drive : _NEC DVD_RW ND-3500AG Adapter: 0 ID: 0

Read mode : Secure
Utilize accurate stream : Yes
Defeat audio cache : Yes
Make use of C2 pointers : No

Read offset correction : 48
Overread into Lead-In and Lead-Out : No
Fill up missing offset samples with silence : Yes
Delete leading and trailing silent blocks : No
Null samples used in CRC calculations : Yes
Used interface : Native Win32 interface for Win NT & 2000

Used output format : User Defined Encoder
Selected bitrate : 768 kBit/s
Quality : High
Add ID3 tag : No
Command line compressor : C:\Program Files\Exact Audio Copy\FLAC\FLAC.EXE
Additional command line options : -6 -V -T "ARTIST=%a" -T "TITLE=%t" -T "ALBUM=%g" -T "DATE=%y" -T "TRACKNUMBER=%n" -T "GENRE=%m" -T "COMMENT=%e" %s -o %d


TOC of the extracted CD

Track | Start | Length | Start sector | End sector
––––––––––––––––––––––––––––-
1 | 0:00.00 | 6:24.05 | 0 | 28804
2 | 6:24.05 | 4:28.10 | 28805 | 48914
3 | 10:52.15 | 6:37.45 | 48915 | 78734
4 | 17:29.60 | 3:59.02 | 78735 | 96661
5 | 21:28.62 | 5:11.60 | 96662 | 120046
6 | 26:40.47 | 9:24.33 | 120047 | 162379
7 | 36:05.05 | 6:01.25 | 162380 | 189479
8 | 42:06.30 | 2:51.60 | 189480 | 202364
9 | 44:58.15 | 2:50.72 | 202365 | 215186
10 | 47:49.12 | 3:15.73 | 215187 | 229884
11 | 51:05.10 | 4:38.52 | 229885 | 250786


Range status and errors

Selected range

Filename J:\eMusic\Rip\Chico Hamilton - The Dealer.wav

Peak level 99.8 %
Range quality 99.9 %
Test CRC 9CAE0375
Copy CRC 9CAE0375
Copy OK

No errors occurred


AccurateRip summary

Track 1 accurately ripped (confidence 5) [C6529A0E]
Track 2 accurately ripped (confidence 5) [C2DD53AE]
Track 3 accurately ripped (confidence 5) [EAD189E0]
Track 4 accurately ripped (confidence 5) [8A268059]
Track 5 accurately ripped (confidence 5) [F57D1BA5]
Track 6 accurately ripped (confidence 5) [034C0A03]
Track 7 accurately ripped (confidence 5) [866B206F]
Track 8 accurately ripped (confidence 5) [442D3DFC]
Track 9 accurately ripped (confidence 5) [474D1BD1]
Track 10 accurately ripped (confidence 5) [0F63492E]
Track 11 accurately ripped (confidence 5) [5F03E22D]

All tracks accurately ripped

End of status report

Chico Hamilton - The Dealer (1966) {Impulse!}
Chico Hamilton - The Dealer (1966) {Impulse!}


Thanks to the original ripper