Subcategories
Please register here if you want to download anything!

If domain in your address bar is different from the list below
PLEASE LEAVE THAT SITE IMMEDIATELY
❗IT'S A DANGEROUS FAKE❗



Spicy Magazines for Men! ;-)

Chris Botti: Live with Orchestra and Special Guests (2006) [BDRip 720p] REPOST

Posted By: murena
Chris Botti: Live with Orchestra and Special Guests (2006) [BDRip 720p] REPOST

Chris Botti: Live with Orchestra and Special Guests (2006) [BDRip 720p]
BDRip 720p | MKV | MPEG-4 AVC, 1280x720, 5519 Kbps, 29,970 fps
Audio: DTS 5.1, 1510 Kbps, 48 Khz, 6 ch
Genre: Jazz / Time: 1h 48min / 4,37 Gb

On the heels of his breakthrough debut When I Fall In Love and follow-up To Love Again, trumpeter Chris Botti plays two triumphant shows at The Wilshire Theatre with guest vocals from Sting, Jill Scott, Gladys Knight, Paula Cole and Burt Bacharach

Tracklist:
01. "Someone to Watch Over Me"
02. "When I Fall in Love"
03. "A Thousand Kisses Deep"
04. "What Are You Doing the Rest of Your Life?"
05. "Good Morning Heartache"
06. "My One and Only Love"
07. "The Look of Love"
08. "Cinema Paradiso"
09. "Pennies From Heaven"
10. "Are You Lonesome Tonight?"
11. "Lover Man"
12. "My Funny Valentine"
13. "Why Not"
14. "One for My Baby"



General
Unique ID : 227623403841909000902531705948698521663 (0xAB3EAC4677AB7AFAB314CCE1A47B303F)
Complete name : D:\Торрент\Chris.Botti.Live.2006.mkv
Format : Matroska
Format version : Version 1
File size : 4.37 GiB
Duration : 1h 29mn
Overall bit rate : 7 033 Kbps
Encoded date : UTC 2007-08-21 22:45:04
Writing application : mkvmerge v2.0.2 ('You're My Flame') built on Feb 21 2007 23:40:55
Writing library : libebml v0.7.7 + libmatroska v0.8.1

Video
ID : 1
Format : AVC
Format/Info : Advanced Video Codec
Format profile : High@L5.1
Format settings, CABAC : Yes
Format settings, ReFrames : 8 frames
Format settings, GOP : N=1
Codec ID : V_MPEG4/ISO/AVC
Duration : 1h 29mn
Bit rate : 5 519 Kbps
Width : 1 280 pixels
Height : 720 pixels
Display aspect ratio : 16:9
Frame rate mode : Constant
Frame rate : 29.970 fps
Color space : YUV
Chroma subsampling : 4:2:0
Bit depth : 8 bits
Scan type : Progressive
Bits/(Pixel*Frame) : 0.200
Stream size : 3.35 GiB (77%)
Title : Chris Botti Live (2006)
Writing library : x264 core 56 svn-667C
Encoding settings : cabac=1 / ref=5 / deblock=1:-3:-3 / analyse=0x3:0x133 / me=umh / subme=7 / brdo=1 / mixed_ref=1 / me_range=16 / chroma_me=1 / trellis=1 / 8x8dct=1 / cqm=2 / deadzone=21,11 / chroma_qp_offset=0 / threads=2 / nr=0 / decimate=0 / mbaff=0 / bframes=3 / b_pyramid=1 / b_adapt=1 / b_bias=0 / direct=3 / wpredb=1 / bime=1 / keyint=250 / keyint_min=25 / scenecut=40(pre) / rc=2pass / bitrate=5519 / ratetol=1.0 / rceq='blurCplx^(1-qComp)' / qcomp=0.60 / qpmin=10 / qpmax=51 / qpstep=4 / cplxblur=20.0 / qblur=0.5 / ip_ratio=1.40 / pb_ratio=1.30
Language : English
Default : Yes
Forced : No

Audio
ID : 2
Format : DTS
Format/Info : Digital Theater Systems
Mode : 16
Format settings, Endianness : Big
Codec ID : A_DTS
Duration : 1h 29mn
Bit rate mode : Constant
Bit rate : 1 510 Kbps
Channel count : 6 channels
Channel positions : Front: L C R, Side: L R, LFE
Sampling rate : 48.0 KHz
Bit depth : 24 bits
Compression mode : Lossy
Stream size : 961 MiB (21%)
Title : DTS 5.1 1536kb/s
Language : English
Default : Yes
Forced : No


Personnel:
Chris Botti, Sting, Jill Scott,
Billy Childs Trio - Piano
Bobby Colomby - Producer
Jim Gable - Director, Producer
Steve Genewick - Engineer, Mixing
James Genus - Bass
Gil Goldstein - Conductor
Don Heckman - Author
Billy Kilson - Drums
Tom "Curly" Ruff - Editing, Mastering
Al Schmitt - Engineer, Mixing
Mark Whitfield - Guitar

Screenshots:

Chris Botti: Live with Orchestra and Special Guests (2006) [BDRip 720p] REPOST

Chris Botti: Live with Orchestra and Special Guests (2006) [BDRip 720p] REPOST


Thanks to the original ripper.