Subcategories
Tags
Language
Tags

Chris Cornell - Songbook (2011)

Posted By: popsakov
Chris Cornell - Songbook (2011)

Chris Cornell - Songbook (2011)
EAC Rip | FLAC (Tracks) + Cue + m3u + Log ~ 495 Mb | MP3 CBR320 ~ 178 Mb
Full Scans | 01:07:40 | RAR 5% Recovery
UMe / Universal Music Group International #0602527870182
Alternative Rock / Grunge / Acoustic

Songbook is an acoustic live album by American musician and Soundgarden vocalist Chris Cornell, released on November 21, 2011. The live album features songs recorded during Cornell's Songbook Tour, an acoustic solo tour which took place from March to May 2011 in the US and Canada, and is his first live album as a solo artist. The songs on the tour varied in every show, and the album was recorded during various shows on the tour, and includes songs from Cornell's whole career: solo material, Soundgarden songs, Audioslave songs, Temple of the Dog songs, as well as covers of Led Zeppelin's "Thank You" and John Lennon's "Imagine". The album debuted on Billboard 200 at No. 69.

After spending over a decade avoiding his past, Chris Cornell reconnected with it in a big way during 2010. First, he reunited with Soundgarden, their tour so successful it spilled over into a studio collaboration interrupted by Cornell launching an acoustic tour where he revisited his catalog, quite definitively tying his solo career and time with Audioslave to Soundgarden. Songbook is a live album culled from this tour and has Cornell sampling from all phases of his career, often spinning harder-rocking songs into moody reflective territory. Unlike his solo debut, Euphoria Morning, this never sounds solipsistic; Cornell is engaged, looking outward to the audience, giving subtly forceful performances that often rescue overlooked tunes – including selections from his electronica makeover Scream – and freshen up familiar songs, including covers of Led Zeppelin’s “Thank You” and John Lennon’s “Imagine.” He sounds at peace with his past and comfortable with his present, and that casual assurance makes Songbook his best solo offering to date.

~ Stephen Thomas Erlewine, All Music

***************

Chris Cornell - Songbook (2011)

Track List:

01. As Hope And Promise Fade [3:47]
02. Scar On The Sky [3:40]
03. Call Me A Dog [4:52]
04. Ground Zero [2:59]
05. Can't Change Me [4:19]
06. I Am The Highway [4:57]
07. Thank You [4:48]
08. Cleaning My Gun [5:19]
09. Wide Awake [3:33]
10. Fell On Black Days [5:05]
11. All Night Thing [3:25]
12. Doesn't Remind Me [4:08]
13. Like A Stone [4:04]
14. Black Hole Sun [4:38]
15. Imagine [4:07]
16. The Keeper [4:00]

Exact Audio Copy V1.0 beta 1 from 15. November 2010

EAC extraction logfile from 21. November 2011, 18:47

Chris Cornell / Songbook

Used drive : HL-DT-STDVD-RAM GH22NP20 Adapter: 3 ID: 0

Read mode : Secure
Utilize accurate stream : Yes
Defeat audio cache : Yes
Make use of C2 pointers : No

Read offset correction : 102
Overread into Lead-In and Lead-Out : No
Fill up missing offset samples with silence : Yes
Delete leading and trailing silent blocks : No
Null samples used in CRC calculations : Yes
Used interface : Native Win32 interface for Win NT & 2000
Gap handling : Appended to previous track

Used output format : User Defined Encoder
Selected bitrate : 768 kBit/s
Quality : High
Add ID3 tag : No
Command line compressor : C:\Program Files\Exact Audio Copy\FLAC\FLAC.EXE
Additional command line options : -8 -V -T "ARTIST=%a" -T "TITLE=%t" -T "ALBUM=%g" -T "DATE=%y" -T "TRACKNUMBER=%n" -T "TOTALTRACKS=%x" -T "GENRE=%m" -T "ALBUMARTIST=%v" -T "ALBUM ARTIST=%v" -T "COMMENT=EAC Secure Mode, Test & Copy, AccurateRip, FLAC -8" %s


TOC of the extracted CD

Track | Start | Length | Start sector | End sector
––––––––––––––––––––––––––––-
1 | 0:00.00 | 3:47.01 | 0 | 17025
2 | 3:47.01 | 3:40.09 | 17026 | 33534
3 | 7:27.10 | 4:51.51 | 33535 | 55410
4 | 12:18.61 | 2:58.44 | 55411 | 68804
5 | 15:17.30 | 4:18.59 | 68805 | 88213
6 | 19:36.14 | 4:56.53 | 88214 | 110466
7 | 24:32.67 | 4:48.14 | 110467 | 132080
8 | 29:21.06 | 5:18.55 | 132081 | 155985
9 | 34:39.61 | 3:33.00 | 155986 | 171960
10 | 38:12.61 | 5:05.10 | 171961 | 194845
11 | 43:17.71 | 3:25.20 | 194846 | 210240
12 | 46:43.16 | 4:08.19 | 210241 | 228859
13 | 50:51.35 | 4:04.19 | 228860 | 247178
14 | 54:55.54 | 4:37.55 | 247179 | 268008
15 | 59:33.34 | 4:06.50 | 268009 | 286508
16 | 63:40.09 | 3:59.44 | 286509 | 304477


Track 1

Filename G:\My Rips\Chris Cornell\Chris Cornell - Songbook (2011) [FLAC] {Universal 0602527870182}\01 - As Hope And Promise Fade.wav

Pre-gap length 0:00:02.00

Peak level 100.0 %
Extraction speed 1.7 X
Track quality 100.0 %
Test CRC BC5E57FB
Copy CRC BC5E57FB
Track not present in AccurateRip database
Copy OK

Track 2

Filename G:\My Rips\Chris Cornell\Chris Cornell - Songbook (2011) [FLAC] {Universal 0602527870182}\02 - Scar On The Sky.wav

Peak level 100.0 %
Extraction speed 1.9 X
Track quality 100.0 %
Test CRC 72CD66A2
Copy CRC 72CD66A2
Track not present in AccurateRip database
Copy OK

Track 3

Filename G:\My Rips\Chris Cornell\Chris Cornell - Songbook (2011) [FLAC] {Universal 0602527870182}\03 - Call Me A Dog.wav

Peak level 100.0 %
Extraction speed 2.2 X
Track quality 100.0 %
Test CRC FB8B919B
Copy CRC FB8B919B
Track not present in AccurateRip database
Copy OK

Track 4

Filename G:\My Rips\Chris Cornell\Chris Cornell - Songbook (2011) [FLAC] {Universal 0602527870182}\04 - Ground Zero.wav

Peak level 100.0 %
Extraction speed 2.1 X
Track quality 100.0 %
Test CRC 0C16AADA
Copy CRC 0C16AADA
Track not present in AccurateRip database
Copy OK

Track 5

Filename G:\My Rips\Chris Cornell\Chris Cornell - Songbook (2011) [FLAC] {Universal 0602527870182}\05 - Can't Change Me.wav

Peak level 100.0 %
Extraction speed 2.4 X
Track quality 100.0 %
Test CRC 2E8FB2FC
Copy CRC 2E8FB2FC
Track not present in AccurateRip database
Copy OK

Track 6

Filename G:\My Rips\Chris Cornell\Chris Cornell - Songbook (2011) [FLAC] {Universal 0602527870182}\06 - I Am The Highway.wav

Peak level 100.0 %
Extraction speed 2.4 X
Track quality 100.0 %
Test CRC 3AAC043A
Copy CRC 3AAC043A
Track not present in AccurateRip database
Copy OK

Track 7

Filename G:\My Rips\Chris Cornell\Chris Cornell - Songbook (2011) [FLAC] {Universal 0602527870182}\07 - Thank You.wav

Peak level 100.0 %
Extraction speed 2.6 X
Track quality 100.0 %
Test CRC 72BD2FD9
Copy CRC 72BD2FD9
Track not present in AccurateRip database
Copy OK

Track 8

Filename G:\My Rips\Chris Cornell\Chris Cornell - Songbook (2011) [FLAC] {Universal 0602527870182}\08 - Cleaning My Gun.wav

Peak level 100.0 %
Extraction speed 2.8 X
Track quality 100.0 %
Test CRC 69DC6908
Copy CRC 69DC6908
Track not present in AccurateRip database
Copy OK

Track 9

Filename G:\My Rips\Chris Cornell\Chris Cornell - Songbook (2011) [FLAC] {Universal 0602527870182}\09 - Wide Awake.wav

Peak level 100.0 %
Extraction speed 2.7 X
Track quality 100.0 %
Test CRC C848C607
Copy CRC C848C607
Track not present in AccurateRip database
Copy OK

Track 10

Filename G:\My Rips\Chris Cornell\Chris Cornell - Songbook (2011) [FLAC] {Universal 0602527870182}\10 - Fell On Black Days.wav

Peak level 100.0 %
Extraction speed 3.1 X
Track quality 100.0 %
Test CRC 15A10235
Copy CRC 15A10235
Track not present in AccurateRip database
Copy OK

Track 11

Filename G:\My Rips\Chris Cornell\Chris Cornell - Songbook (2011) [FLAC] {Universal 0602527870182}\11 - All Night Thing.wav

Peak level 100.0 %
Extraction speed 3.0 X
Track quality 100.0 %
Test CRC 99A7B9C9
Copy CRC 99A7B9C9
Track not present in AccurateRip database
Copy OK

Track 12

Filename G:\My Rips\Chris Cornell\Chris Cornell - Songbook (2011) [FLAC] {Universal 0602527870182}\12 - Doesn't Remind Me.wav

Peak level 100.0 %
Extraction speed 3.2 X
Track quality 100.0 %
Test CRC C0A6D44F
Copy CRC C0A6D44F
Track not present in AccurateRip database
Copy OK

Track 13

Filename G:\My Rips\Chris Cornell\Chris Cornell - Songbook (2011) [FLAC] {Universal 0602527870182}\13 - Like A Stone.wav

Peak level 100.0 %
Extraction speed 3.3 X
Track quality 100.0 %
Test CRC C9649171
Copy CRC C9649171
Track not present in AccurateRip database
Copy OK

Track 14

Filename G:\My Rips\Chris Cornell\Chris Cornell - Songbook (2011) [FLAC] {Universal 0602527870182}\14 - Black Hole Sun.wav

Peak level 100.0 %
Extraction speed 3.4 X
Track quality 100.0 %
Test CRC B99CA612
Copy CRC B99CA612
Track not present in AccurateRip database
Copy OK

Track 15

Filename G:\My Rips\Chris Cornell\Chris Cornell - Songbook (2011) [FLAC] {Universal 0602527870182}\15 - Imagine.wav

Peak level 100.0 %
Extraction speed 3.5 X
Track quality 100.0 %
Test CRC 22152793
Copy CRC 22152793
Track not present in AccurateRip database
Copy OK

Track 16

Filename G:\My Rips\Chris Cornell\Chris Cornell - Songbook (2011) [FLAC] {Universal 0602527870182}\16 - The Keeper.wav

Peak level 100.0 %
Extraction speed 3.5 X
Track quality 100.0 %
Test CRC C913E487
Copy CRC C913E487
Track not present in AccurateRip database
Copy OK


None of the tracks are present in the AccurateRip database

No errors occurred

End of status report

==== Log checksum 5962803E7D7E06FD8211F1586F04DC45B0CD9F35D27A751C76865CFA70D3EB21 ====

[CUETools log; Date: 22.05.2020 17:19:27; Version: 2.1.6]
[CTDB TOCID: jCoi.V9Trp57ys7pO3_i8XX1d5E-] found.
Track | CTDB Status
1 | (539/541) Accurately ripped
2 | (538/541) Accurately ripped
3 | (539/541) Accurately ripped
4 | (539/541) Accurately ripped
5 | (539/541) Accurately ripped
6 | (539/541) Accurately ripped
7 | (536/541) Accurately ripped
8 | (536/541) Accurately ripped
9 | (537/541) Accurately ripped
10 | (536/541) Accurately ripped
11 | (537/541) Accurately ripped
12 | (538/541) Accurately ripped
13 | (539/541) Accurately ripped
14 | (534/541) Accurately ripped
15 | (534/541) Accurately ripped
16 | (534/541) Accurately ripped
[AccurateRip ID: 00274528-01da04d5-f70fdb10] found.
Track [ CRC | V2 ] Status
01 [137d4ee6|46007553] (023+165/207) Accurately ripped
02 [b1097942|46653c93] (023+165/207) Accurately ripped
03 [beb98709|f7aa20a9] (021+165/205) Accurately ripped
04 [078057c1|4c3fc3f1] (021+164/204) Accurately ripped
05 [5aaaf32f|848b61b1] (022+165/206) Accurately ripped
06 [6c343300|acc2bdb1] (020+166/207) Accurately ripped
07 [a27d4054|c44a8a04] (021+164/204) Accurately ripped
08 [1c76ee3c|1d70d7a8] (022+162/203) Accurately ripped
09 [ac1c18d2|d16a08d5] (022+164/205) Accurately ripped
10 [7a3b58fa|65fb8919] (021+165/205) Accurately ripped
11 [3b5067b7|56a1066e] (022+164/205) Accurately ripped
12 [cab6260c|f77ed9d6] (022+164/205) Accurately ripped
13 [ebb7d5ef|1a4aa4eb] (022+165/206) Accurately ripped
14 [a76c0c8b|44396c90] (022+165/206) Accurately ripped
15 [178dce19|5459d5ac] (022+165/206) Accurately ripped
16 [027e9c63|7f08d66c] (022+163/204) Accurately ripped
Offsetted by -670:
01 [f4430322] (000/207) No match (V2 was not tested)
02 [58b0f81b] (000/207) No match (V2 was not tested)
03 [7e8ef37b] (000/205) No match (V2 was not tested)
04 [48ef7228] (000/204) No match (V2 was not tested)
05 [cad92c89] (000/206) No match (V2 was not tested)
06 [4430f322] (000/207) No match (V2 was not tested)
07 [d2fa43d8] (000/204) No match (V2 was not tested)
08 [6bc5aea5] (000/203) No match (V2 was not tested)
09 [8cc88ae7] (000/205) No match (V2 was not tested)
10 [4dcae886] (000/205) No match (V2 was not tested)
11 [16dcab8f] (000/205) No match (V2 was not tested)
12 [3813c529] (000/205) No match (V2 was not tested)
13 [8bbac54d] (000/206) No match (V2 was not tested)
14 [8ef1cc89] (000/206) No match (V2 was not tested)
15 [039b7430] (000/206) No match (V2 was not tested)
16 [afcead4f] (000/204) No match (V2 was not tested)
Offsetted by -66:
01 [b24aaa60] (000/207) No match (V2 was not tested)
02 [adc63904] (000/207) No match (V2 was not tested)
03 [d8f91352] (000/205) No match (V2 was not tested)
04 [c682acbd] (000/204) No match (V2 was not tested)
05 [ed7e1c33] (000/206) No match (V2 was not tested)
06 [daa7f2cb] (000/207) No match (V2 was not tested)
07 [5716713a] (000/204) No match (V2 was not tested)
08 [80a4d217] (000/203) No match (V2 was not tested)
09 [0ac19dba] (000/205) No match (V2 was not tested)
10 [a412652d] (000/205) No match (V2 was not tested)
11 [123b0f21] (000/205) No match (V2 was not tested)
12 [d1edfb87] (000/205) No match (V2 was not tested)
13 [61ad0395] (000/206) No match (V2 was not tested)
14 [9e55584d] (000/206) No match (V2 was not tested)
15 [d7fe02bc] (000/206) No match (V2 was not tested)
16 [ed5bb437] (000/204) No match (V2 was not tested)
Offsetted by -12:
01 [db82c216] (000/207) No match (V2 was not tested)
02 [55402fb6] (000/207) No match (V2 was not tested)
03 [bff19fa3] (000/205) No match (V2 was not tested)
04 [4269997d] (000/204) No match (V2 was not tested)
05 [e43077d1] (000/206) No match (V2 was not tested)
06 [bbd8f0f6] (000/207) No match (V2 was not tested)
07 [47eea93e] (000/204) No match (V2 was not tested)
08 [b625ea13] (000/203) No match (V2 was not tested)
09 [7d3ee569] (000/205) No match (V2 was not tested)
10 [c7d1ed61] (000/205) No match (V2 was not tested)
11 [0e96a5a2] (000/205) No match (V2 was not tested)
12 [28d677c3] (000/205) No match (V2 was not tested)
13 [b6b96257] (000/206) No match (V2 was not tested)
14 [ac16fc7c] (000/206) No match (V2 was not tested)
15 [977a060d] (000/206) No match (V2 was not tested)
16 [d01b2c5b] (000/204) No match (V2 was not tested)
Offsetted by -6:
01 [54314b1a] (000/207) No match (V2 was not tested)
02 [a2db7397] (000/207) No match (V2 was not tested)
03 [ef0bf01b] (000/205) No match (V2 was not tested)
04 [f82c4c43] (000/204) No match (V2 was not tested)
05 [fa587f6d] (000/206) No match (V2 was not tested)
06 [639e156e] (000/207) No match (V2 was not tested)
07 [eb1ffe7c] (000/204) No match (V2 was not tested)
08 [eda3f15b] (000/203) No match (V2 was not tested)
09 [40ab53b6] (000/205) No match (V2 was not tested)
10 [75d37725] (000/205) No match (V2 was not tested)
11 [35ec3745] (000/205) No match (V2 was not tested)
12 [f8382d18] (000/205) No match (V2 was not tested)
13 [096ebfaa] (000/206) No match (V2 was not tested)
14 [6fa09299] (000/206) No match (V2 was not tested)
15 [577eea13] (000/206) No match (V2 was not tested)
16 [e94ce45f] (000/204) No match (V2 was not tested)
Offsetted by 6:
01 [941bcd8d] (000/207) No match
02 [b4a1c43d] (000/207) No match
03 [5ebe0435] (000/205) No match
04 [912a36e9] (000/204) No match (V2 was not tested)
05 [031b66f6] (000/206) No match (V2 was not tested)
06 [1ba1ffdb] (002/207) Accurately ripped
07 [450aa8cf] (000/204) No match (V2 was not tested)
08 [b7708525] (000/203) No match (V2 was not tested)
09 [c0c58bac] (000/205) No match (V2 was not tested)
10 [28fd36ba] (000/205) No match (V2 was not tested)
11 [81899826] (000/205) No match (V2 was not tested)
12 [8dacf661] (000/205) No match (V2 was not tested)
13 [86f6ec4f] (000/206) No match (V2 was not tested)
14 [4e04bead] (000/206) No match (V2 was not tested)
15 [d7bbb215] (000/206) No match (V2 was not tested)
16 [1bb05467] (000/204) No match (V2 was not tested)

Track Peak [ CRC32 ] [W/O NULL] [ LOG ]
– 100,0 [8CC891D0] [D03BB6B8]
01 100,0 [BC5E57FB] [E45C502A] CRC32
02 100,0 [72CD66A2] [D0B983FF] CRC32
03 100,0 [FB8B919B] [E21886ED] CRC32
04 100,0 [0C16AADA] [42CD8799] CRC32
05 100,0 [2E8FB2FC] [0E492908] CRC32
06 100,0 [3AAC043A] [67C1EB89] CRC32
07 100,0 [72BD2FD9] [CAC678CE] CRC32
08 100,0 [69DC6908] [D8CE8A0C] CRC32
09 100,0 [C848C607] [3A360B52] CRC32
10 100,0 [15A10235] [186158D6] CRC32
11 100,0 [99A7B9C9] [0821075A] CRC32
12 100,0 [C0A6D44F] [F7BD472D] CRC32
13 100,0 [C9649171] [B18E4EA2] CRC32
14 100,0 [B99CA612] [AA162DF8] CRC32
15 100,0 [22152793] [796D1864] CRC32
16 100,0 [C913E487] [AA9FB47B] CRC32

Chris Cornell - Songbook (2011)


All thanks go to the original ripper(s) …

>>> My Blog <<<

DOWNLOAD: