Subcategories

Chris De Burgh - Into The Light (1986)

Posted By: v3122
Chris De Burgh - Into The Light (1986)

Chris De Burgh - Into The Light (1986)
EAC | Flac(Image) + Cue + Log & MP3 CBR 320Kbps
A&M, CD 5121 | ~ 313 or 122 Mb | Scans(jpg) -> 69 Mb
Pop, Pop Rock

Into the Light contains Chris de Burgh's highest-charting single with the ballroom elegance of "Lady in Red," peaking at number three in 1987 and remaining on the Billboard charts for 14 weeks. This song, with its sweeping romantic tempo and classy feel, is reminiscent of Eric Clapton's "Wonderful Tonight" as de Burgh's sincere flattery for his lover is exquisitely sung. Even his voice seems more pronounced, as it resonates and then lowers into a softer tone. Besides the hit single, much of the album remains lush and mellow in the style of de Burgh's usual ballads. On songs like "Last Night" and "Spirit of Man," his seriousness and honesty break through to showcase his passion for his work. Although the music on the album is slow paced, this doesn't take away from de Burgh's appealing blend of dignified lyrics and late-night sound. The flyaway chorus in "Saying Goodbye to It All" makes this song the second best on the album. Here, de Burgh sparks some energy with a slightly quicker stride than most of the album's material. Even "Fire in the Water" contains an attractive hitch of its own kind. While Into the Light may not be his best work, its lavish, posh feel sets it apart from much of his other slower recordings.

by Mike DeGagne, allmusic
Chris De Burgh - Into The Light (1986):

Chris De Burgh - Into The Light (1986)

Tracklist:

01. Last Night 6:09
02. Fire On The Water 4:31
03. The Ballrom Of Romance 4:28
04. The Lady In Red 4:16
05. Say Goodbye To It All 5:23
06. The Spirit Of Man 4:41
07. Fatal Hesitation 4:18
08. One Word (Straight To The Heart) 4:33
09. For Rosanna 3:40
10. The Leader 2:16
11. The Vision 3:14
12. What About Me? 3:06

Exact Audio Copy V1.3 from 2. September 2016

EAC extraction logfile from 23. February 2017, 22:08

Chris De Burgh / Into The Light (CD 5121)

Used drive : PLEXTOR DVDR PX-891SA Adapter: 1 ID: 0

Read mode : Secure
Utilize accurate stream : Yes
Defeat audio cache : Yes
Make use of C2 pointers : No

Read offset correction : 6
Overread into Lead-In and Lead-Out : No
Fill up missing offset samples with silence : Yes
Delete leading and trailing silent blocks : No
Null samples used in CRC calculations : Yes
Used interface : Native Win32 interface for Win NT & 2000

Used output format : User Defined Encoder
Selected bitrate : 128 kBit/s
Quality : High
Add ID3 tag : No
Command line compressor : C:\Program Files (x86)\Exact Audio Copy\Flac\flac.exe
Additional command line options : -V -8 -T "Genre=%genre%" -T "Artist=%artist%" -T "Title=%title%" -T "Album=%albumtitle%" -T "Date=%year%" -T "Tracknumber=%tracknr%" -T "Comment=%comment%" %source%


TOC of the extracted CD

Track | Start | Length | Start sector | End sector
––––––––––––––––––––––––––––-
1 | 0:00.32 | 6:09.18 | 32 | 27724
2 | 6:09.50 | 4:30.67 | 27725 | 48041
3 | 10:40.42 | 4:27.38 | 48042 | 68104
4 | 15:08.05 | 4:16.37 | 68105 | 87341
5 | 19:24.42 | 5:22.50 | 87342 | 111541
6 | 24:47.17 | 4:41.28 | 111542 | 132644
7 | 29:28.45 | 4:17.47 | 132645 | 151966
8 | 33:46.17 | 4:33.10 | 151967 | 172451
9 | 38:19.27 | 3:39.60 | 172452 | 188936
10 | 41:59.12 | 2:16.03 | 188937 | 199139
11 | 44:15.15 | 3:13.62 | 199140 | 213676
12 | 47:29.02 | 3:06.30 | 213677 | 227656


Range status and errors

Selected range

Filename H:\dafnaplus\Chris de Burgh ‎- Into The Light\Chris De Burgh - Into The Light (CD 5121).wav

Peak level 90.6 %
Extraction speed 7.4 X
Range quality 100.0 %
Test CRC 70F2F291
Copy CRC 70F2F291
Copy OK

No errors occurred


AccurateRip summary

Track 1 accurately ripped (confidence 3) [E98523F6] (AR v2)
Track 2 accurately ripped (confidence 3) [A0FBE805] (AR v2)
Track 3 accurately ripped (confidence 3) [4C15316F] (AR v2)
Track 4 accurately ripped (confidence 3) [03CF178F] (AR v2)
Track 5 accurately ripped (confidence 3) [6430C48D] (AR v2)
Track 6 accurately ripped (confidence 3) [3B855B41] (AR v2)
Track 7 accurately ripped (confidence 3) [FA4E83BF] (AR v2)
Track 8 accurately ripped (confidence 3) [9DAAA0F0] (AR v2)
Track 9 accurately ripped (confidence 3) [AFA42986] (AR v2)
Track 10 accurately ripped (confidence 3) [25A22A73] (AR v2)
Track 11 accurately ripped (confidence 3) [109B68A2] (AR v2)
Track 12 accurately ripped (confidence 3) [6A2C56F2] (AR v2)

All tracks accurately ripped

End of status report

–– CUETools DB Plugin V2.1.6

[CTDB TOCID: 6r6zYtDkqBPiyg9F9NxuGH5RPQQ-] found
Submit result: 6r6zYtDkqBPiyg9F9NxuGH5RPQQ- has been confirmed
Track | CTDB Status
1 | (14/15) Accurately ripped
2 | (14/15) Accurately ripped
3 | (14/15) Accurately ripped
4 | (14/15) Accurately ripped
5 | (13/15) Accurately ripped
6 | (13/15) Accurately ripped
7 | (13/15) Accurately ripped
8 | (13/15) Accurately ripped
9 | (13/15) Accurately ripped
10 | (13/15) Accurately ripped
11 | (13/15) Accurately ripped
12 | (12/15) Accurately ripped


==== Log checksum 77086468B43215062FD77ED8F3F71E436CA0577955E07DDBB87FDE12181089D2 ====


[CUETools log; Date: 05.08.2017 9:20:44; Version: 2.1.5]
Pregap length 00:00:32.
[CTDB TOCID: 6r6zYtDkqBPiyg9F9NxuGH5RPQQ-] found.
Track | CTDB Status
1 | (17/18) Accurately ripped
2 | (17/18) Accurately ripped
3 | (17/18) Accurately ripped
4 | (17/18) Accurately ripped
5 | (16/18) Accurately ripped
6 | (16/18) Accurately ripped
7 | (16/18) Accurately ripped
8 | (16/18) Accurately ripped
9 | (16/18) Accurately ripped
10 | (16/18) Accurately ripped
11 | (16/18) Accurately ripped
12 | (15/18) Accurately ripped
[AccurateRip ID: 0018dc4f-00e304bc-960bdb0c] found.
Track [ CRC | V2 ] Status
01 [077b1faa|e98523f6] (04+04/37) Accurately ripped
02 [544a7264|a0fbe805] (04+04/37) Accurately ripped
03 [19aff750|4c15316f] (04+04/36) Accurately ripped
04 [86eded1d|03cf178f] (04+04/38) Accurately ripped
05 [c27cc051|6430c48d] (04+04/38) Accurately ripped
06 [e710706b|3b855b41] (04+04/37) Accurately ripped
07 [cf66d709|fa4e83bf] (04+04/37) Accurately ripped
08 [2dba8cf1|9daaa0f0] (04+04/37) Accurately ripped
09 [d8063e28|afa42986] (04+04/37) Accurately ripped
10 [06ed19d8|25a22a73] (04+04/35) Accurately ripped
11 [5f45ad4f|109b68a2] (04+04/35) Accurately ripped
12 [73a70eb3|6a2c56f2] (04+04/36) Accurately ripped
Offsetted by 2228:
01 [220aafa1] (15/37) Accurately ripped
02 [8589d4cf] (14/37) Accurately ripped
03 [c61c1394] (14/36) Accurately ripped
04 [a13957ab] (15/38) Accurately ripped
05 [a613ee67] (15/38) Accurately ripped
06 [11e0e4d8] (15/37) Accurately ripped
07 [324c5c99] (15/37) Accurately ripped
08 [4ccc97e6] (15/37) Accurately ripped
09 [e0b03c6c] (16/37) Accurately ripped
10 [2000c8db] (15/35) Accurately ripped
11 [f8a2bb18] (15/35) Accurately ripped
12 [d7aa8b0c] (15/36) Accurately ripped
Offsetted by -71:
01 [0abf1d9c] (00/37) No match (V2 was not tested)
02 [36fb133d] (00/37) No match (V2 was not tested)
03 [4585360c] (00/36) No match (V2 was not tested)
04 [97b3d630] (00/38) No match (V2 was not tested)
05 [6d08c9c3] (00/38) No match (V2 was not tested)
06 [22b437a0] (00/37) No match
07 [e4841bd1] (00/37) No match
08 [e0700297] (00/37) No match
09 [2a008b02] (00/37) No match
10 [4798a615] (00/35) No match
11 [992f4b30] (00/35) No match
12 [8e64be2d] (00/36) No match
Offsetted by 1218:
01 [40a0f937] (00/37) No match (V2 was not tested)
02 [d4c1536c] (00/37) No match (V2 was not tested)
03 [8df7d56a] (00/36) No match (V2 was not tested)
04 [329d45db] (00/38) No match (V2 was not tested)
05 [83b8d764] (00/38) No match (V2 was not tested)
06 [97f7a87c] (00/37) No match (V2 was not tested)
07 [6f81d30e] (00/37) No match (V2 was not tested)
08 [fa832ea4] (00/37) No match (V2 was not tested)
09 [2275bfb5] (00/37) No match (V2 was not tested)
10 [8ff33be8] (00/35) No match (V2 was not tested)
11 [8889f8c3] (00/35) No match
12 [8ea5c722] (00/36) No match (V2 was not tested)

Track Peak [ CRC32 ] [W/O NULL] [ LOG ]
– 90,6 [70F2F291] [E8113CE8] CRC32
01 83,3 [1CDB5CEB] [540C4C71]
02 79,2 [B1A95472] [A2764A54]
03 90,4 [26F1B38E] [88228BE2]
04 90,6 [3908F46E] [10C5FB62]
05 87,1 [0CCA01B8] [31338253]
06 79,0 [96E7FF22] [0A698A3B]
07 78,0 [49CCA70B] [8AFD7EED]
08 88,6 [FF190CB7] [B332EB72]
09 56,8 [1F7A17D9] [2571AF3A]
10 53,3 [01B988FF] [449AE2EB]
11 86,5 [0D3C6084] [13BD8B7F]
12 84,0 [8898841E] [7F88D807]


Chris De Burgh - Into The Light (1986)

All thanks go to dafnaplus

Download Chris De Burgh - Into The Light (1986):