Tags
Language
Tags

Chris Norman - Diamond Star Collection (1995)

Posted By: popsakov
Chris Norman - Diamond Star Collection (1995)

Chris Norman - Diamond Star Collection (1995)
EAC Rip | FLAC (Img) + Cue + Log ~ 449 Mb | MP3 CBR320 ~ 160 Mb
Full Scans ~ 99 Mb | 01:06:15 | RAR 5% Recovery
Pop Rock, Soft Rock, Euro-Disco | Arcade #8800300

Diamond Star Collection is a compilation album by Chris Norman (ex lead singer of Smokie), released in 1995 by Arcade Records. Known for his solo hits in the 1980s as well as his hits with the band Smokie in the '70s, Chris Norman is a British soft rock singer with an international following whose career spans several decades. As Smokie's popularity trailed off around the turn of the decade, Norman split from the band and made his solo album debut in 1982 with Rock Away Your Teardrops. While his debut album was fairly unsuccessful, his second full-length effort, Some Hearts Are Diamonds (1986), was another story, spawning the international Top Ten smash hit single "Midnight Lady." Norman's popularity was greatest in Germany, where he racked up several additional hits during the late '80s, among them "No Arms Can Ever Hold You," "Sarah (You Take My Breath Away)," and "Broken Heroes."

***************

Track List:

01. Midnight Lady [5:03]
02. Some Hearts Are Diamonds [3:44]
03. Chain Reaction [3:40]
04. No Arms Can Ever Hold You [3:45]
05. Ordinary Heart [3:55]
06. Sarah (You Take My Breath Away) [5:57]
07. Woman In Love [4:28]
08. Wheels Of Fire [4:13]
09. Love For Sale [3:25]
10. Broken Heroes [3:22]
11. For The Good Years [4:46]
12. Hunters Of The Night [4:05]
13. It's A Tragedy [3:42]
14. Here Comes The Night [4:46]
15. She Said She Was A Lucky Girl [3:17]
16. Till The Night We Meet Again [4:12]

Exact Audio Copy V1.3 from 2. September 2016

EAC extraction logfile from 30. May 2020, 20:43

Chris Norman / Diamond Star Collection

Used drive : ASUS DRW-24D5MT Adapter: 1 ID: 0

Read mode : Secure
Utilize accurate stream : Yes
Defeat audio cache : Yes
Make use of C2 pointers : No

Read offset correction : 6
Overread into Lead-In and Lead-Out : No
Fill up missing offset samples with silence : Yes
Delete leading and trailing silent blocks : No
Null samples used in CRC calculations : Yes
Used interface : Native Win32 interface for Win NT & 2000

Used output format : User Defined Encoder
Selected bitrate : 128 kBit/s
Quality : High
Add ID3 tag : No
Command line compressor : C:\Program Files (x86)\Exact Audio Copy\FLAC\FLAC.EXE
Additional command line options : -V -8 -T "Date=%year%" -T "Genre=%genre%" %source%


TOC of the extracted CD

Track | Start | Length | Start sector | End sector
––––––––––––––––––––––––––––-
1 | 0:00.32 | 5:02.25 | 32 | 22706
2 | 5:02.57 | 3:43.60 | 22707 | 39491
3 | 8:46.42 | 3:40.00 | 39492 | 55991
4 | 12:26.42 | 3:44.43 | 55992 | 72834
5 | 16:11.10 | 3:54.22 | 72835 | 90406
6 | 20:05.32 | 5:56.65 | 90407 | 117171
7 | 26:02.22 | 4:27.58 | 117172 | 137254
8 | 30:30.05 | 4:12.52 | 137255 | 156206
9 | 34:42.57 | 3:24.63 | 156207 | 171569
10 | 38:07.45 | 3:21.37 | 171570 | 186681
11 | 41:29.07 | 4:45.23 | 186682 | 208079
12 | 46:14.30 | 4:04.40 | 208080 | 226419
13 | 50:18.70 | 3:41.47 | 226420 | 243041
14 | 54:00.42 | 4:45.45 | 243042 | 264461
15 | 58:46.12 | 3:16.58 | 264462 | 279219
16 | 62:02.70 | 4:11.62 | 279220 | 298106


Range status and errors

Selected range

Filename F:\ЕАС\rwa12\Chris Norman - Diamond Star Collection.wav

Peak level 94.0 %
Extraction speed 1.9 X
Range quality 100.0 %
Test CRC 3C9BE8C4
Copy CRC 3C9BE8C4
Copy OK

No errors occurred


AccurateRip summary

Track 1 accurately ripped (confidence 2) [DB3D1669] (AR v2)
Track 2 accurately ripped (confidence 2) [E29B17E1] (AR v2)
Track 3 accurately ripped (confidence 2) [8790D922] (AR v2)
Track 4 accurately ripped (confidence 2) [773B04BD] (AR v2)
Track 5 accurately ripped (confidence 2) [36368F0A] (AR v2)
Track 6 accurately ripped (confidence 2) [E4C267CC] (AR v2)
Track 7 accurately ripped (confidence 2) [BEEEA186] (AR v2)
Track 8 accurately ripped (confidence 2) [F7C290E5] (AR v2)
Track 9 accurately ripped (confidence 2) [F08D5251] (AR v2)
Track 10 accurately ripped (confidence 2) [B950A40B] (AR v2)
Track 11 accurately ripped (confidence 2) [E89E144F] (AR v2)
Track 12 accurately ripped (confidence 2) [D49E459D] (AR v2)
Track 13 accurately ripped (confidence 2) [D8F720EB] (AR v2)
Track 14 accurately ripped (confidence 2) [08B610C9] (AR v2)
Track 15 accurately ripped (confidence 2) [4E7F1D43] (AR v2)
Track 16 accurately ripped (confidence 2) [0D8CDD95] (AR v2)

All tracks accurately ripped

End of status report

–– CUETools DB Plugin V2.1.6

[CTDB TOCID: ePvIIQIrX2ToG4uVamG.Hr6Sku4-] found
Submit result: ePvIIQIrX2ToG4uVamG.Hr6Sku4- has been confirmed
Track | CTDB Status
1 | (4/4) Accurately ripped
2 | (4/4) Accurately ripped
3 | (4/4) Accurately ripped
4 | (4/4) Accurately ripped
5 | (4/4) Accurately ripped
6 | (4/4) Accurately ripped
7 | (4/4) Accurately ripped
8 | (4/4) Accurately ripped
9 | (4/4) Accurately ripped
10 | (4/4) Accurately ripped
11 | (4/4) Accurately ripped
12 | (4/4) Accurately ripped
13 | (4/4) Accurately ripped
14 | (4/4) Accurately ripped
15 | (4/4) Accurately ripped
16 | (4/4) Accurately ripped


==== Log checksum 9E6DE6E7467D5022B8282BBAA33C8CCD2EE1906F38A49FBC456A29D63C28392F ====

Chris Norman - Diamond Star Collection (1995)


All thanks go to rwa12

>>> Chris Norman in my Blog <<<

DOWNLOAD: