Subcategories
Tags
Language
Tags

Chris Rea - Dancing With Strangers (1987) {Japan 1st Press}

Posted By: popsakov
Chris Rea - Dancing With Strangers (1987) {Japan 1st Press}

Chris Rea - Dancing With Strangers (1987) {Japan 1st Press}
EAC Rip | FLAC (Img) + Cue + Log ~ 361 Mb | MP3 CBR320 ~ 144 Mb
Scans Included | 00:59:05 | RAR 5% Recovery
Soft Rock, Country Rock | Magnet / Victor Musical Industries #VDP-1232

Dancing with Strangers is the ninth studio album by British singer-songwriter Chris Rea, released in 1987. It became Rea's first major success in UK, peaking at #2, behind Michael Jackson's Bad, and spent 46 weeks in the charts, achieving Platinum accreditation. It reached the Top 10 in six other European countries, while in New Zealand it became a number one album. "Let's Dance" was released as the first single and, like the album, became a major hit for Rea in UK, peaking at #12. In tone with the success of the album, "Let's Dance" became a major hit in New Zealand as well, peaking at #2. The other singles released from this album were "Loving You Again" (UK #47), "Joys of Christmas" (UK #67) and "Que Sera" (UK #73).

***************

Chris Rea - Dancing With Strangers (1987) {Japan 1st Press}

Chris Rea - Dancing With Strangers (1987) {Japan 1st Press}

Track List:

01. Joys Of Christmas [5:15]
02. I Can't Dance To That [4:19]
03. Windy Town [4:25]
04. Gonna Buy A Hat [4:25]
05. Curse Of The Traveller [6:26]
06. Let's Dance [4:08]
07. Que Sera [5:19]
08. Josie's Tune [2:23]
09. Loving You Again [5:41]
10. That Girl Of Mine [3:41]
11. September Blue [3:08]
12. I Don't Care Any More [2:11]
13. Donahue's Broken Wheel [3:05]
14. Danielle's Breakfast [4:37]

Exact Audio Copy V1.0 beta 3 from 29. August 2011

Отчёт EAC об извлечении, выполненном 14. января 2013, 15:33

Chris Rea / Dancing With Strangers [VDP-1232]

Дисковод: TSSTcorpCDDVDW SH-224BB Adapter: 0 ID: 1

Режим чтения : Достоверность
Использование точного потока : Да
Отключение кэша аудио : Да
Использование указателей C2 : Нет

Коррекция смещения при чтении : 6
Способность читать области Lead-in и Lead-out : Нет
Заполнение пропущенных сэмплов тишиной : Да
Удаление блоков с тишиной в начале и конце : Нет
При вычислениях CRC использовались нулевые сэмплы : Да
Интерфейс : Встроенный Win32-интерфейс для Win NT/2000

Выходной формат : Пользовательский кодировщик
Выбранный битрейт : 128 kBit/s
Качество : Высокий
Добавление ID3-тега : Нет
Утилита сжатия : C:\Program Files\Exact Audio Copy\Flac\flac.exe
Дополнительные параметры : -V -8 -T "Date=%year%" -T "Genre=%genre%" %source%


TOC извлечённого CD

Трек | Старт | Длительность | Начальный сектор | Конечный сектор
––––––––––––––––––––––––––––––––––-
1 | 0:00.37 | 5:15.28 | 37 | 23689
2 | 5:15.65 | 4:19.32 | 23690 | 43146
3 | 9:35.22 | 4:24.55 | 43147 | 63001
4 | 14:00.02 | 4:24.68 | 63002 | 82869
5 | 18:24.70 | 6:26.32 | 82870 | 111851
6 | 24:51.27 | 4:08.00 | 111852 | 130451
7 | 28:59.27 | 5:19.10 | 130452 | 154386
8 | 34:18.37 | 2:23.33 | 154387 | 165144
9 | 36:41.70 | 5:41.20 | 165145 | 190739
10 | 42:23.15 | 3:41.12 | 190740 | 207326
11 | 46:04.27 | 3:08.08 | 207327 | 221434
12 | 49:12.35 | 2:11.25 | 221435 | 231284
13 | 51:23.60 | 3:04.57 | 231285 | 245141
14 | 54:28.42 | 4:37.30 | 245142 | 265946


Характеристики диапазона извлечения и сообщения об ошибках

Выбранный диапазон

Имя файла C:\Music\Chris Rea\1987 Dancing With Strangers\Chris Rea - Dancing With Strangers [VDP-1232].wav

Пиковый уровень 100.0 %
Скорость извлечения 2.4 X
Качество диапазона 100.0 %
CRC теста 0091AD3A
CRC копии 0091AD3A
Копирование… OK

Ошибок не произошло


AccurateRip: сводка

Трек 1 : извлечено точно (доверие 3) [D45AC89D] (AR v1)
Трек 2 : извлечено точно (доверие 3) [279F1826] (AR v1)
Трек 3 : извлечено точно (доверие 3) [9996F169] (AR v1)
Трек 4 : извлечено точно (доверие 3) [F6D815E5] (AR v1)
Трек 5 : извлечено точно (доверие 3) [9F81585B] (AR v1)
Трек 6 : извлечено точно (доверие 3) [82CB9286] (AR v1)
Трек 7 : извлечено точно (доверие 3) [762A6049] (AR v1)
Трек 8 : извлечено точно (доверие 3) [F112CA21] (AR v1)
Трек 9 : извлечено точно (доверие 3) [55BC8628] (AR v1)
Трек 10 : извлечено точно (доверие 3) [A22AB4AF] (AR v1)
Трек 11 : извлечено точно (доверие 3) [656EE97C] (AR v1)
Трек 12 : извлечено точно (доверие 3) [E0CFCBB3] (AR v1)
Трек 13 : извлечено точно (доверие 3) [A79C0BC1] (AR v1)
Трек 14 : извлечено точно (доверие 3) [DFA28C86] (AR v1)

Все треки извлечены точно

Конец отчёта

==== Контрольная сумма отчёта E7D5B21B4B4760DA5326663EFED2830394835CE48CC84C1BEA1109103DAD4A18 ====

[CUETools log; Date: 21.10.2018 2:22:35; Version: 2.1.6]
Pregap length 00:00:37.
[CTDB TOCID: q9f01Gn8HcaoPAJUUJyQ0TVomXI-] found.
Track | CTDB Status
1 | (13/13) Accurately ripped
2 | (13/13) Accurately ripped
3 | (13/13) Accurately ripped
4 | (13/13) Accurately ripped
5 | (13/13) Accurately ripped
6 | (13/13) Accurately ripped
7 | (13/13) Accurately ripped
8 | (13/13) Accurately ripped
9 | (13/13) Accurately ripped
10 | (13/13) Accurately ripped
11 | (13/13) Accurately ripped
12 | (13/13) Accurately ripped
13 | (13/13) Accurately ripped
14 | (13/13) Accurately ripped
[AccurateRip ID: 0020998a-015621f8-b80dd90e] found.
Track [ CRC | V2 ] Status
01 [d45ac89d|589726f0] (03+08/11) Accurately ripped
02 [279f1826|1fdb1d75] (03+08/11) Accurately ripped
03 [9996f169|384b6e88] (03+08/11) Accurately ripped
04 [f6d815e5|f5e13865] (03+08/11) Accurately ripped
05 [9f81585b|40d74143] (03+08/11) Accurately ripped
06 [82cb9286|32c8834d] (03+08/11) Accurately ripped
07 [762a6049|243e94bb] (03+08/11) Accurately ripped
08 [f112ca21|3fd68ab6] (03+08/11) Accurately ripped
09 [55bc8628|4f13dd2a] (03+08/11) Accurately ripped
10 [a22ab4af|54730d64] (03+08/11) Accurately ripped
11 [656ee97c|87a0dba3] (03+08/11) Accurately ripped
12 [e0cfcbb3|296b334e] (03+08/11) Accurately ripped
13 [a79c0bc1|94b22ec3] (03+08/11) Accurately ripped
14 [dfa28c86|9915add0] (03+08/11) Accurately ripped

Track Peak [ CRC32 ] [W/O NULL] [ LOG ]
– 100,0 [0091AD3A] [B7194623] CRC32
01 95,2 [C3F401F2] [40F31315]
02 85,8 [AD54967A] [3B38C171]
03 93,6 [90096E90] [51F83C76]
04 92,8 [27F1EDD6] [1EED80FF]
05 91,3 [425D3CEC] [7AB88742]
06 76,6 [CE51478E] [39449C05]
07 92,1 [D6DCD4D4] [E3F05B4E]
08 30,0 [05F908F7] [767ACBA4]
09 100,0 [A497A576] [8C85835B]
10 88,3 [BE45DE53] [16DC83D9]
11 59,2 [2DC84279] [C20A7DE1]
12 87,1 [0969F711] [2F802F56]
13 72,8 [5B397401] [ABCBB914]
14 80,0 [07A4ADDB] [7590CE27]

Chris Rea - Dancing With Strangers (1987) {Japan 1st Press}


All thanks go to ikebana

>>> Chris Rea in my Blog <<<

DOWNLOAD: