Tags
Language
Tags
January 2023
Su Mo Tu We Th Fr Sa
1 2 3 4 5 6 7
8 9 10 11 12 13 14
15 16 17 18 19 20 21
22 23 24 25 26 27 28
29 30 31 1 2 3 4

Chris Rea - Tennis (1980) {1986, Japan 1st Press}

Posted By: popsakov
Chris Rea - Tennis (1980) {1986, Japan 1st Press}

Chris Rea - Tennis (1980) {1986, Japan 1st Press}
EAC Rip | FLAC (Img) + Cue + Log ~ 304 Mb | MP3 CBR320 ~ 124 Mb
Covers Included | 00:49:46 | RAR 5% Recovery
Pop Rock, Soft Rock | Magnet / Victor Musical Industries #VDP-1145

Success continued to elude Chris Rea on his third album, Tennis, on which he began to experiment with slightly longer songs and more free-form jamming, the songs "Every Time I See You Smile," "Stick It," and the title track all being over five minutes long. For Tennis, he enlisted the assistance of Raphael Ravenscroft on saxophone fresh from his crowning moment on the Gerry Rafferty "Baker Street" single and Pete Wingfield on keyboards, among many other musicians to contribute to this album, but Chris Rea himself stamped his personal mark on the album, writing all the songs, providing vocals, guitar, and keyboards, and he even dispensed with the need for an outside producer. Hence the Elton John feel of his Gus Dudgeon-produced previous album, Deltics was gone, aside from on the ballad "Every Time I See You Smile," and it was replaced by a variety of styles including the horn-driven "Forever and Ever," the gospel song "Stick It" that closed the album, and the reggae-tinged, guitar-led instrumental "Friends Across the Water." The title track and album opener began with a riff that was reminiscent of Ace's "How Long," and the song structure itself was not dissimilar to 10cc's "Dreadlock Holiday" although far less commercial with its chorus repeating "Do you like tennis?….yes I do." The intro of "Sweet Kiss" was a brooding bassline and Rea used this style to build many of the tracks from a quiet start to a soulful crescendo. Several of the songs on Tennis had excellent melodies including "Since I Don't See You Anymore," "Dancing Girls," and the final track "Stick It" which, had it been recorded by Billy Joel at this time, would no doubt have been a hit. With hindsight, knowing how big Chris Rea became, it was amazing that this album failed to find its niche in the very early '80s and climbed no higher than number 60 in the charts, although there were no killer commercial singles on it, indeed no hit singles at all, and albums appeared to need this prerequisite at that time. A few years earlier during the era of prog rock, singles were totally superfluous to a rock album's degree of success. Even the cover was interesting with hundreds of tennis courts fading into the distant sunset.

~ Sharon Mawer, All Music

***************

Chris Rea - Tennis (1980) {1986, Japan 1st Press}

Chris Rea - Tennis (1980) {1986, Japan 1st Press}

Track List:

01. Tennis [5:18]
02. Sweet kiss [4:37]
03. Since I don't see you anymore [3:44]
04. Dancing girls [4:04]
05. No work today [2:38]
06. Everytime I see you smile [6:23]
07. For ever and ever [4:10]
08. Good news [3:54]
09. Friends across the water [3:44]
10. Distant summers [2:11]
11. Only with you [3:44]
12. Stick it [5:21]

Exact Audio Copy V1.0 beta 3 from 29. August 2011

Отчёт EAC об извлечении, выполненном 18. октября 2014, 16:06

Chris Rea / Tennis [VDP-1145]

Дисковод: ASUS DRW-2014S1 Adapter: 1 ID: 0

Режим чтения : Достоверность
Использование точного потока : Да
Отключение кэша аудио : Да
Использование указателей C2 : Нет

Коррекция смещения при чтении : 6
Способность читать области Lead-in и Lead-out : Нет
Заполнение пропущенных сэмплов тишиной : Да
Удаление блоков с тишиной в начале и конце : Нет
При вычислениях CRC использовались нулевые сэмплы : Да
Интерфейс : Встроенный Win32-интерфейс для Win NT/2000

Выходной формат : Пользовательский кодировщик
Выбранный битрейт : 128 kBit/s
Качество : Высокий
Добавление ID3-тега : Нет
Утилита сжатия : C:\Program Files (x86)\Exact Audio Copy\Flac\flac.exe
Дополнительные параметры : -V -8 -T "Date=%year%" -T "Genre=%genre%" %source%


TOC извлечённого CD

Трек | Старт | Длительность | Начальный сектор | Конечный сектор
––––––––––––––––––––––––––––––––––-
1 | 0:00.37 | 5:17.43 | 37 | 23854
2 | 5:18.05 | 4:36.40 | 23855 | 44594
3 | 9:54.45 | 3:43.70 | 44595 | 61389
4 | 13:38.40 | 4:03.60 | 61390 | 79674
5 | 17:42.25 | 2:38.02 | 79675 | 91526
6 | 20:20.27 | 6:22.48 | 91527 | 120224
7 | 26:43.00 | 4:09.70 | 120225 | 138969
8 | 30:52.70 | 3:53.65 | 138970 | 156509
9 | 34:46.60 | 3:44.17 | 156510 | 173326
10 | 38:31.02 | 2:10.50 | 173327 | 183126
11 | 40:41.52 | 3:43.55 | 183127 | 199906
12 | 44:25.32 | 5:20.73 | 199907 | 223979


Характеристики диапазона извлечения и сообщения об ошибках

Выбранный диапазон

Имя файла Z:\Chris Rea\1980 Tennis\Chris Rea - Tennis [VDP-1145].wav

Пиковый уровень 99.8 %
Скорость извлечения 7.6 X
Качество диапазона 100.0 %
CRC копии 83373B1F
Копирование… OK

Ошибок не произошло


AccurateRip: сводка

Трек 1 : извлечено точно (доверие 2) [449CBF2A] (AR v1)
Трек 2 : извлечено точно (доверие 2) [E85933EA] (AR v1)
Трек 3 : извлечено точно (доверие 2) [B94EF1FD] (AR v1)
Трек 4 : извлечено точно (доверие 2) [00C5B761] (AR v1)
Трек 5 : извлечено точно (доверие 2) [A92C1897] (AR v1)
Трек 6 : извлечено точно (доверие 2) [A2DF36C7] (AR v1)
Трек 7 : извлечено точно (доверие 2) [48B5E01E] (AR v1)
Трек 8 : извлечено точно (доверие 2) [D8FF0801] (AR v1)
Трек 9 : извлечено точно (доверие 2) [44AAB32B] (AR v1)
Трек 10 : извлечено точно (доверие 2) [0DC32EFE] (AR v1)
Трек 11 : извлечено точно (доверие 2) [237074CB] (AR v1)
Трек 12 : извлечено точно (доверие 2) [1A591E70] (AR v1)

Все треки извлечены точно

Конец отчёта

==== Контрольная сумма отчёта 5FFDA09BD40671BCE8A050077ED96CC30D178B3F0098A6D77D2692BDA25E06BA ====

[CUETools log; Date: 14.10.2018 13:28:54; Version: 2.1.6]
Pregap length 00:00:37.
[CTDB TOCID: g1a1wmPvH__WuW3k90Lw5iBSWy8-] found.
Track | CTDB Status
1 | (1/1) Accurately ripped
2 | (1/1) Accurately ripped
3 | (1/1) Accurately ripped
4 | (1/1) Accurately ripped
5 | (1/1) Accurately ripped
6 | (1/1) Accurately ripped
7 | (1/1) Accurately ripped
8 | (1/1) Accurately ripped
9 | (1/1) Accurately ripped
10 | (1/1) Accurately ripped
11 | (1/1) Accurately ripped
12 | (1/1) Accurately ripped
[AccurateRip ID: 0016d825-00d27e1d-920baa0c] found.
Track [ CRC | V2 ] Status
01 [449cbf2a|52d22498] (2+2/4) Accurately ripped
02 [e85933ea|13e5caf5] (2+2/4) Accurately ripped
03 [b94ef1fd|0fa69d58] (2+2/4) Accurately ripped
04 [00c5b761|b422a2c6] (2+2/4) Accurately ripped
05 [a92c1897|f936b89d] (2+2/4) Accurately ripped
06 [a2df36c7|24d44137] (2+2/4) Accurately ripped
07 [48b5e01e|eafb330c] (2+2/4) Accurately ripped
08 [d8ff0801|4590be41] (2+2/4) Accurately ripped
09 [44aab32b|3c80bd68] (2+2/4) Accurately ripped
10 [0dc32efe|d22d291d] (2+2/4) Accurately ripped
11 [237074cb|ecbe5d4d] (2+2/4) Accurately ripped
12 [1a591e70|d4d4bfb3] (2+2/4) Accurately ripped

Track Peak [ CRC32 ] [W/O NULL] [ LOG ]
– 99,8 [83373B1F] [39FB038A] CRC32
01 93,9 [F9A93858] [C2009D01]
02 98,4 [5032C3F9] [ACBBD3C9]
03 92,1 [E90C0159] [CF99CA83]
04 96,4 [FBB1293C] [ABB61AE1]
05 95,4 [C13C091F] [6620FDE1]
06 87,8 [F3E646FA] [E65855F2]
07 96,4 [177CD4EA] [2C3F24D6]
08 95,8 [C054FCF3] [0E6EB359]
09 91,1 [0973B9B1] [38A10881]
10 64,3 [4E3EEB79] [05B6C2CD]
11 99,8 [099E534C] [EA62A7B5]
12 96,4 [0F1D980F] [D37A3858]

Chris Rea - Tennis (1980) {1986, Japan 1st Press}


All thanks go to ikebana

>>> Chris Rea in my Blog <<<

DOWNLOAD: