Tags
Language
Tags

Chris Rea - The Return Of The Fabulous Hofner Bluenotes (2008)

Posted By: popsakov
Chris Rea - The Return Of The Fabulous Hofner Bluenotes (2008)

Chris Rea - The Return Of The Fabulous Hofner Bluenotes (2008)
EAC Rip | FLAC (Img) + Cue + Log ~ 340 Mb | MP3 CBR320 ~ 129 Mb
Full Scans ~ 57 Mb | 00:53:40 | RAR 5% Recovery
Blues, Blues Rock, Soft Rock | Jazzee Blue / Edel Records #0189882ERE

The Return of the Fabulous Hofner Bluenotes is the twenty-second studio album by British singer-songwriter Chris Rea, released in 2008 by his own record label, Jazzee Blue. It comprises three CDs and double 10" Vinyl records in an 80-page hardback book. It is the second album of his project, the Hofner Blue Notes (2003). The project narrates the history of The Delmonts, an imaginary guitar instrumental band from the late 1950s, who in early 1960s evolved into blues band The Hofner Bluenotes. It also gives a brief history of the Hofner guitar, and its importance in the development of music in Britain. The music was recorded by Rea (guitars), Colin Hodgkinson (bass) and Martin Ditcham (drums), who feature in the book, together with Niel Drinkwater and Robert Ahwai.

***************

Chris Rea - The Return Of The Fabulous Hofner Bluenotes (2008)

Track List:

01. Twister Inside [4:14]
02. Legacy Blues [4:11]
03. When The Truth Comes Out [3:25]
04. Blues For Janice [3:49]
05. Because It's You [3:35]
06. Don't Give Your Ace Away [3:30]
07. The Shadow Of A Fool [3:58]
08. Russian Roulette (Instrumental) [3:14]
09. I Will Be With You [4:03]
10. I Can't Wait For Love [3:53]
11. Let's Getaway [3:53]
12. Yes I Do [4:14]
13. Meet Me On The Mountain [4:28]
14. BB Was A Commanche (Instrumental) [3:13]

Exact Audio Copy V1.3 from 2. September 2016

EAC extraction logfile from 24. September 2019, 19:33

Chris Rea / The Return Of The Fabulous Hofner Bluenotes

Used drive : ASUS DRW-24D5MT Adapter: 1 ID: 0

Read mode : Secure
Utilize accurate stream : Yes
Defeat audio cache : Yes
Make use of C2 pointers : No

Read offset correction : 6
Overread into Lead-In and Lead-Out : No
Fill up missing offset samples with silence : Yes
Delete leading and trailing silent blocks : No
Null samples used in CRC calculations : Yes
Used interface : Native Win32 interface for Win NT & 2000

Used output format : User Defined Encoder
Selected bitrate : 128 kBit/s
Quality : High
Add ID3 tag : No
Command line compressor : C:\Program Files (x86)\Exact Audio Copy\FLAC\FLAC.EXE
Additional command line options : -V -8 -T "Date=%year%" -T "Genre=%genre%" %source%


TOC of the extracted CD

Track | Start | Length | Start sector | End sector
––––––––––––––––––––––––––––-
1 | 0:00.00 | 4:14.01 | 0 | 19050
2 | 4:14.01 | 4:11.17 | 19051 | 37892
3 | 8:25.18 | 3:25.05 | 37893 | 53272
4 | 11:50.23 | 3:48.57 | 53273 | 70429
5 | 15:39.05 | 3:34.68 | 70430 | 86547
6 | 19:13.73 | 3:29.45 | 86548 | 102267
7 | 22:43.43 | 3:58.04 | 102268 | 120121
8 | 26:41.47 | 3:13.74 | 120122 | 134670
9 | 29:55.46 | 4:02.58 | 134671 | 152878
10 | 33:58.29 | 3:52.66 | 152879 | 170344
11 | 37:51.20 | 3:53.22 | 170345 | 187841
12 | 41:44.42 | 4:14.07 | 187842 | 206898
13 | 45:58.49 | 4:28.17 | 206899 | 227015
14 | 50:26.66 | 3:13.09 | 227016 | 241499


Range status and errors

Selected range

Filename F:\ЕАС\rwa12\Chris Rea - The Return Of The Fabulous Hofner Bluenotes.wav

Peak level 99.0 %
Extraction speed 2.9 X
Range quality 100.0 %
Test CRC E6358984
Copy CRC E6358984
Copy OK

No errors occurred


AccurateRip summary

Track 1 accurately ripped (confidence 21) [064E263B] (AR v2)
Track 2 accurately ripped (confidence 21) [3A213AE4] (AR v2)
Track 3 accurately ripped (confidence 21) [54DA205F] (AR v2)
Track 4 accurately ripped (confidence 21) [DC080520] (AR v2)
Track 5 accurately ripped (confidence 21) [046048D6] (AR v2)
Track 6 accurately ripped (confidence 21) [0439D377] (AR v2)
Track 7 accurately ripped (confidence 21) [211FE923] (AR v2)
Track 8 accurately ripped (confidence 21) [725375B2] (AR v2)
Track 9 accurately ripped (confidence 21) [DA3A5597] (AR v2)
Track 10 accurately ripped (confidence 21) [81FF8E41] (AR v2)
Track 11 accurately ripped (confidence 21) [CA42C316] (AR v2)
Track 12 accurately ripped (confidence 21) [F74342F8] (AR v2)
Track 13 accurately ripped (confidence 21) [8F4C4DA5] (AR v2)
Track 14 accurately ripped (confidence 21) [8607C898] (AR v2)

All tracks accurately ripped

End of status report

–– CUETools DB Plugin V2.1.6

[CTDB TOCID: uako_z3gMH_tVrAs3U7Gx7KNsP8-] found
Submit result: already submitted
Track | CTDB Status
1 | (55/56) Accurately ripped
2 | (56/56) Accurately ripped
3 | (56/56) Accurately ripped
4 | (56/56) Accurately ripped
5 | (56/56) Accurately ripped
6 | (55/56) Accurately ripped
7 | (56/56) Accurately ripped
8 | (56/56) Accurately ripped
9 | (56/56) Accurately ripped
10 | (55/56) Accurately ripped
11 | (56/56) Accurately ripped
12 | (56/56) Accurately ripped
13 | (56/56) Accurately ripped
14 | (56/56) Accurately ripped


==== Log checksum B6A290F1B19402F59E9163D2892E4ED952E72AF5C64BD94724BCBB61661E57C6 ====

foobar2000 1.4 / Dynamic Range Meter 1.1.1
log date: 2019-09-29 12:48:21

––––––––––––––––––––––––––––––––––––––––
Analyzed: Chris Rea / The Return Of The Fabulous Hofner Bluenotes
––––––––––––––––––––––––––––––––––––––––

DR Peak RMS Duration Track
––––––––––––––––––––––––––––––––––––––––
DR10 -0.09 dB -11.02 dB 4:14 01-Twister Inside
DR8 -0.09 dB -9.02 dB 4:11 02-Legacy Blues
DR9 -0.09 dB -10.64 dB 3:25 03-When The Truth Comes Out
DR9 -0.09 dB -11.06 dB 3:49 04-Blues For Janice
DR8 -0.09 dB -9.47 dB 3:35 05-Because It's You
DR7 -0.09 dB -8.44 dB 3:30 06-Don't Give Your Ace Away
DR8 -0.09 dB -9.48 dB 3:58 07-The Shadow Of A Fool
DR9 -0.09 dB -10.47 dB 3:14 08-Russian Roulette (Instrumental)
DR8 -0.09 dB -9.78 dB 4:03 09-I Will Be With You
DR7 -0.09 dB -9.31 dB 3:53 10-I Can't Wait For Love
DR7 -0.09 dB -8.65 dB 3:53 11-Let's Getaway
DR8 -0.09 dB -9.65 dB 4:14 12-Yes I Do
DR9 -0.09 dB -11.03 dB 4:28 13-Meet Me On The Mountain
DR8 -0.09 dB -10.41 dB 3:13 14-BB Was A Commanche (Instrumental)
––––––––––––––––––––––––––––––––––––––––

Number of tracks: 14
Official DR value: DR8

Samplerate: 44100 Hz
Channels: 2
Bits per sample: 16
Bitrate: 842 kbps
Codec: FLAC
================================================================================

[CUETools log; Date: 29.09.2019 12:48:23; Version: 2.1.6]
[CTDB TOCID: uako_z3gMH_tVrAs3U7Gx7KNsP8-] found.
Track | CTDB Status
1 | (55/56) Accurately ripped
2 | (56/56) Accurately ripped
3 | (56/56) Accurately ripped
4 | (56/56) Accurately ripped
5 | (56/56) Accurately ripped
6 | (55/56) Accurately ripped
7 | (56/56) Accurately ripped
8 | (56/56) Accurately ripped
9 | (56/56) Accurately ripped
10 | (55/56) Accurately ripped
11 | (56/56) Accurately ripped
12 | (56/56) Accurately ripped
13 | (56/56) Accurately ripped
14 | (56/56) Accurately ripped
[AccurateRip ID: 001ba131-0126126f-ad0c940e] found.
Track [ CRC | V2 ] Status
01 [c77df08f|064e263b] (09+21/30) Accurately ripped
02 [ea4c96b5|3a213ae4] (09+21/30) Accurately ripped
03 [659d3fb2|54da205f] (09+21/30) Accurately ripped
04 [1aa73dbd|dc080520] (09+21/30) Accurately ripped
05 [dc52c87c|046048d6] (09+21/30) Accurately ripped
06 [03ecb564|0439d377] (09+21/30) Accurately ripped
07 [ac4548fb|211fe923] (09+21/30) Accurately ripped
08 [3f79b806|725375b2] (09+21/30) Accurately ripped
09 [7b1fe381|da3a5597] (09+21/30) Accurately ripped
10 [220205f0|81ff8e41] (09+21/30) Accurately ripped
11 [97e5c07e|ca42c316] (09+21/30) Accurately ripped
12 [b4a37a26|f74342f8] (09+21/30) Accurately ripped
13 [c47b1f60|8f4c4da5] (08+21/29) Accurately ripped
14 [2bc1390e|8607c898] (08+21/29) Accurately ripped

Track Peak [ CRC32 ] [W/O NULL] [ LOG ]
– 99,0 [E6358984] [B47F08A1] CRC32
01 99,0 [2857A21A] [822D7704]
02 99,0 [A10A5102] [B1223902]
03 99,0 [48D360C7] [2C6D4F36]
04 99,0 [AD37BCF2] [F719FEA4]
05 99,0 [85B78C74] [ECAC5DEE]
06 99,0 [266E5E2A] [209D3380]
07 99,0 [6E3415BD] [E8631C63]
08 99,0 [972EE297] [F4CCBACB]
09 99,0 [19B43917] [26226FAB]
10 99,0 [1863137B] [173B553D]
11 99,0 [FCC287BD] [6AD1DC4A]
12 99,0 [6088CC34] [50B0554B]
13 99,0 [0EA5B592] [D8B3B1E2]
14 99,0 [DD0FCE81] [32A35BC5]

Chris Rea - The Return Of The Fabulous Hofner Bluenotes (2008)


All thanks go to rwa12

>>> Chris Rea in my Blog <<<

DOWNLOAD: