Chris Coco - My Favourite Place (Before Sunset) (2017)

Posted By: shamanicus
Chris Coco - My Favourite Place (Before Sunset) (2017)

Chris Coco - My Favourite Place (Before Sunset) (2017)
EAC Rip | FLAC (tracks+.cue, log) | Artwork (600dpi, png) | 370 mb | MP3 CBR 320kbps | RAR | 239 mb
Instrumental, Downtempo, Baleric | Label: Suburbia Records - SUCD-3004

In the summer of 2016 I lived in Ibiza. I played 50 sunsets on the Spanish island and across the Mediterranean in Italy. When the season was over, reflecting on this busy time, I decided that my favourite place wasn’t so much one physical place, it was more a feeling that occurred at a certain time of day. My favourite place was anywhere, just before sunset, especially if there was a clear view of the sun setting into the sea.

Thinking about that moment and trying to capture the magic of the feeling that it generates became the starting motivation for making this album.

After many discussions with friends and musical colleagues I also came to the conclusion that the illusive thing called Balearic music did not have to be made in Ibiza, or even in the summer. It is often a memory trigger, a longing, a version of a moment in time reinterpreted through the medium of sound. Only one tune in this collection is actually made in Ibiza, the others are mostly collaborations with other artists from more northern places. But they were all started in the sunshine on that special island. They are all made with the vision and the residual memory of the Mediterranean sun in our heads.

Tracklist:

Biology and Management of Unusual Plasma Cell Dyscrasias


01. Chris Coco & Calm - Like Diamonds (06:22)
01. Chris Coco & Camillo Miranda - Dinosaur Baby (Long Version) (11:46)
02. Chris Coco - Before Sunset (04:33)
03. Chris Coco & Camillo Miranda - Dinosaur Baby (05:31)
04. Chris Coco - Una Tarde Calurosa (Album Edit) (06:07)
05. Chris Coco - Every Day Is Today (06:03)
06. Chris Coco & Sansa Illka - Gone To Ground (03:55)
07. Chris Coco & Rune Lindbæk - Lillestrøm (04:48)
08. Chris Coco - Miracle Beach (05:46)
09. Chris Coco & Hush Forever - Something Everything (06:50)
10. Chris Coco - Love Made Me Tough (07:14)
11. Chris Coco & Sacha Puttnam - Space (03:42)
12. Chris Coco & Calm - My Favourite Place (World Of Echo) (06:05)

Biology and Management of Unusual Plasma Cell Dyscrasias



Exact Audio Copy V1.3 from 2. September 2016

EAC extraction logfile from 9. July 2017, 17:56

Chris Coco / My Favourite Place (Before Sunset)

Used drive : BUFFALO Optical Drive Adapter: 1 ID: 0

Read mode : Secure
Utilize accurate stream : Yes
Defeat audio cache : Yes
Make use of C2 pointers : No

Read offset correction : 6
Overread into Lead-In and Lead-Out : No
Fill up missing offset samples with silence : Yes
Delete leading and trailing silent blocks : No
Null samples used in CRC calculations : Yes
Used interface : Native Win32 interface for Win NT & 2000
Gap handling : Appended to previous track

Used output format : User Defined Encoder
Selected bitrate : 1024 kBit/s
Quality : High
Add ID3 tag : No
Command line compressor : C:\Program Files (x86)\Exact Audio Copy\Flac\flac.exe
Additional command line options : -8 -e -p -V -T "ARTIST=%artist%" -T "TITLE=%title%" -T "ALBUM=%albumtitle%" -T "DATE=%year%" -T "TRACKNUMBER=%tracknr%" -T "GENRE=%genre%" -T "PERFORMER=%albuminterpret%" -T "COMPOSER=%composer%" %haslyrics%–tag-from-file=LYRICS="%lyricsfile%"%haslyrics% -T "ALBUMARTIST=%albumartist%" -T "DISCNUMBER=%cdnumber%" -T "TOTALDISCS=%totalcds%" -T "TOTALTRACKS=%numtracks%" -T "COMMENT=%comment%" %source% -o %dest%


TOC of the extracted CD

Track | Start | Length | Start sector | End sector
––––––––––––––––––––––––––––-
1 | 0:00.00 | 6:22.37 | 0 | 28686
2 | 6:22.37 | 4:32.71 | 28687 | 49157
3 | 10:55.33 | 5:30.52 | 49158 | 73959
4 | 16:26.10 | 6:06.56 | 73960 | 101465
5 | 22:32.66 | 6:03.35 | 101466 | 128725
6 | 28:36.26 | 3:55.02 | 128726 | 146352
7 | 32:31.28 | 4:48.00 | 146353 | 167952
8 | 37:19.28 | 5:46.02 | 167953 | 193904
9 | 43:05.30 | 6:50.07 | 193905 | 224661
10 | 49:55.37 | 7:14.32 | 224662 | 257243
11 | 57:09.69 | 3:41.62 | 257244 | 273880
12 | 60:51.56 | 6:04.67 | 273881 | 301247


Track 1

Filename D:\Rips\01 - Like Diamonds.wav

Pre-gap length 0:00:02.00

Peak level 99.7 %
Extraction speed 3.1 X
Track quality 100.0 %
Test CRC 419D5372
Copy CRC 419D5372
Track not present in AccurateRip database
Copy OK

Track 2

Filename D:\Rips\02 - Before Sunset.wav

Peak level 99.7 %
Extraction speed 3.4 X
Track quality 100.0 %
Test CRC 6EF69D9B
Copy CRC 6EF69D9B
Track not present in AccurateRip database
Copy OK

Track 3

Filename D:\Rips\03 - Dinosaur Baby.wav

Peak level 99.8 %
Extraction speed 3.5 X
Track quality 99.9 %
Test CRC C58887FC
Copy CRC C58887FC
Track not present in AccurateRip database
Copy OK

Track 4

Filename D:\Rips\04 - Una Tarde Calurosa (Album Edit).wav

Peak level 98.8 %
Extraction speed 4.2 X
Track quality 100.0 %
Test CRC 13DEA5B7
Copy CRC 13DEA5B7
Track not present in AccurateRip database
Copy OK

Track 5

Filename D:\Rips\05 - Every Day Is Today.wav

Peak level 99.7 %
Extraction speed 4.5 X
Track quality 100.0 %
Test CRC 32810000
Copy CRC 32810000
Track not present in AccurateRip database
Copy OK

Track 6

Filename D:\Rips\06 - Gone To Ground.wav

Peak level 99.7 %
Extraction speed 4.0 X
Track quality 99.9 %
Test CRC 1D5323A9
Copy CRC 1D5323A9
Track not present in AccurateRip database
Copy OK

Track 7

Filename D:\Rips\07 - Lillestrøm.wav

Peak level 99.7 %
Extraction speed 4.8 X
Track quality 100.0 %
Test CRC D3E4EEE9
Copy CRC D3E4EEE9
Track not present in AccurateRip database
Copy OK

Track 8

Filename D:\Rips\08 - Miracle Beach.wav

Peak level 99.7 %
Extraction speed 5.1 X
Track quality 100.0 %
Test CRC D8064045
Copy CRC D8064045
Track not present in AccurateRip database
Copy OK

Track 9

Filename D:\Rips\09 - Something Everything.wav

Peak level 99.7 %
Extraction speed 5.5 X
Track quality 100.0 %
Test CRC 97E632DC
Copy CRC 97E632DC
Track not present in AccurateRip database
Copy OK

Track 10

Filename D:\Rips\10 - Love Made Me Tough.wav

Peak level 99.7 %
Extraction speed 5.8 X
Track quality 100.0 %
Test CRC 7990B599
Copy CRC 7990B599
Track not present in AccurateRip database
Copy OK

Track 11

Filename D:\Rips\11 - Space.wav

Peak level 99.7 %
Extraction speed 5.6 X
Track quality 100.0 %
Test CRC 6262E537
Copy CRC 6262E537
Track not present in AccurateRip database
Copy OK

Track 12

Filename D:\Rips\12 - My Favourite Place (World Of Echo).wav

Peak level 99.7 %
Extraction speed 5.6 X
Track quality 99.9 %
Test CRC 9ED0408F
Copy CRC 9ED0408F
Track not present in AccurateRip database
Copy OK


None of the tracks are present in the AccurateRip database

No errors occurred

End of status report

–– CUETools DB Plugin V2.1.6

[CTDB TOCID: kYXplhGJTu5R6dvUed1LPMauPZw-] disk not present in database
Submit result: kYXplhGJTu5R6dvUed1LPMauPZw- has been uploaded


==== Log checksum 4C84CF33668DDD3277022E2CD37588B32BB3CADC2250699B2D121DB9F488551C ====

Exact Audio Copy V1.3 from 2. September 2016

EAC extraction logfile from 9. July 2017, 18:05

Chris Coco / My Favourite Place (Before Sunset) Bonus

Used drive : BUFFALO Optical Drive Adapter: 1 ID: 0

Read mode : Secure
Utilize accurate stream : Yes
Defeat audio cache : Yes
Make use of C2 pointers : No

Read offset correction : 6
Overread into Lead-In and Lead-Out : No
Fill up missing offset samples with silence : Yes
Delete leading and trailing silent blocks : No
Null samples used in CRC calculations : Yes
Used interface : Native Win32 interface for Win NT & 2000
Gap handling : Appended to previous track

Used output format : User Defined Encoder
Selected bitrate : 1024 kBit/s
Quality : High
Add ID3 tag : No
Command line compressor : C:\Program Files (x86)\Exact Audio Copy\Flac\flac.exe
Additional command line options : -8 -e -p -V -T "ARTIST=%artist%" -T "TITLE=%title%" -T "ALBUM=%albumtitle%" -T "DATE=%year%" -T "TRACKNUMBER=%tracknr%" -T "GENRE=%genre%" -T "PERFORMER=%albuminterpret%" -T "COMPOSER=%composer%" %haslyrics%–tag-from-file=LYRICS="%lyricsfile%"%haslyrics% -T "ALBUMARTIST=%albumartist%" -T "DISCNUMBER=%cdnumber%" -T "TOTALDISCS=%totalcds%" -T "TOTALTRACKS=%numtracks%" -T "COMMENT=%comment%" %source% -o %dest%


TOC of the extracted CD

Track | Start | Length | Start sector | End sector
––––––––––––––––––––––––––––-
1 | 0:00.00 | 11:46.01 | 0 | 52950


Track 1

Filename D:\Rips\01 - Dinosaur Baby (Long Version).wav

Pre-gap length 0:00:02.00

Peak level 100.0 %
Extraction speed 3.7 X
Track quality 100.0 %
Test CRC E207FCDF
Copy CRC E207FCDF
Track not present in AccurateRip database
Copy OK


None of the tracks are present in the AccurateRip database

No errors occurred

End of status report

–– CUETools DB Plugin V2.1.6

[CTDB TOCID: CJa8JjvrfGSZaFw03BXvIOk5SZQ-] disk not present in database
Submit result: CJa8JjvrfGSZaFw03BXvIOk5SZQ- has been uploaded


==== Log checksum 0B9F0753F494331982606A5AEF81D28798D107FF0A792FA7A04D7F88A5A704CE ====

Thanks to the Original customer.