Subcategories

Chris Farlowe - At Rockpalast (2006)

Posted By: uff
Chris Farlowe - At Rockpalast (2006)

Chris Farlowe - At Rockpalast (2006)
rock | 1cd | Eac Rip | Flac + Cue + Log | covers
inakustik INAK 9077 CD | 530mb

More than 40 years into his career, Chris Farlowe proves he can still deliver a superb show with this live performance, running just over an hour, that captures the '60s/'70s U.K. soul legend near top form. Farlowe is still a soul shouter with the best of them, even if he has to make a few concessions to the calendar at age 66. The key to his success, ranging through material from across his history (including one original, "I Don't Want to Sing the Blues No More"), is that his voice has held up, and he still feels the music inside. And some of the songs represented here, such as "Out of Time," actually work better than they did in their original recordings – Farlowe has, fortunately, outlived the worst excesses of some of the periods in which he recorded, and has lived to put down updated (and upgraded) renditions of various chunks of his history, with a solid lean and mean band. Here we get to hear Farlowe's voice unadulterated by the inclinations of various producers and engineers with whom he's worked in the distant past, and that's still mighty impressive. That he's never received the level of international recognition enjoyed by rivals such as Eric Burdon is a situation that might amaze those who hear this CD. It's a great account of his latter-day capabilities, and actually not a bad way to start discovering Farlowe's singing. ~ Bruce Eder At sixty-five years old, and with more than 50 years in the music biz, Chris Farlowe still has one of the most remarkable voices in the blues and rock universe. Evidence of this can be found on this recording for the famous Rockpalast in Bonn, Germany on March 22nd, 2006. As one time member of the Thunderbirds, Colosseum and many other popular bands, critics as well as audiences and other musicians reverentially refer to him as the Voice. His gigs are still driven by his enormous power and his skills as a natural entertainer. He tours incessantly (over 100 concerts every year) either with his own band, featured here on this CD, Colosseum or as a guest of Van Morrison. Recording information: The Crossroads-Festival, Harmonie Bonn (03/22/2006).

Tracks:
1. Blues As Blues Can Get
2. I'll Sing The Blues For You
3. I Don't Want To Sing The Blues No More
4. Handbags & Gladrags
5. Piece Of Mind
6. Lovin' Arms
7. Ain't No Big Deal On You
8. Tough On Me, Tough On You
9. Out Of Time
10. Miss You Fever
11. All Or Nothing
12. Rock'n'roll Soldier

Personnel:
- Chris Farlowe (vocals)
- Dave Baldwin (keyboards)
- John Price (bass guitar)
- Norman Beaker (guitar)
- Damian Hand (saxophone)
- Paul Burgess (drums)

Exact Audio Copy V0.99 prebeta 5 from 4. May 2009

EAC extraction logfile from 4. October 2010, 18:18

Chris Farlowe / At Rockpalast

Used drive : HL-DT-STDVD-RAM GH22LP20 Adapter: 4 ID: 1

Read mode : Secure
Utilize accurate stream : Yes
Defeat audio cache : Yes
Make use of C2 pointers : No

Read offset correction : 102
Overread into Lead-In and Lead-Out : No
Fill up missing offset samples with silence : Yes
Delete leading and trailing silent blocks : No
Null samples used in CRC calculations : Yes
Used interface : Installed external ASPI interface

Used output format : User Defined Encoder
Selected bitrate : 896 kBit/s
Quality : High
Add ID3 tag : No
Command line compressor : C:\Program Files (x86)\Exact Audio Copy\WAV Pack\wavpack.exe
Additional command line options : -hlmx2 %s


TOC of the extracted CD

Track | Start | Length | Start sector | End sector
––––––––––––––––––––––––––––-
1 | 0:00.00 | 5:36.54 | 0 | 25253
2 | 5:36.54 | 7:11.55 | 25254 | 57633
3 | 12:48.34 | 3:58.44 | 57634 | 75527
4 | 16:47.03 | 6:02.64 | 75528 | 102741
5 | 22:49.67 | 5:26.10 | 102742 | 127201
6 | 28:16.02 | 4:26.41 | 127202 | 147192
7 | 32:42.43 | 5:17.62 | 147193 | 171029
8 | 38:00.30 | 7:32.65 | 171030 | 204994
9 | 45:33.20 | 4:36.23 | 204995 | 225717
10 | 50:09.43 | 6:39.67 | 225718 | 255709
11 | 56:49.35 | 3:57.67 | 255710 | 273551
12 | 60:47.27 | 5:54.49 | 273552 | 300150


Range status and errors

Selected range

Filename X:\Releases RAW\Chris Farlowe - At Rockpalast\Chris Farlowe - At Rockpalast.wav

Peak level 97.8 %
Range quality 100.0 %
Test CRC 35622EC9
Copy CRC 35622EC9
Copy OK

No errors occurred


AccurateRip summary

Track 1 not present in database
Track 2 not present in database
Track 3 not present in database
Track 4 not present in database
Track 5 not present in database
Track 6 not present in database
Track 7 not present in database
Track 8 not present in database
Track 9 not present in database
Track 10 not present in database
Track 11 not present in database
Track 12 not present in database

None of the tracks are present in the AccurateRip database

End of status report


[CUETools log; Date: 2013.02.06. 13:45:01; Version: 2.1.4]
[CTDB TOCID: kPAv.DYuDqjlBuXbWXvia83fTV0-] found.
Track | CTDB Status
1 | (1/1) Accurately ripped
2 | (1/1) Accurately ripped
3 | (1/1) Accurately ripped
4 | (1/1) Accurately ripped
5 | (1/1) Accurately ripped
6 | (1/1) Accurately ripped
7 | (1/1) Accurately ripped
8 | (1/1) Accurately ripped
9 | (1/1) Accurately ripped
10 | (1/1) Accurately ripped
11 | (1/1) Accurately ripped
12 | (1/1) Accurately ripped
[AccurateRip ID: 001e0275-01173e98-a30fa20c] found.
Track [ CRC | V2 ] Status
01 [438c84af|a7c30382] (2+0/2) Accurately ripped
02 [d9c33bcd|f411d48d] (2+0/2) Accurately ripped
03 [5e7a32e2|2e32c7d8] (2+0/2) Accurately ripped
04 [08f9a8fa|a831f11c] (2+0/2) Accurately ripped
05 [4d2c1c34|c7514628] (2+0/2) Accurately ripped
06 [f3afbc51|82685607] (2+0/2) Accurately ripped
07 [12e27b22|801f4bec] (2+0/2) Accurately ripped
08 [c6cfe835|e12f707d] (2+0/2) Accurately ripped
09 [1a3b4a50|d0a68a24] (2+0/2) Accurately ripped
10 [b3ae0d4d|2b101724] (2+0/2) Accurately ripped
11 [a282c6cb|2b85f22d] (2+0/2) Accurately ripped
12 [2d788101|ab58a633] (2+0/2) Accurately ripped

Track Peak [ CRC32 ] [W/O NULL] [ LOG ]
– 97,8 [35622EC9] [50BCE888] CRC32
01 92,5 [6296B068] [6B4F7F55]
02 90,6 [ADFE4933] [B2DE16E3]
03 95,0 [D483BEF9] [3B9DE8D9]
04 93,1 [9947E585] [C654E06A]
05 97,8 [A6D9C62B] [C99D7ED2]
06 90,1 [CEC06D1F] [22F8B211]
07 89,1 [11C9E065] [A157C1F3]
08 90,2 [364073B2] [15496EB7]
09 93,4 [F68058D3] [A05DB4E0]
10 90,4 [3E3D82E7] [58E11A8B]
11 97,1 [FD49D849] [EE4739C5]
12 93,4 [AC538D06] [A35020DF]


Thx to the original uploader

The DVD video here