Subcategories

Chris Potter - Song For Anyone (2007)

Posted By: tiburon
Chris Potter - Song For Anyone (2007)

Chris Potter - Song For Anyone (2007)
X Lossless Decoder | FLAC tracks | Cue+Log+M3U | Full Scans 200dpi | 443MB + 5% Recovery
Genre: Jazz, Post-Bop
Chris Potter - Song For Anyone (2007)

In past recordings, Chris Potter has dedicated several of them to his heroes and influences, reflecting the diversity of his style and how he loves the tenor saxophonists who came before him. Though the title of this one is Song for Anyone, referring to those who may have passed away in either anonymity or eulogized, this CD is not necessarily dedicated to a nebulous "them." It is played and acknowledged as such directly for Michael Brecker, thus taking on a somber overall tone, accented by woodwinds and strings, making for an at times reflective and humbling requiem for the late contemporary jazz superstar.
Track List
01. The Absence 7:36
02. Against The Wind 7:58
03. Closer To The Sun 8:06
04. Family Tree 4:52
05. Chief Seattle 9:44
06. Cupid And Psyche 9:11
07. Song For Anyone 8:57
08. The Arc Of A Day 4:00
09. Estrellas Del Sur 8:01
10. All By All 4:45

musicians
Chris Potter - tenor and soprano saxophone
Erica Von Kleist - flute
Greg Tardy - clarinet
Michael Rabinowitz - bassoon
Mark Feldman - violin
Lois Martin - viola
David Eggar - cello
Steve Cardenas - guitar
Scott Colley - bass
Adam Cruz - drums, percussion

All compositions by Chris Potter

Produced by Dave Holland


X Lossless Decoder version 20110417 (131.0)

XLD extraction logfile from 2011-05-07 14:09:59 +0200

Chris Potter / Song for Anyone

Used drive : TSSTcorp CD/DVDW SH-W162L (revision LC03)

Ripper mode : XLD Secure Ripper
Disable audio cache : OK for the drive with a cache less than 1375KiB
Make use of C2 pointers : NO
Read offset correction : 6
Max retry count : 100
Gap status : Analyzed, Appended (except HTOA)

TOC of the extracted CD
Track | Start | Length | Start sector | End sector
––––––––––––––––––––––––––––-
1 | 00:00:00 | 07:34:32 | 0 | 34081
2 | 07:34:32 | 07:56:15 | 34082 | 69796
3 | 15:30:47 | 08:06:46 | 69797 | 106292
4 | 23:37:18 | 04:50:47 | 106293 | 128089
5 | 28:27:65 | 09:42:44 | 128090 | 171783
6 | 38:10:34 | 09:09:36 | 171784 | 212994
7 | 47:19:70 | 08:55:07 | 212995 | 253126
8 | 56:15:02 | 03:58:64 | 253127 | 271040
9 | 60:13:66 | 07:59:06 | 271041 | 306971
10 | 68:12:72 | 04:45:04 | 306972 | 328350

List of alternate offset correction values
# | Absolute | Relative | Confidence
–––––––––––––––––––––
1 | -628 | -634 | 7

AccurateRip Summary
Track 01 : OK (confidence 6)
Track 02 : OK (confidence 6)
Track 03 : OK (confidence 6)
Track 04 : OK (confidence 6)
Track 05 : OK (confidence 6)
Track 06 : OK (confidence 6)
Track 07 : OK (confidence 6)
Track 08 : OK (confidence 6)
Track 09 : OK (confidence 5)
Track 10 : OK (confidence 6)
->All tracks accurately ripped.

All Tracks
Album gain : -4.02 dB
Peak : 0.998901
Statistics
Read error : 0
Jitter error (maybe fixed) : 0
Retry sector count : 0
Damaged sector count : 0

Track 01
Filename : /Users/borgo/Desktop/RIP/01 - The Absence.flac
Pre-gap length : 00:02:00

Track gain : -4.61 dB
Peak : 0.998871
CRC32 hash (test run) : 0D4A4284
CRC32 hash : 0D4A4284
CRC32 hash (skip zero) : 978C06C7
AccurateRip signature : 7F028EE8
->Accurately ripped! (confidence 6)
Statistics
Read error : 0
Jitter error (maybe fixed) : 0
Retry sector count : 0
Damaged sector count : 0

Track 02
Filename : /Users/borgo/Desktop/RIP/02 - Against the Wind.flac

Track gain : -3.38 dB
Peak : 0.943024
CRC32 hash (test run) : E5127200
CRC32 hash : E5127200
CRC32 hash (skip zero) : 17FB8CD9
AccurateRip signature : 9647EC78
->Accurately ripped! (confidence 6)
Statistics
Read error : 0
Jitter error (maybe fixed) : 0
Retry sector count : 0
Damaged sector count : 0

Track 03
Filename : /Users/borgo/Desktop/RIP/03 - Closer to the Sun.flac

Track gain : -4.45 dB
Peak : 0.998871
CRC32 hash (test run) : 483765A0
CRC32 hash : 483765A0
CRC32 hash (skip zero) : 645E23EE
AccurateRip signature : 40F9933C
->Accurately ripped! (confidence 6)
Statistics
Read error : 0
Jitter error (maybe fixed) : 0
Retry sector count : 0
Damaged sector count : 0

Track 04
Filename : /Users/borgo/Desktop/RIP/04 - Family Tree.flac
Pre-gap length : 00:01:01

Track gain : -2.52 dB
Peak : 0.998901
CRC32 hash (test run) : 5BF26200
CRC32 hash : 5BF26200
CRC32 hash (skip zero) : 0E6ED728
AccurateRip signature : FFBE3D24
->Accurately ripped! (confidence 6)
Statistics
Read error : 0
Jitter error (maybe fixed) : 0
Retry sector count : 0
Damaged sector count : 0

Track 05
Filename : /Users/borgo/Desktop/RIP/05 - Chief Seattle.flac
Pre-gap length : 00:01:01

Track gain : -5.63 dB
Peak : 0.998901
CRC32 hash (test run) : 48D49857
CRC32 hash : 48D49857
CRC32 hash (skip zero) : 744B0100
AccurateRip signature : 9CBE6804
->Accurately ripped! (confidence 6)
Statistics
Read error : 0
Jitter error (maybe fixed) : 0
Retry sector count : 0
Damaged sector count : 0

Track 06
Filename : /Users/borgo/Desktop/RIP/06 - Cupid and Psyche.flac

Track gain : -3.58 dB
Peak : 0.998871
CRC32 hash (test run) : 0DCCA96D
CRC32 hash : 0DCCA96D
CRC32 hash (skip zero) : ED5C00F1
AccurateRip signature : 3084DC51
->Accurately ripped! (confidence 6)
Statistics
Read error : 0
Jitter error (maybe fixed) : 0
Retry sector count : 0
Damaged sector count : 0

Track 07
Filename : /Users/borgo/Desktop/RIP/07 - Song for Anyone.flac

Track gain : -3.27 dB
Peak : 0.998901
CRC32 hash (test run) : 8F9BC1E0
CRC32 hash : 8F9BC1E0
CRC32 hash (skip zero) : A501D082
AccurateRip signature : 9F39E436
->Accurately ripped! (confidence 6)
Statistics
Read error : 0
Jitter error (maybe fixed) : 0
Retry sector count : 0
Damaged sector count : 0

Track 08
Filename : /Users/borgo/Desktop/RIP/08 - The Arc of a Day.flac

Track gain : -2.27 dB
Peak : 0.998871
CRC32 hash (test run) : 5682909C
CRC32 hash : 5682909C
CRC32 hash (skip zero) : 3DDC3F50
AccurateRip signature : F32FF9AD
->Accurately ripped! (confidence 6)
Statistics
Read error : 0
Jitter error (maybe fixed) : 0
Retry sector count : 0
Damaged sector count : 0

Track 09
Filename : /Users/borgo/Desktop/RIP/09 - Estrellas del Sur.flac
Pre-gap length : 00:01:38

Track gain : -1.65 dB
Peak : 0.991455
CRC32 hash (test run) : 04FC96CC
CRC32 hash : 04FC96CC
CRC32 hash (skip zero) : 13483E7E
AccurateRip signature : 24598E67
->Accurately ripped! (confidence 5)
Statistics
Read error : 0
Jitter error (maybe fixed) : 0
Retry sector count : 0
Damaged sector count : 0

Track 10
Filename : /Users/borgo/Desktop/RIP/10 - All by All.flac
Pre-gap length : 00:00:65

Track gain : -3.64 dB
Peak : 0.998871
CRC32 hash (test run) : 4B9CBE57
CRC32 hash : 4B9CBE57
CRC32 hash (skip zero) : 546E05BA
AccurateRip signature : E1F4417B
->Accurately ripped! (confidence 6)
Statistics
Read error : 0
Jitter error (maybe fixed) : 0
Retry sector count : 0
Damaged sector count : 0

No errors occurred

End of status report


––––––––––––––––––––––––––––––––––––––––
Analyzed: Chris Potter / Song for Anyone
––––––––––––––––––––––––––––––––––––––––

DR Peak RMS Duration Track
––––––––––––––––––––––––––––––––––––––––
DR11 -0.01 dB -14.31 dB 7:34 01-The Absence
DR12 -0.51 dB -14.92 dB 7:56 02-Against the Wind
DR11 -0.01 dB -15.69 dB 8:07 03-Closer to the Sun
DR12 -0.01 dB -15.85 dB 4:51 04-Family Tree
DR10 -0.01 dB -13.11 dB 9:43 05-Chief Seattle
DR12 -0.01 dB -16.26 dB 9:09 06-Cupid and Psyche
DR12 -0.01 dB -14.54 dB 8:55 07-Song for Anyone
DR13 -0.01 dB -17.39 dB 3:59 08-The Arc of a Day
DR13 -0.07 dB -16.86 dB 7:59 09-Estrellas del Sur
DR12 -0.01 dB -16.51 dB 4:45 10-All by All
––––––––––––––––––––––––––––––––––––––––

Number of tracks: 10
Official DR value: DR12

Samplerate: 44100 Hz
Channels: 2
Bits per sample: 16
Bitrate: 729 kbps
Codec: FLAC
================================================================================

Chris Potter - Song For Anyone (2007)
Chris Potter - Song For Anyone (2007)


Rip by opeth