Subcategories

Chris Potter - The Sirens (2013) {ECM 2258}

Posted By: tiburon
Chris Potter - The Sirens (2013) {ECM 2258}

Chris Potter - The Sirens (2013) {ECM 2258}
EAC 1.0b3 | FLAC tracks level 8 | Cue+Log+M3U | Full Scans 300dpi | 374MB + 5% Recovery
MP3 CBR 320 Kbps | 198MB + 5% Recovery
Genre: Jazz

“The Sirens” is acclaimed saxophonist Chris Potter’s ECM debut as a leader, an album of mood and melody inspired by The Odyssey – both its epic atmosphere and its timeless humanity. Potter – who has featured on many ECM albums by Dave Holland and Steve Swallow, as well as making a profound contribution to the contemporary classic “Lost in a Dream” with Paul Motian and Jason Moran – has composed a cycle of irresistible songs without words. These pieces are conveyed by a subtly virtuosic, strikingly textured band: with Potter on tenor and soprano saxophones and bass clarinet, plus Craig Taborn (piano), David Virelles (prepared piano, celeste, harmonium), Larry Grenadier (double bass) and Eric Harland (drums). Potter declaims lyrical lines over the dynamically inventive rhythm section, as colouristic keyboards shimmer like stars in the night sky.
Track List
01. Wine Dark Sea 8:47
02. Wayfinder 6:49
03. Dawn (With Her Rosy Fingers) 7:23
04. The Sirens 8:38
05. Penelope 7:14
06. Kalypso 8:24
07. Nausikaa 5:40
08. Stranger At The Gate 8:12
09. The Shades 2:11

musicians
Chris Potter - tenor and soprano saxophones, bass clarinet
Craig Taborn - piano
David Virelles - prepared piano, celeste, harmonium
Larry Grenadier - double bass
Eric Harland - drums

Produced by Manfred Eicher


Exact Audio Copy V1.0 beta 3 from 29. August 2011

EAC extraction logfile from 30. January 2013, 21:47

Chris Potter / The Sirens [ECM 2258]

Used drive : PLEXTOR DVDR PX-L890SA Adapter: 2 ID: 1

Read mode : Secure
Utilize accurate stream : Yes
Defeat audio cache : Yes
Make use of C2 pointers : No

Read offset correction : 6
Overread into Lead-In and Lead-Out : No
Fill up missing offset samples with silence : Yes
Delete leading and trailing silent blocks : No
Null samples used in CRC calculations : Yes
Used interface : Native Win32 interface for Win NT & 2000
Gap handling : Appended to previous track

Used output format : User Defined Encoder
Selected bitrate : 256 kBit/s
Quality : High
Add ID3 tag : No
Command line compressor : C:\Program Files (x86)\Exact Audio Copy\FLAC\FLAC.EXE
Additional command line options : -8 -V -T "ARTIST=%artist%" -T "TITLE=%title%" -T "ALBUM=%albumtitle%" -T "DATE=%year%" -T "TRACKNUMBER=%tracknr%" -T "TOTALTRACKS=%numtracks%" -T "GENRE=%genre%" -T "ALBUMARTIST=%albumartist%" -T "ALBUM ARTIST=%albumartist%" -T "COMMENT=EAC Secure Mode, Test & Copy, AccurateRip, FLAC -8" %source%


TOC of the extracted CD

Track | Start | Length | Start sector | End sector
––––––––––––––––––––––––––––-
1 | 0:00.00 | 8:49.19 | 0 | 39693
2 | 8:49.19 | 6:52.51 | 39694 | 70644
3 | 15:41.70 | 7:26.07 | 70645 | 104101
4 | 23:08.02 | 8:39.55 | 104102 | 143081
5 | 31:47.57 | 7:16.46 | 143082 | 175827
6 | 39:04.28 | 8:25.73 | 175828 | 213775
7 | 47:30.26 | 5:43.63 | 213776 | 239563
8 | 53:14.14 | 8:15.49 | 239564 | 276737
9 | 61:29.63 | 2:11.68 | 276738 | 286630


Track 1

Filename F:\Flac Rips\01 - Wine Dark Sea.wav

Pre-gap length 0:00:02.00

Peak level 97.0 %
Extraction speed 4.0 X
Track quality 100.0 %
Test CRC 5D2E83E3
Copy CRC 5D2E83E3
Track not present in AccurateRip database
Copy OK

Track 2

Filename F:\Flac Rips\02 - Wayfinder.wav

Pre-gap length 0:00:01.65

Peak level 91.1 %
Extraction speed 4.0 X
Track quality 99.9 %
Test CRC DCA90536
Copy CRC DCA90536
Track not present in AccurateRip database
Copy OK

Track 3

Filename F:\Flac Rips\03 - Dawn (with Her Rosey Fingers).wav

Pre-gap length 0:00:02.65

Peak level 85.3 %
Extraction speed 5.3 X
Track quality 100.0 %
Test CRC E623FD47
Copy CRC E623FD47
Track not present in AccurateRip database
Copy OK

Track 4

Filename F:\Flac Rips\04 - The Sirens.wav

Pre-gap length 0:00:02.27

Peak level 81.6 %
Extraction speed 5.9 X
Track quality 100.0 %
Test CRC 15228F23
Copy CRC 15228F23
Track not present in AccurateRip database
Copy OK

Track 5

Filename F:\Flac Rips\05 - Penelope.wav

Pre-gap length 0:00:01.22

Peak level 92.4 %
Extraction speed 6.3 X
Track quality 100.0 %
Test CRC 5D9FEB4D
Copy CRC 5D9FEB4D
Track not present in AccurateRip database
Copy OK

Track 6

Filename F:\Flac Rips\06 - Kalypso.wav

Pre-gap length 0:00:02.07

Peak level 83.3 %
Extraction speed 6.0 X
Track quality 99.9 %
Test CRC A8175BD1
Copy CRC A8175BD1
Track not present in AccurateRip database
Copy OK

Track 7

Filename F:\Flac Rips\07 - Nausikaa.wav

Pre-gap length 0:00:01.53

Peak level 83.6 %
Extraction speed 6.9 X
Track quality 100.0 %
Test CRC 8D13A7EC
Copy CRC 8D13A7EC
Track not present in AccurateRip database
Copy OK

Track 8

Filename F:\Flac Rips\08 - Stranger at the Gate.wav

Pre-gap length 0:00:02.67

Peak level 81.4 %
Extraction speed 6.7 X
Track quality 99.9 %
Test CRC A99D3A6C
Copy CRC A99D3A6C
Track not present in AccurateRip database
Copy OK

Track 9

Filename F:\Flac Rips\09 - The Shades.wav

Pre-gap length 0:00:03.22

Peak level 20.2 %
Extraction speed 6.6 X
Track quality 100.0 %
Test CRC 8D46052C
Copy CRC 8D46052C
Track not present in AccurateRip database
Copy OK


None of the tracks are present in the AccurateRip database

No errors occurred

End of status report

==== Log checksum F52D91FE6A946FBB27890E8ABAC902F3960AFD882C104F048A0EB31BAAE2F6EE ====


––––––––––––––––––––––––––––––––––––––––
Analyzed: Chris Potter / The Sirens [ECM 2258]
––––––––––––––––––––––––––––––––––––––––

DR Peak RMS Duration Track
––––––––––––––––––––––––––––––––––––––––
DR14 -0.26 dB -18.01 dB 8:49 01-Wine Dark Sea
DR14 -0.80 dB -18.49 dB 6:53 02-Wayfinder
DR15 -1.38 dB -21.73 dB 7:26 03-Dawn (with Her Rosey Fingers)
DR13 -1.76 dB -20.27 dB 8:40 04-The Sirens
DR15 -0.68 dB -19.98 dB 7:17 05-Penelope
DR15 -1.59 dB -19.38 dB 8:26 06-Kalypso
DR12 -1.55 dB -21.43 dB 5:44 07-Nausikaa
DR15 -1.78 dB -19.98 dB 8:16 08-Stranger at the Gate
DR17 -13.88 dB -40.29 dB 2:12 09-The Shades
––––––––––––––––––––––––––––––––––––––––

Number of tracks: 9
Official DR value: DR15

Samplerate: 44100 Hz
Channels: 2
Bits per sample: 16
Bitrate: 239 kbps
Codec: FLAC
================================================================================

Chris Potter - The Sirens (2013) {ECM 2258}
Chris Potter - The Sirens (2013) {ECM 2258}
Chris Potter - The Sirens (2013) {ECM 2258}


Thanks to the original ripper