Christian Thielemann, Wiener Philharmoniker - Beethoven: Symphonies Nos.1-3 (2010) [Blu-ray]

Posted By: Vilboa
Christian Thielemann, Wiener Philharmoniker - Beethoven: Symphonies Nos.1-3 (2010) [Blu-ray]

Christian Thielemann, Wiener Philharmoniker - Beethoven: Symphonies Nos.1-3 (2011) [Blu-ray]
BluRay | BDMV | MPEG-4 AVC Video / 11969 kbps / 1080i / 29,970 fps | 155 min+170 min (bonus) | 40,7 Gb
Audio1: LPCM Audio / 2.0 / 48 kHz | Audio2: DTS-HD Master Audio / 5.0 / 48 kHz / 3911 kbps / 24-bit

BluRay-rip | AVC | MKV 1920x1080 / 6215 kbps / 29,970 fps | 155 min | 8,39 Gb
Audio: DTS / 5ch / 48.0 KHz / 24 bits
Classical | C Major

This is the start of a Beethoven Symphonies cycle (Nos. 1-9) with Christian Thielemann and the Vienna Philharmonic Orchestra. The Beethoven cycle of the 21st century!
3 Documentaries - In a one-hour-long film for each symphony Maestro Thielemann and Joachim Kaiser (Germany´s most famous music critic) discuss and analyze in an entertaining conversational exchange Thielemann’s interpretation, complemented by excerpts from rehearsals as well as comparisons of Beethoven cycles with Karajan, Bernstein etc. – no aspect of Beethoven’s symphonic œuvre will remain unaffected!
The Documentaries include footage of performances from Karajan, Bernstein, Böhm, Järvi amongst others!
The performances, the Vienna Philharmonic on top form, can't help sounding wonderful…oddly, it is the discussions that are the most enjoyable elements in this ambitious set. — BBC Music Magazine

Cast:
Wiener Philharmoniker
Conductor - Christian Thielemann

Track List:
Symphony No. 1 in C major, Op. 21 (1799-1800)
Symphony No. 2 in D major, Op. 36 (1801-1802)
Symphony No. 3 in E flat major, Op. 55 Eroica (1803-1804)
Coriolan Overture, Op. 62 (1807)
Egmont Overture, Op. 84 (1810)
Bonus: Discovering Beethoven – with Joachim Kaiser and Christian Thielemann


Disc Title: BEETHOVEN 1_3
Disc Size: 43 807 894 328 bytes
Protection: AACS
BD-Java: No
Playlist: 00000.MPLS
Size: 22 552 160 256 bytes
Length: 2:35:29.720
Total Bitrate: 19,34 Mbps
Video: MPEG-4 AVC Video / 11969 kbps / 1080i / 29,970 fps / 16:9 / High Profile 4.1
Audio: Undetermined / LPCM Audio / 2.0 / 48 kHz / 2304 kbps / 24-bit
Audio: Undetermined / DTS-HD Master Audio / 5.0 / 48 kHz / 3911 kbps / 24-bit (DTS Core: 5.0 / 48 kHz / 1509 kbps / 24-bit)


General
Unique ID : 224162386595924542494280244734453466180 (0xA8A41AF34E157695855D557D14FDC444)
Complete name : C:\Symphonies_1_3.mkv
Format : Matroska
Format version : Version 2
File size : 8.40 GiB
Duration : 2h 35mn
Overall bit rate : 7 755 Kbps
Movie name : Symphonies_1_3
Encoded date : UTC 2017-10-20 10:54:34
Writing application : DVDFab 9.1.6.8
Writing library : libebml v0.7.8 + libmatroska v0.8.1

Video
ID : 1
Format : AVC
Format/Info : Advanced Video Codec
Format profile : High@L4.1
Format settings, CABAC : Yes
Format settings, ReFrames : 2 frames
Codec ID : V_MPEG4/ISO/AVC
Duration : 2h 35mn
Bit rate : 6 215 Kbps
Width : 1 920 pixels
Height : 1 080 pixels
Display aspect ratio : 16:9
Frame rate mode : Constant
Frame rate : 29.970 fps
Color space : YUV
Chroma subsampling : 4:2:0
Bit depth : 8 bits
Scan type : Progressive
Bits/(Pixel*Frame) : 0.100
Stream size : 6.60 GiB (79%)
Writing library : x264 core 142
Encoding settings : cabac=1 / ref=1 / deblock=1:-1:-1 / analyse=0x3:0 / me=hex / subme=5 / psy=0 / mixed_ref=0 / me_range=16 / chroma_me=1 / trellis=0 / 8x8dct=1 / cqm=0 / deadzone=21,11 / fast_pskip=1 / chroma_qp_offset=0 / threads=8 / lookahead_threads=2 / sliced_threads=0 / nr=0 / decimate=1 / interlaced=0 / bluray_compat=0 / constrained_intra=0 / bframes=2 / b_pyramid=0 / b_adapt=1 / b_bias=0 / direct=1 / weightb=1 / open_gop=0 / weightp=0 / keyint=24 / keyint_min=13 / scenecut=40 / intra_refresh=0 / rc=abr / mbtree=0 / bitrate=6215 / ratetol=1.0 / qcomp=0.60 / qpmin=0 / qpmax=69 / qpstep=4 / ip_ratio=1.40 / pb_ratio=1.30 / aq=1:1.00
Default : Yes
Forced : No
Color primaries : BT.709
Transfer characteristics : BT.709
Matrix coefficients : BT.709
Color range : Limited

Audio
ID : 2
Format : DTS
Format/Info : Digital Theater Systems
Mode : 16
Format settings, Endianness : Big
Codec ID : A_DTS
Duration : 2h 35mn
Bit rate mode : Constant
Bit rate : 1 509 Kbps
Channel(s) : 5 channels
Channel positions : Front: L C R, Side: L R
Sampling rate : 48.0 KHz
Bit depth : 24 bits
Compression mode : Lossy
Stream size : 1.63 GiB (19%)
Default : Yes
Forced : No

Menu
00:00:00.000 : en:Chapter 01
00:00:40.807 : en:Chapter 02
00:10:34.233 : en:Chapter 03
00:19:24.796 : en:Chapter 04
00:22:36.121 : en:Chapter 05
00:28:33.945 : en:Chapter 06
00:32:02.553 : en:Chapter 07
00:32:46.164 : en:Chapter 08
00:44:50.621 : en:Chapter 09
00:57:07.724 : en:Chapter 10
01:00:30.693 : en:Chapter 11
01:06:55.211 : en:Chapter 12
01:11:39.228 : en:Chapter 13
01:12:32.181 : en:Chapter 14
01:32:25.039 : en:Chapter 15
01:50:36.863 : en:Chapter 16
01:56:29.882 : en:Chapter 17
02:09:32.297 : en:Chapter 18
02:13:37.809 : en:Chapter 19
02:24:06.638 : en:Chapter 20


All screenshots taken from BDRip

Christian Thielemann, Wiener Philharmoniker - Beethoven: Symphonies Nos.1-3 (2010) [Blu-ray]