Tags
Language
Tags

Christine Perfect - The Complete Blue Horizon Sessions (2008) Re-up

Posted By:
Christine Perfect  - The Complete Blue Horizon Sessions (2008) Re-up

Christine Perfect - The Complete Blue Horizon Sessions (2008)
EAC | Flac(Image) + Cue + Log & MP3 CBR 320Kbps
Sony BMG, 88697192162 | ~ 260 or 117 Mb | Scans(png) -> 71 Mb
Blues / Blues Rock

Christine Perfect's (or McVie's) earliest work on the Blue Horizon label is as bluesy as it is dated. While it never offers a dull moment, with McVie singing with a convincing amount of energy, "The Complete Blue Horizon Sessions" never offers the later songwriting chops McVie would later gain in Fleetwood Mac. Despite it's flaws though, it does offer an interesting starting picture of a soon to be hit making artist.

Tucker Constable, allmusic
Christine Perfect  - The Complete Blue Horizon Sessions (2008) Re-up


Christine Perfect - The Complete Blue Horizon Sessions (2008):

Christine Perfect  - The Complete Blue Horizon Sessions (2008) Re-up

Tracklist:

01. Crazy 'Bout You Baby [03:05]
02. I'm On My Way [03:12]
03. Let Me Go (Leave Me Alone) [03:37]
04. Wait And See [03:17]
05. Close To Me [02:43]
06. When You Say [03:18]
07. And That's Saying A Lot [03:00]
08. No Road Is The Right Road [02:51]
09. For You [02:48]
10. I'm Too Far Gone (To Trun Around) [03:28]
11. I Want You [02:27]
12. Tell Me You Need Me (previously unreleased) [03:23]
13. I'm Too Far Gone (To Trun Around) (single version) [03:19]
14. Hey Baby (previously unreleased BBC session) [02:36]
15. It's You I Miss (previously unreleased BBC session) [03:48]
16. Gone Into The Sun (previously unreleased BBC session) [02:45]

Exact Audio Copy V0.99 prebeta 5 from 4. May 2009

EAC extraction logfile from 23. October 2012, 9:04

CHRISTINE PERFECT / The Complete Blue Horizon Sessions

Used drive : ASUS DRW-24B3ST Adapter: 3 ID: 0

Read mode : Secure
Utilize accurate stream : Yes
Defeat audio cache : Yes
Make use of C2 pointers : No

Read offset correction : 6
Overread into Lead-In and Lead-Out : No
Fill up missing offset samples with silence : Yes
Delete leading and trailing silent blocks : No
Null samples used in CRC calculations : Yes
Used interface : Native Win32 interface for Win NT & 2000

Used output format : User Defined Encoder
Selected bitrate : 1024 kBit/s
Quality : High
Add ID3 tag : No
Command line compressor : C:\Program Files (x86)\EAC\WV\wavpack.exe
Additional command line options : -h -hh -m %s %d


TOC of the extracted CD

Track | Start | Length | Start sector | End sector
––––––––––––––––––––––––––––-
1 | 0:00.00 | 3:05.73 | 0 | 13947
2 | 3:05.73 | 3:12.19 | 13948 | 28366
3 | 6:18.17 | 3:37.66 | 28367 | 44707
4 | 9:56.08 | 3:17.48 | 44708 | 59530
5 | 13:13.56 | 2:43.37 | 59531 | 71792
6 | 15:57.18 | 3:18.54 | 71793 | 86696
7 | 19:15.72 | 3:00.51 | 86697 | 100247
8 | 22:16.48 | 2:51.66 | 100248 | 113138
9 | 25:08.39 | 2:48.10 | 113139 | 125748
10 | 27:56.49 | 3:28.26 | 125749 | 141374
11 | 31:25.00 | 2:27.52 | 141375 | 152451
12 | 33:52.52 | 3:23.32 | 152452 | 167708
13 | 37:16.09 | 3:19.50 | 167709 | 182683
14 | 40:35.59 | 2:36.68 | 182684 | 194451
15 | 43:12.52 | 3:48.02 | 194452 | 211553
16 | 47:00.54 | 2:45.24 | 211554 | 223952


Range status and errors

Selected range

Filename G:\FLEETWOOD MAC\2008- Christine Perfect (McVie) - The Complete …. (UK Sony BMG • 88697192162)\CHRISTINE PERFECT - The Complete.wav

Peak level 87.8 %
Range quality 100.0 %
Test CRC 3D6D1416
Copy CRC 3D6D1416
Copy OK

No errors occurred


AccurateRip summary

Track 1 accurately ripped (confidence 5) [D1D36500]
Track 2 accurately ripped (confidence 5) [1582E3A9]
Track 3 accurately ripped (confidence 5) [7E8208D3]
Track 4 accurately ripped (confidence 5) [1794F7AF]
Track 5 accurately ripped (confidence 5) [2391C3D3]
Track 6 accurately ripped (confidence 5) [4A360D19]
Track 7 accurately ripped (confidence 5) [F1D4A138]
Track 8 accurately ripped (confidence 5) [8C918E6F]
Track 9 accurately ripped (confidence 5) [F32EEE46]
Track 10 accurately ripped (confidence 5) [807FFB6A]
Track 11 accurately ripped (confidence 5) [0A711DC3]
Track 12 accurately ripped (confidence 5) [8B5F4D2B]
Track 13 accurately ripped (confidence 5) [E7F574CA]
Track 14 accurately ripped (confidence 5) [0610BAFC]
Track 15 accurately ripped (confidence 5) [C93B4DF4]
Track 16 accurately ripped (confidence 5) [D40A63E1]

All tracks accurately ripped

End of status report

foobar2000 1.2.9 / Dynamic Range Meter 1.1.1
log date: 2017-02-24 14:51:08

––––––––––––––––––––––––––––––––––––––––
Analyzed: CHRISTINE PERFECT / The Complete Blue Horizon Sessions
––––––––––––––––––––––––––––––––––––––––

DR Peak RMS Duration Track
––––––––––––––––––––––––––––––––––––––––
DR11 -1.32 dB -14.62 dB 3:06 01-Crazy 'Bout You Baby
DR11 -1.32 dB -15.18 dB 3:12 02-I'm On My Way
DR10 -1.81 dB -15.04 dB 3:38 03-Let Me Go (Leave Me Alone)
DR10 -1.36 dB -13.83 dB 3:18 04-Wait And See
DR10 -1.28 dB -13.46 dB 2:43 05-Close To Me
DR10 -1.98 dB -15.71 dB 3:19 06-When You Say
DR12 -1.34 dB -15.73 dB 3:01 07-And That's Saying A Lot
DR11 -1.78 dB -16.13 dB 2:52 08-No Road Is The Right Road
DR11 -2.45 dB -16.00 dB 2:48 09-For You
DR12 -1.34 dB -16.44 dB 3:28 10-I'm Too Far Gone (To Trun Around)
DR10 -1.33 dB -14.13 dB 2:28 11-I Want You
DR12 -1.45 dB -15.71 dB 3:23 12-Tell Me You Need Me (previously unreleased)
DR12 -1.13 dB -15.55 dB 3:20 13-I'm Too Far Gone (To Trun Around) (single version)
DR9 -4.88 dB -14.58 dB 2:37 14-Hey Baby (previously unreleased BBC session)
DR9 -4.63 dB -14.82 dB 3:48 15-It's You I Miss (previously unreleased BBC session)
DR9 -4.74 dB -15.99 dB 2:45 16-Gone Into The Sun (previously unreleased BBC session)
––––––––––––––––––––––––––––––––––––––––

Number of tracks: 16
Official DR value: DR11

Samplerate: 44100 Hz
Channels: 2
Bits per sample: 16
Bitrate: 709 kbps
Codec: FLAC

[CUETools log; Date: 24.02.2017 14:50:57; Version: 2.1.4]
[CTDB TOCID: gq2d9k7EVhORa6.dLKYWLKRIP7Y-] found.
Track | CTDB Status
1 | (17/17) Accurately ripped
2 | (17/17) Accurately ripped
3 | (17/17) Accurately ripped
4 | (17/17) Accurately ripped
5 | (17/17) Accurately ripped
6 | (17/17) Accurately ripped
7 | (17/17) Accurately ripped
8 | (17/17) Accurately ripped
9 | (17/17) Accurately ripped
10 | (17/17) Accurately ripped
11 | (17/17) Accurately ripped
12 | (17/17) Accurately ripped
13 | (17/17) Accurately ripped
14 | (17/17) Accurately ripped
15 | (17/17) Accurately ripped
16 | (17/17) Accurately ripped
[AccurateRip ID: 001d4597-015df9e2-fb0baa10] found.
Track [ CRC | V2 ] Status
01 [d1d36500|180120b8] (06+14/20) Accurately ripped
02 [1582e3a9|4d265f8e] (06+13/19) Accurately ripped
03 [7e8208d3|b6af64bc] (06+13/19) Accurately ripped
04 [1794f7af|a6184d5f] (06+14/20) Accurately ripped
05 [2391c3d3|712dc257] (06+14/20) Accurately ripped
06 [4a360d19|274ea94e] (06+14/20) Accurately ripped
07 [f1d4a138|ef89c4f7] (06+13/19) Accurately ripped
08 [8c918e6f|8f64f366] (06+14/20) Accurately ripped
09 [f32eee46|2298cf0d] (06+14/20) Accurately ripped
10 [807ffb6a|2b8af233] (06+13/19) Accurately ripped
11 [0a711dc3|97fbfe81] (06+13/19) Accurately ripped
12 [8b5f4d2b|d24bd91c] (06+14/20) Accurately ripped
13 [e7f574ca|b7cb02f8] (06+14/20) Accurately ripped
14 [0610bafc|21135131] (06+13/19) Accurately ripped
15 [c93b4df4|537287df] (06+13/19) Accurately ripped
16 [d40a63e1|d606fec7] (06+14/20) Accurately ripped

Track Peak [ CRC32 ] [W/O NULL] [ LOG ]
– 87,8 [3D6D1416] [1B0713C2] CRC32
01 85,9 [D99E71E8] [5932FD24]
02 85,8 [ABBAB1EF] [4EF84ED2]
03 81,1 [7B14EF50] [2FF5CCF2]
04 85,4 [545E4A22] [164BDB39]
05 86,2 [92114506] [5BD4686A]
06 79,6 [C5908153] [70E8A9DA]
07 85,6 [01FD785F] [2AB1E6BB]
08 81,4 [F9CE7EB1] [A874CAB4]
09 75,4 [E05A584E] [8F71195F]
10 85,7 [07CA2398] [7BDDEAD5]
11 85,8 [7562948D] [F086B652]
12 84,6 [65344DB7] [830675BD]
13 87,8 [D72283E6] [D72ED42C]
14 57,0 [54DAF3F4] [7A6D30E3]
15 58,6 [CC42BAA1] [26CC2331]
16 57,9 [9E565DF4] [36B3898E]

Christine Perfect  - The Complete Blue Horizon Sessions (2008) Re-up

All thanks go to the original releaser

Fleetwood Mac in my Blog

Download Christine Perfect - The Complete Blue Horizon Sessions (2008):