Tags
Language
Tags

VA - 100 Hits: Christmas Legends (2010) [5CD Box Set]

Posted By: v3122
VA - 100 Hits: Christmas Legends (2010) [5CD Box Set]

VA - 100 Hits: Christmas Legends (2010)
EAC | Flac(Image) + Cue + Log & MP3 CBR 320Kbps
Demon Music Group, DMG 100068 | ~ 1297 or 564 Mb | Artwork(jpg) -> 5.69 Mb
Pop, Jazz, Folk, Christmas

With five discs and 100 tracks, this holiday set is expansive and interesting. Some of the sides will be familiar to nearly everyone – classics like Bing Crosby's version of “White Christmas” and Perry Como's “Winter Wonderland” pop up in the stores and all over the radio dial during the season’s festivities – but other selections here are fairly rare and give things a depth that a lot of holiday collections don’t reach. Among the highlights are Louis Armstrong's “Christmas in New Orleans,” Nat King Cole's take on “Frosty the Snowman,” the Weavers' “We Wish You a Merry Christmas,” Django Reinhardt and Stéphane Grappelli's “Christmas Swing,” and Jack Teagarden and Johnny Mercer's “Christmas Night in Harlem,” all showing just how varied and delightful this set is.

by Steve Leggett, allmusic
VA - 100 Hits: Christmas Legends (2010):

VA - 100 Hits: Christmas Legends (2010) [5CD Box Set]

Tracklist CD1:

01. Bing Crosby - White Christmas 3:04
02. Frank Sinatra - Christmas Dreaming [A Little Early This Year] 2:57
03. Perry Como - It’s Beginning To Look A Lot Like Christmas 2:40
04. Nat King Cole - The Christmas Song [Merry Christmas To You] 3:11
05. Dean Martin - I’ve Got My Love To Keep Me Warm 3:43
06. Judy Garland - Have Yourself A Merry Little Christmas 3:45
07. Eddie Fisher - You’re All I Want For Christmas 3:44
08. Harry Belafonte - Mary’s Boy Child 3:59
09. Louis Armstrong - Cool Yule 3:53
10. Anne Shelton - Merry Christmas 3:18
11. Mitch Miller And The Gang - Deck The Halls 1:01
12. Dean Martin - Let It Snow! Let It Snow! Let It Snow! 1:56
13. The Andrews Sisters - The Merry Christmas Polka 2:51
14. Doris Day - Here Comes Santa Claus 2:41
15. Vic Damone - Marshmallow World 2:09
16. Dave King - Christmas And You 3:14
17. Frank Sinatra - O Come All Ye Faithful [Adestefidelis] 2:34
18. Peggy Lee - Ring Those Christmas Bells 2:17
19. David Whitfield - Santo Natale 2:55
20. Mario Lanza - Ave Maria 2:32

Exact Audio Copy V0.99 prebeta 5 from 4. May 2009

EAC extraction logfile from 28. November 2010, 6:15

Various / 100 Hits Christmas Legends [Disc 1]

Used drive : HL-DT-STDVDRRW GSA-H30L Adapter: 0 ID: 0

Read mode : Secure
Utilize accurate stream : Yes
Defeat audio cache : Yes
Make use of C2 pointers : No

Read offset correction : 102
Overread into Lead-In and Lead-Out : No
Fill up missing offset samples with silence : Yes
Delete leading and trailing silent blocks : No
Null samples used in CRC calculations : Yes
Used interface : Installed external ASPI interface
Gap handling : Appended to previous track

Used output format : User Defined Encoder
Selected bitrate : 1024 kBit/s
Quality : High
Add ID3 tag : No
Command line compressor : C:\Program Files\Exact Audio Copy\Flac\flac.exe
Additional command line options : -8 -V -T "ARTIST=%a" -T "TITLE=%t" -T "ALBUM=%g" -T "DATE=%y" -T "TRACKNUMBER=%n" -T "GENRE=%m" -T "COMMENT= EAC - FLAC - 8 - oan" %s


TOC of the extracted CD

Track | Start | Length | Start sector | End sector
––––––––––––––––––––––––––––-
1 | 0:00.00 | 3:04.23 | 0 | 13822
2 | 3:04.23 | 2:57.30 | 13823 | 27127
3 | 6:01.53 | 2:40.13 | 27128 | 39140
4 | 8:41.66 | 3:11.32 | 39141 | 53497
5 | 11:53.23 | 2:42.72 | 53498 | 65719
6 | 14:36.20 | 2:44.57 | 65720 | 78076
7 | 17:21.02 | 2:44.02 | 78077 | 90378
8 | 20:05.04 | 2:59.09 | 90379 | 103812
9 | 23:04.13 | 2:53.03 | 103813 | 116790
10 | 25:57.16 | 2:18.05 | 116791 | 127145
11 | 28:15.21 | 1:01.36 | 127146 | 131756
12 | 29:16.57 | 1:56.11 | 131757 | 140467
13 | 31:12.68 | 2:50.71 | 140468 | 153288
14 | 34:03.64 | 2:41.08 | 153289 | 165371
15 | 36:44.72 | 2:08.72 | 165372 | 175043
16 | 38:53.69 | 3:13.66 | 175044 | 189584
17 | 42:07.60 | 2:33.44 | 189585 | 201103
18 | 44:41.29 | 2:16.61 | 201104 | 211364
19 | 46:58.15 | 2:55.31 | 211365 | 224520
20 | 49:53.46 | 2:31.71 | 224521 | 235916


Track 1

Filename C:\oan\01 - Bing Crosby - White Christmas.wav

Pre-gap length 0:00:02.00

Peak level 99.4 %
Track quality 99.9 %
Test CRC 390EE82F
Copy CRC 390EE82F
Accurately ripped (confidence 1) [827340AA]
Copy OK

Track 2

Filename C:\oan\02 - Frank Sinatra - Christmas Dreaming [A Little Early This Year].wav

Pre-gap length 0:00:01.29

Peak level 92.1 %
Track quality 100.0 %
Test CRC E115B8B9
Copy CRC E115B8B9
Accurately ripped (confidence 1) [ED68849C]
Copy OK

Track 3

Filename C:\oan\03 - Perry Como - It's Beginning To Look A Lot Like Christmas.wav

Pre-gap length 0:00:01.32

Peak level 97.7 %
Track quality 100.0 %
Test CRC 70E671DA
Copy CRC 70E671DA
Accurately ripped (confidence 1) [E09DE643]
Copy OK

Track 4

Filename C:\oan\04 - Nat King Cole - The Christmas Song [Merry Christmas To You].wav

Pre-gap length 0:00:01.30

Peak level 99.4 %
Track quality 100.0 %
Test CRC 870C05BE
Copy CRC 870C05BE
Accurately ripped (confidence 1) [9291862F]
Copy OK

Track 5

Filename C:\oan\05 - Dean Martin - I've Got My Love To Keep Me Warm.wav

Pre-gap length 0:00:01.30

Peak level 99.4 %
Track quality 100.0 %
Test CRC 5E119ACD
Copy CRC 5E119ACD
Accurately ripped (confidence 1) [CC6AF242]
Copy OK

Track 6

Filename C:\oan\06 - Judy Garland - Have Yourself A Merry Little Christmas.wav

Pre-gap length 0:00:01.30

Peak level 74.7 %
Track quality 100.0 %
Test CRC C791FF2F
Copy CRC C791FF2F
Accurately ripped (confidence 1) [87537708]
Copy OK

Track 7

Filename C:\oan\07 - Eddie Fisher - You're All I Want For Christmas.wav

Pre-gap length 0:00:01.29

Peak level 90.9 %
Track quality 99.9 %
Test CRC 72D5B8CE
Copy CRC 72D5B8CE
Accurately ripped (confidence 1) [A1F43687]
Copy OK

Track 8

Filename C:\oan\08 - Harry Belafonte - Mary's Boy Child.wav

Pre-gap length 0:00:01.29

Peak level 99.4 %
Track quality 100.0 %
Test CRC 8FEF3377
Copy CRC 8FEF3377
Accurately ripped (confidence 1) [1625CB70]
Copy OK

Track 9

Filename C:\oan\09 - Louis Armstrong - Cool Yule.wav

Pre-gap length 0:00:01.29

Peak level 93.3 %
Track quality 100.0 %
Test CRC 67E92F20
Copy CRC 67E92F20
Accurately ripped (confidence 1) [5F9C9786]
Copy OK

Track 10

Filename C:\oan\10 - Anne Shelton - Merry Christmas.wav

Pre-gap length 0:00:01.30

Peak level 88.4 %
Track quality 100.0 %
Test CRC 47113EBF
Copy CRC 47113EBF
Accurately ripped (confidence 1) [6A316D72]
Copy OK

Track 11

Filename C:\oan\11 - Mitch Miller And The Gang - Deck The Halls.wav

Pre-gap length 0:00:01.32

Peak level 93.8 %
Track quality 100.0 %
Test CRC 7335B6C2
Copy CRC 7335B6C2
Accurately ripped (confidence 1) [DB57B05B]
Copy OK

Track 12

Filename C:\oan\12 - Dean Martin - Let It Snow! Let It Snow! Let It Snow!.wav

Pre-gap length 0:00:01.29

Peak level 92.2 %
Track quality 100.0 %
Test CRC 4048C534
Copy CRC 4048C534
Accurately ripped (confidence 1) [BAD7AD08]
Copy OK

Track 13

Filename C:\oan\13 - The Andrews Sisters - The Merry Christmas Polka.wav

Pre-gap length 0:00:00.42

Peak level 99.4 %
Track quality 100.0 %
Test CRC 319544E4
Copy CRC 319544E4
Accurately ripped (confidence 1) [C933C9AB]
Copy OK

Track 14

Filename C:\oan\14 - Doris Day - Here Comes Santa Claus.wav

Pre-gap length 0:00:01.29

Peak level 79.1 %
Track quality 100.0 %
Test CRC A92A8214
Copy CRC A92A8214
Accurately ripped (confidence 1) [613F6106]
Copy OK

Track 15

Filename C:\oan\15 - Vic Damone - Marshmallow World.wav

Pre-gap length 0:00:01.30

Peak level 93.2 %
Track quality 100.0 %
Test CRC 073EC2FB
Copy CRC 073EC2FB
Accurately ripped (confidence 1) [3FFD7205]
Copy OK

Track 16

Filename C:\oan\16 - Dave King - Christmas And You.wav

Peak level 90.1 %
Track quality 100.0 %
Test CRC 4472B4BB
Copy CRC 4472B4BB
Accurately ripped (confidence 1) [9A980077]
Copy OK

Track 17

Filename C:\oan\17 - Frank Sinatra - O Come All Ye Faithful [Adestefidelis].wav

Peak level 97.7 %
Track quality 100.0 %
Test CRC AA2A1452
Copy CRC AA2A1452
Accurately ripped (confidence 1) [6718FF78]
Copy OK

Track 18

Filename C:\oan\18 - Peggy Lee - Ring Those Christmas Bells.wav

Peak level 99.4 %
Track quality 99.9 %
Test CRC C9535429
Copy CRC C9535429
Accurately ripped (confidence 1) [EC513035]
Copy OK

Track 19

Filename C:\oan\19 - David Whitfield - Santo Natale.wav

Peak level 99.4 %
Track quality 100.0 %
Test CRC 866DCDC9
Copy CRC 866DCDC9
Accurately ripped (confidence 1) [C6625616]
Copy OK

Track 20

Filename C:\oan\20 - Mario Lanza - Ave Maria.wav

Peak level 99.4 %
Track quality 100.0 %
Test CRC F82D2AED
Copy CRC F82D2AED
Accurately ripped (confidence 1) [FCA56A5E]
Copy OK


All tracks accurately ripped

No errors occurred

End of status report


VA - 100 Hits: Christmas Legends (2010) [5CD Box Set]

Tracklist CD2:

01. Nat King Cole - The Little Boy That Santa Claus Forgot 2:33
02. Perry Como - Winter Wonderland 2:31
03. Johnny Mathis - What Child Is This? 3:56
04. Brook Benton - This Time Of Year 2:35
05. Frank Sinatra - Silent Night 3:16
06. Bing Crosby - I’ll Be Home For Christmas [If Only In My Dreams] 3:00
07. Mario Lanza - O Christmas Tree 2:02
08. Connie Francis - Baby’s First Christmas 3:13
09. Dinah Shore - Ole Santa 2:43
z0. Paul Robeson - Mary Had A Baby, Yes, Lord 2:13
11. Dean Martin - The Christmas Blues 2:54
12. Louis Armstrong - Christmas In New Orleans 2:54
13. Peggy Lee - Winter Weather 3:02
14. Danny Kaye, Bing Crosby, Peggy Lee And Trudy Erwin - Snow 2:42
15. Eddie Fisher - That’s What Christmas Means To Me 3:27
16. June Hutton - Song Of The Sleighbells 2:16
17. Gracie Fields - Christmas Eve In Fairyland 2:52
18. Eddie Arnold - Christmas Can’t Be Very Far Away 2:59
19. The Orioles - [It's Gonnabe] A Lonely Christmas 3:20
20. Billy Eckstine - Blue Christmas 2:55

Exact Audio Copy V0.99 prebeta 5 from 4. May 2009

EAC extraction logfile from 28. November 2010, 7:25

Various / 100 Hits Christmas Legends [Disc 2]

Used drive : HL-DT-STDVDRRW GSA-H30L Adapter: 0 ID: 0

Read mode : Secure
Utilize accurate stream : Yes
Defeat audio cache : Yes
Make use of C2 pointers : No

Read offset correction : 102
Overread into Lead-In and Lead-Out : No
Fill up missing offset samples with silence : Yes
Delete leading and trailing silent blocks : No
Null samples used in CRC calculations : Yes
Used interface : Installed external ASPI interface
Gap handling : Appended to previous track

Used output format : User Defined Encoder
Selected bitrate : 1024 kBit/s
Quality : High
Add ID3 tag : No
Command line compressor : C:\Program Files\Exact Audio Copy\Flac\flac.exe
Additional command line options : -8 -V -T "ARTIST=%a" -T "TITLE=%t" -T "ALBUM=%g" -T "DATE=%y" -T "TRACKNUMBER=%n" -T "GENRE=%m" -T "COMMENT= EAC - FLAC - 8 - oan" %s


TOC of the extracted CD

Track | Start | Length | Start sector | End sector
––––––––––––––––––––––––––––-
1 | 0:00.00 | 2:32.58 | 0 | 11457
2 | 2:32.58 | 2:31.19 | 11458 | 22801
3 | 5:04.02 | 3:55.38 | 22802 | 40464
4 | 8:59.40 | 2:34.69 | 40465 | 52083
5 | 11:34.34 | 3:16.12 | 52084 | 66795
6 | 14:50.46 | 3:00.10 | 66796 | 80305
7 | 17:50.56 | 2:01.58 | 80306 | 89438
8 | 19:52.39 | 3:13.04 | 89439 | 103917
9 | 23:05.43 | 2:42.44 | 103918 | 116111
10 | 25:48.12 | 2:13.03 | 116112 | 126089
11 | 28:01.15 | 2:54.32 | 126090 | 139171
12 | 30:55.47 | 2:53.54 | 139172 | 152200
13 | 33:49.26 | 3:01.51 | 152201 | 165826
14 | 36:51.02 | 2:42.21 | 165827 | 177997
15 | 39:33.23 | 3:27.01 | 177998 | 193523
16 | 43:00.24 | 2:16.13 | 193524 | 203736
17 | 45:16.37 | 2:52.05 | 203737 | 216641
18 | 48:08.42 | 2:58.56 | 216642 | 230047
19 | 51:07.23 | 3:19.38 | 230048 | 245010
20 | 54:26.61 | 2:55.37 | 245011 | 258172


Track 1

Filename C:\oan\01 - Nat King Cole - The Little Boy That Santa Claus Forgot.wav

Pre-gap length 0:00:02.00

Peak level 99.4 %
Track quality 99.9 %
Test CRC 6285EF45
Copy CRC 6285EF45
Accurately ripped (confidence 1) [8E41915A]
Copy OK

Track 2

Filename C:\oan\02 - Perry Como - Winter Wonderland.wav

Pre-gap length 0:00:01.29

Peak level 87.0 %
Track quality 100.0 %
Test CRC 202714F7
Copy CRC 202714F7
Accurately ripped (confidence 1) [11149159]
Copy OK

Track 3

Filename C:\oan\03 - Johnny Mathis - What Child Is This .wav

Pre-gap length 0:00:01.29

Peak level 99.4 %
Track quality 100.0 %
Test CRC 96C84767
Copy CRC 96C84767
Accurately ripped (confidence 1) [AB6E8096]
Copy OK

Track 4

Filename C:\oan\04 - Brook Benton - This Time Of Year.wav

Pre-gap length 0:00:01.30

Peak level 99.4 %
Track quality 100.0 %
Test CRC AB0A4F39
Copy CRC AB0A4F39
Accurately ripped (confidence 1) [C02EB777]
Copy OK

Track 5

Filename C:\oan\05 - Frank Sinatra - Silent Night.wav

Pre-gap length 0:00:01.32

Peak level 89.1 %
Track quality 100.0 %
Test CRC 6087FC21
Copy CRC 6087FC21
Accurately ripped (confidence 1) [70FAF0C5]
Copy OK

Track 6

Filename C:\oan\06 - Bing Crosby - I'll Be Home For Christmas [If Only In My Dreams].wav

Pre-gap length 0:00:01.30

Peak level 99.4 %
Track quality 100.0 %
Test CRC 73BE65E0
Copy CRC 73BE65E0
Accurately ripped (confidence 1) [5CA0EFA0]
Copy OK

Track 7

Filename C:\oan\07 - Mario Lanza - O Christmas Tree.wav

Pre-gap length 0:00:01.29

Peak level 99.4 %
Track quality 100.0 %
Test CRC CE356385
Copy CRC CE356385
Accurately ripped (confidence 1) [04786D7F]
Copy OK

Track 8

Filename C:\oan\08 - Connie Francis - Baby's First Christmas.wav

Pre-gap length 0:00:01.30

Peak level 97.7 %
Track quality 100.0 %
Test CRC CBA99686
Copy CRC CBA99686
Accurately ripped (confidence 1) [F3FE90AE]
Copy OK

Track 9

Filename C:\oan\09 - Dinah Shore - Ole Santa.wav

Pre-gap length 0:00:01.30

Peak level 99.4 %
Track quality 100.0 %
Test CRC B31E58B3
Copy CRC B31E58B3
Accurately ripped (confidence 1) [39098FA2]
Copy OK

Track 10

Filename C:\oan\10 - Paul Robeson - Mary Had A Baby, Yes, Lord.wav

Pre-gap length 0:00:01.30

Peak level 90.2 %
Track quality 100.0 %
Test CRC 4F5F487B
Copy CRC 4F5F487B
Accurately ripped (confidence 1) [63BA568F]
Copy OK

Track 11

Filename C:\oan\11 - Dean Martin - The Christmas Blues.wav

Pre-gap length 0:00:01.29

Peak level 97.7 %
Track quality 100.0 %
Test CRC 4CC83C6E
Copy CRC 4CC83C6E
Accurately ripped (confidence 1) [CEA6F82F]
Copy OK

Track 12

Filename C:\oan\12 - Louis Armstrong - Christmas In New Orleans.wav

Pre-gap length 0:00:01.29

Peak level 99.4 %
Track quality 100.0 %
Test CRC 14F30AD8
Copy CRC 14F30AD8
Accurately ripped (confidence 1) [14147DC1]
Copy OK

Track 13

Filename C:\oan\13 - Peggy Lee - Winter Weather.wav

Pre-gap length 0:00:01.29

Peak level 85.1 %
Track quality 100.0 %
Test CRC 063F1F1D
Copy CRC 063F1F1D
Accurately ripped (confidence 1) [11002CEE]
Copy OK

Track 14

Filename C:\oan\14 - Danny Kaye, Bing Crosby, Peggy Lee And Trudy Erwin - Snow.wav

Pre-gap length 0:00:01.30

Peak level 99.4 %
Track quality 100.0 %
Test CRC B56ACD85
Copy CRC B56ACD85
Accurately ripped (confidence 1) [0219168A]
Copy OK

Track 15

Filename C:\oan\15 - Eddie Fisher - That's What Christmas Means To Me.wav

Pre-gap length 0:00:01.30

Peak level 99.4 %
Track quality 100.0 %
Test CRC 2DEDA1E9
Copy CRC 2DEDA1E9
Accurately ripped (confidence 1) [FB9FDDF4]
Copy OK

Track 16

Filename C:\oan\16 - June Hutton - Song Of The Sleighbells.wav

Peak level 99.4 %
Track quality 100.0 %
Test CRC 0011C329
Copy CRC 0011C329
Accurately ripped (confidence 1) [2B12AB03]
Copy OK

Track 17

Filename C:\oan\17 - Gracie Fields - Christmas Eve In Fairyland.wav

Peak level 95.5 %
Track quality 100.0 %
Test CRC DAE5A3C3
Copy CRC DAE5A3C3
Accurately ripped (confidence 1) [F748E73D]
Copy OK

Track 18

Filename C:\oan\18 - Eddie Arnold - Christmas Can't Be Very Far Away.wav

Peak level 84.3 %
Track quality 100.0 %
Test CRC 7B6C0FCA
Copy CRC 7B6C0FCA
Accurately ripped (confidence 1) [5636E308]
Copy OK

Track 19

Filename C:\oan\19 - The Orioles - [It's Gonnabe] A Lonely Christmas.wav

Peak level 89.4 %
Track quality 100.0 %
Test CRC 146B1E02
Copy CRC 146B1E02
Accurately ripped (confidence 1) [3A28C104]
Copy OK

Track 20

Filename C:\oan\20 - Billy Eckstine - Blue Christmas.wav

Peak level 99.4 %
Track quality 100.0 %
Test CRC 8C811266
Copy CRC 8C811266
Accurately ripped (confidence 1) [1327EE62]
Copy OK


All tracks accurately ripped

No errors occurred

End of status report


VA - 100 Hits: Christmas Legends (2010) [5CD Box Set]

Tracklist CD3:

01. Eartha kitt - Santa Baby 3:24
02. Brenda Lee - Rockin’ Around The Christmas Tree 2:05
03. Ella Fitzgerald - Santa Claus Got Stuck In My Chimney 3:07
04. The Andrews Sisters - Christmas Island 2:39
05. Perry Como - Twasthe Night Before Christmas 3:41
06. Mario Lanza - We Three Kings Of Orient Are 3:00
07. The Beverly Sisters - Little Donkey 2:13
08. Nat King Cole - Frosty The Snowman 2:17
09. Bing Crosby - Rudolph The Red-Nosed Reindeer 2:15
10. Petula clark - Where Did My Snowman Go? 2:10
11. Spike Jones - All I Want For Christmas [Is My Two Front Teeth] 3:11
12. Dickie valentine - Christmas Alphabet 2:07
13. Frank Sinatra - Santa Claus Is Coming To Town 2:26
14. Frankie Laineand Jo Stafford - Christmas Roses 2:48
15. Gracie Fields - Christmas Bells At Eventide 2:48
16. Judy Garland - The Birthday Of A King 3:08
17. Peggy Lee - It’s Christmas Time Again 2:59
18. The Weavers - One For The Little Bitty Baby [Go Where Isend Thee] 2:44
19. Eddie Fisher - Christmas Day 3:00
20. Rosemary Clooney - Suzy Snowflake 2:57

Exact Audio Copy V0.99 prebeta 5 from 4. May 2009

EAC extraction logfile from 28. November 2010, 8:55

Various / 100 Hits Christmas Legends [Disc 3]

Used drive : HL-DT-STDVDRRW GSA-H30L Adapter: 0 ID: 0

Read mode : Secure
Utilize accurate stream : Yes
Defeat audio cache : Yes
Make use of C2 pointers : No

Read offset correction : 102
Overread into Lead-In and Lead-Out : No
Fill up missing offset samples with silence : Yes
Delete leading and trailing silent blocks : No
Null samples used in CRC calculations : Yes
Used interface : Installed external ASPI interface
Gap handling : Appended to previous track

Used output format : User Defined Encoder
Selected bitrate : 1024 kBit/s
Quality : High
Add ID3 tag : No
Command line compressor : C:\Program Files\Exact Audio Copy\Flac\flac.exe
Additional command line options : -8 -V -T "ARTIST=%a" -T "TITLE=%t" -T "ALBUM=%g" -T "DATE=%y" -T "TRACKNUMBER=%n" -T "GENRE=%m" -T "COMMENT= EAC - FLAC - 8 - oan" %s


TOC of the extracted CD

Track | Start | Length | Start sector | End sector
––––––––––––––––––––––––––––-
1 | 0:00.00 | 3:24.21 | 0 | 15320
2 | 3:24.21 | 2:04.69 | 15321 | 24689
3 | 5:29.15 | 3:07.36 | 24690 | 38750
4 | 8:36.51 | 2:39.14 | 38751 | 50689
5 | 11:15.65 | 3:41.27 | 50690 | 67291
6 | 14:57.17 | 2:59.68 | 67292 | 80784
7 | 17:57.10 | 2:13.18 | 80785 | 90777
8 | 20:10.28 | 2:16.40 | 90778 | 101017
9 | 22:26.68 | 2:14.68 | 101018 | 111135
10 | 24:41.61 | 2:09.64 | 111136 | 120874
11 | 26:51.50 | 3:11.28 | 120875 | 135227
12 | 30:03.03 | 2:06.59 | 135228 | 144736
13 | 32:09.62 | 2:35.15 | 144737 | 156376
14 | 34:45.02 | 2:26.11 | 156377 | 167337
15 | 37:11.13 | 2:48.36 | 167338 | 179973
16 | 39:59.49 | 3:08.31 | 179974 | 194104
17 | 43:08.05 | 2:58.73 | 194105 | 207527
18 | 46:07.03 | 2:44.25 | 207528 | 219852
19 | 48:51.28 | 3:00.17 | 219853 | 233369
20 | 51:51.45 | 2:57.01 | 233370 | 246645


Track 1

Filename C:\oan\01 - Eartha kitt - Santa Baby.wav

Pre-gap length 0:00:02.00

Peak level 88.6 %
Track quality 100.0 %
Test CRC 417EE583
Copy CRC 417EE583
Accurately ripped (confidence 1) [A19B2286]
Copy OK

Track 2

Filename C:\oan\02 - Brenda Lee - Rockin' Around The Christmas Tree.wav

Pre-gap length 0:00:01.36

Peak level 99.4 %
Track quality 100.0 %
Test CRC 1A61C811
Copy CRC 1A61C811
Accurately ripped (confidence 1) [95173519]
Copy OK

Track 3

Filename C:\oan\03 - Ella Fitzgerald - Santa Claus Got Stuck In My Chimney.wav

Pre-gap length 0:00:01.33

Peak level 89.1 %
Track quality 100.0 %
Test CRC 771B3EA1
Copy CRC 771B3EA1
Accurately ripped (confidence 1) [9340D43F]
Copy OK

Track 4

Filename C:\oan\04 - The Andrews Sisters - Christmas Island.wav

Pre-gap length 0:00:01.34

Peak level 91.2 %
Track quality 100.0 %
Test CRC 15FB396B
Copy CRC 15FB396B
Accurately ripped (confidence 1) [8B33ECF3]
Copy OK

Track 5

Filename C:\oan\05 - Perry Como - Twasthe Night Before Christmas.wav

Pre-gap length 0:00:01.34

Peak level 97.7 %
Track quality 100.0 %
Test CRC 6D6560EB
Copy CRC 6D6560EB
Accurately ripped (confidence 1) [FDFD9180]
Copy OK

Track 6

Filename C:\oan\06 - Mario Lanza - We Three Kings Of Orient Are.wav

Pre-gap length 0:00:01.34

Peak level 99.4 %
Track quality 100.0 %
Test CRC 56188213
Copy CRC 56188213
Accurately ripped (confidence 1) [DD14893B]
Copy OK

Track 7

Filename C:\oan\07 - The Beverly Sisters - Little Donkey.wav

Pre-gap length 0:00:01.34

Peak level 88.0 %
Track quality 100.0 %
Test CRC BB33C602
Copy CRC BB33C602
Accurately ripped (confidence 1) [DC5D5E05]
Copy OK

Track 8

Filename C:\oan\08 - Nat King Cole - Frosty The Snowman.wav

Pre-gap length 0:00:01.34

Peak level 99.4 %
Track quality 100.0 %
Test CRC AAA20DE3
Copy CRC AAA20DE3
Accurately ripped (confidence 1) [EB4DEA24]
Copy OK

Track 9

Filename C:\oan\09 - Bing Crosby - Rudolph The Red - Nosed Reindeer.wav

Pre-gap length 0:00:01.34

Peak level 99.4 %
Track quality 100.0 %
Test CRC ED01CFE8
Copy CRC ED01CFE8
Accurately ripped (confidence 1) [28DA8783]
Copy OK

Track 10

Filename C:\oan\10 - Petula clark - Where Did My Snowman Go .wav

Pre-gap length 0:00:01.34

Peak level 99.4 %
Track quality 99.9 %
Test CRC 5E798A0A
Copy CRC 5E798A0A
Accurately ripped (confidence 1) [CAD8C144]
Copy OK

Track 11

Filename C:\oan\11 - Spike Jones - All I Want For Christmas [Is My Two Front Teeth].wav

Pre-gap length 0:00:01.34

Peak level 93.3 %
Track quality 100.0 %
Test CRC 35AB0055
Copy CRC 35AB0055
Accurately ripped (confidence 1) [9FE2F6D6]
Copy OK

Track 12

Filename C:\oan\12 - Dickie valentine - Christmas Alphabet.wav

Pre-gap length 0:00:01.33

Peak level 97.7 %
Track quality 100.0 %
Test CRC 5D1A876F
Copy CRC 5D1A876F
Accurately ripped (confidence 1) [55849976]
Copy OK

Track 13

Filename C:\oan\13 - Frank Sinatra - Santa Claus Is Coming To Town.wav

Pre-gap length 0:00:01.34

Peak level 87.0 %
Track quality 100.0 %
Test CRC BA9CD950
Copy CRC BA9CD950
Accurately ripped (confidence 1) [272E7A2A]
Copy OK

Track 14

Filename C:\oan\14 - Frankie Laineand Jo Stafford - Christmas Roses.wav

Pre-gap length 0:00:01.33

Peak level 99.4 %
Track quality 100.0 %
Test CRC BC12C8BF
Copy CRC BC12C8BF
Accurately ripped (confidence 1) [660E0AA5]
Copy OK

Track 15

Filename C:\oan\15 - Gracie Fields - Christmas Bells At Eventide.wav

Pre-gap length 0:00:01.33

Peak level 99.4 %
Track quality 100.0 %
Test CRC 76E7AB37
Copy CRC 76E7AB37
Accurately ripped (confidence 1) [3BD9EE63]
Copy OK

Track 16

Filename C:\oan\16 - Judy Garland - The Birthday Of A King.wav

Peak level 99.4 %
Track quality 100.0 %
Test CRC 72E22AF7
Copy CRC 72E22AF7
Accurately ripped (confidence 1) [0DF47BC6]
Copy OK

Track 17

Filename C:\oan\17 - Peggy Lee - It's Christmas Time Again.wav

Peak level 99.4 %
Track quality 99.9 %
Test CRC F75B2190
Copy CRC F75B2190
Accurately ripped (confidence 1) [AC454291]
Copy OK

Track 18

Filename C:\oan\18 - The Weavers - One For The Little Bitty Baby [Go Where Isend Thee].wav

Peak level 99.4 %
Track quality 100.0 %
Test CRC ED163BE7
Copy CRC ED163BE7
Accurately ripped (confidence 1) [70840274]
Copy OK

Track 19

Filename C:\oan\19 - Eddie Fisher - Christmas Day.wav

Peak level 97.7 %
Track quality 100.0 %
Test CRC 54ED2881
Copy CRC 54ED2881
Accurately ripped (confidence 1) [90236BD8]
Copy OK

Track 20

Filename C:\oan\20 - Rosemary Clooney - Suzy Snowflake.wav

Peak level 99.4 %
Track quality 99.9 %
Test CRC CBB98C5D
Copy CRC CBB98C5D
Accurately ripped (confidence 1) [2E6C50EB]
Copy OK


All tracks accurately ripped

No errors occurred

End of status report


VA - 100 Hits: Christmas Legends (2010) [5CD Box Set]

Tracklist CD4:

01. The Weavers - We Wish You A Merry Christmas 2:27
02. Elisabeth Schmann - Coventry Carol 2:42
03. Frank Sinatra - Hark! The Herald Angels Sing 2:43
04. Georges Thill - Cantiquede Noel 4:06
05. Judy Garland - The Star Of The East 3:06
06. Lonnie Donegan - On A Christmas Day 2:01
07. Mario Lanza - O Holy Night [Cantiquede Noel] 4:05
08. Bing Crosby - God Rest Ye Merry Gentleman 2:17
09. Anne Shelton - Away In A Manger 3:01
10. Glenn Miller - Jingle Bells 3:25
11. Perry Como - The Twelve Days Of Christmas 4:01
12. Dick Haymes - O Little Town Of Bethlehem 2:21
13. Frank Sinatra - It Came Upon A Midnight Clear 3:29
14. Nat King Cole - There’s A Train Out For Dreamland 2:40
15. Kay Kyser - Hello Mr. Kringle 3:01
16. Tinorossi - Petit Papa Noel 3:09
17. Django reinhardt And Stephane grappelli - Christmas Swing 2:50
18. Litaroza - St. Nicholas Waltz 2:34
19. Boston Pops Orchestra - Sleigh Ride 3:02
20. BBC Dance Orchestra - The Santa Claus Express 3:13

Exact Audio Copy V0.99 prebeta 5 from 4. May 2009

EAC extraction logfile from 28. November 2010, 9:52

Various / 100 Hits Christmas Legends [Disc 4]

Used drive : HL-DT-STDVDRRW GSA-H30L Adapter: 0 ID: 0

Read mode : Secure
Utilize accurate stream : Yes
Defeat audio cache : Yes
Make use of C2 pointers : No

Read offset correction : 102
Overread into Lead-In and Lead-Out : No
Fill up missing offset samples with silence : Yes
Delete leading and trailing silent blocks : No
Null samples used in CRC calculations : Yes
Used interface : Installed external ASPI interface
Gap handling : Appended to previous track

Used output format : User Defined Encoder
Selected bitrate : 1024 kBit/s
Quality : High
Add ID3 tag : No
Command line compressor : C:\Program Files\Exact Audio Copy\Flac\flac.exe
Additional command line options : -8 -V -T "ARTIST=%a" -T "TITLE=%t" -T "ALBUM=%g" -T "DATE=%y" -T "TRACKNUMBER=%n" -T "GENRE=%m" -T "COMMENT= EAC - FLAC - 8 - oan" %s


TOC of the extracted CD

Track | Start | Length | Start sector | End sector
––––––––––––––––––––––––––––-
1 | 0:00.00 | 2:27.22 | 0 | 11046
2 | 2:27.22 | 2:41.39 | 11047 | 23160
3 | 5:08.61 | 2:23.06 | 23161 | 33891
4 | 7:31.67 | 4:06.10 | 33892 | 52351
5 | 11:38.02 | 3:05.60 | 52352 | 66286
6 | 14:43.62 | 2:01.06 | 66287 | 75367
7 | 16:44.68 | 4:05.29 | 75368 | 93771
8 | 20:50.22 | 2:17.31 | 93772 | 104077
9 | 23:07.53 | 3:00.45 | 104078 | 117622
10 | 26:08.23 | 3:25.20 | 117623 | 133017
11 | 29:33.43 | 4:00.45 | 133018 | 151062
12 | 33:34.13 | 2:20.44 | 151063 | 161606
13 | 35:54.57 | 3:29.29 | 161607 | 177310
14 | 39:24.11 | 2:39.43 | 177311 | 189278
15 | 42:03.54 | 3:01.36 | 189279 | 202889
16 | 45:05.15 | 3:09.01 | 202890 | 217065
17 | 48:14.16 | 2:49.45 | 217066 | 229785
18 | 51:03.61 | 2:33.71 | 229786 | 241331
19 | 53:37.57 | 3:01.61 | 241332 | 254967
20 | 56:39.43 | 3:13.21 | 254968 | 269463


Track 1

Filename C:\oan\01 - The Weavers - We Wish You A Merry Christmas.wav

Pre-gap length 0:00:02.00

Peak level 99.4 %
Track quality 100.0 %
Test CRC 8900E884
Copy CRC 8900E884
Accurately ripped (confidence 1) [ED7BA133]
Copy OK

Track 2

Filename C:\oan\02 - Elisabeth Schmann - Coventry Carol.wav

Pre-gap length 0:00:01.29

Peak level 93.3 %
Track quality 100.0 %
Test CRC A02B44D6
Copy CRC A02B44D6
Accurately ripped (confidence 1) [8A24B993]
Copy OK

Track 3

Filename C:\oan\03 - Frank Sinatra - Hark! The Herald Angels Sing.wav

Pre-gap length 0:00:01.29

Peak level 97.7 %
Track quality 100.0 %
Test CRC 306AF554
Copy CRC 306AF554
Accurately ripped (confidence 1) [68D3D050]
Copy OK

Track 4

Filename C:\oan\04 - Georges Thill - Cantiquede Noel.wav

Pre-gap length 0:00:01.29

Peak level 86.9 %
Track quality 100.0 %
Test CRC C80DE19C
Copy CRC C80DE19C
Accurately ripped (confidence 1) [90F1CB18]
Copy OK

Track 5

Filename C:\oan\05 - Judy Garland - The Star Of The East.wav

Pre-gap length 0:00:00.89

Peak level 93.3 %
Track quality 100.0 %
Test CRC 29DC6AB5
Copy CRC 29DC6AB5
Accurately ripped (confidence 1) [32EE957D]
Copy OK

Track 6

Filename C:\oan\06 - Lonnie Donegan - On A Christmas Day.wav

Pre-gap length 0:00:01.29

Peak level 90.5 %
Track quality 100.0 %
Test CRC FDDDF386
Copy CRC FDDDF386
Accurately ripped (confidence 1) [ADCBB6EC]
Copy OK

Track 7

Filename C:\oan\07 - Mario Lanza - O Holy Night [Cantiquede Noel].wav

Pre-gap length 0:00:01.30

Peak level 97.7 %
Track quality 99.9 %
Test CRC 5961332A
Copy CRC 5961332A
Accurately ripped (confidence 1) [8025B51E]
Copy OK

Track 8

Filename C:\oan\08 - Bing Crosby - God Rest Ye Merry Gentleman.wav

Pre-gap length 0:00:01.30

Peak level 99.4 %
Track quality 100.0 %
Test CRC 6DB30AFB
Copy CRC 6DB30AFB
Accurately ripped (confidence 1) [E014EEF8]
Copy OK

Track 9

Filename C:\oan\09 - Anne Shelton - Away In A Manger.wav

Pre-gap length 0:00:01.30

Peak level 93.3 %
Track quality 100.0 %
Test CRC 9B9A210E
Copy CRC 9B9A210E
Accurately ripped (confidence 1) [A79D4987]
Copy OK

Track 10

Filename C:\oan\10 - Glenn Miller - Jingle Bells.wav

Pre-gap length 0:00:01.29

Peak level 99.4 %
Track quality 100.0 %
Test CRC 77A51BB6
Copy CRC 77A51BB6
Accurately ripped (confidence 1) [C2C9EE5A]
Copy OK

Track 11

Filename C:\oan\11 - Perry Como - The Twelve Days Of Christmas.wav

Pre-gap length 0:00:01.29

Peak level 88.5 %
Track quality 100.0 %
Test CRC FE568CA0
Copy CRC FE568CA0
Accurately ripped (confidence 1) [394FCD9E]
Copy OK

Track 12

Filename C:\oan\12 - Dick Haymes - O Little Town Of Bethlehem.wav

Pre-gap length 0:00:01.29

Peak level 99.4 %
Track quality 100.0 %
Test CRC C078B5A8
Copy CRC C078B5A8
Accurately ripped (confidence 1) [548E166F]
Copy OK

Track 13

Filename C:\oan\13 - Frank Sinatra - It Came Upon A Midnight Clear.wav

Pre-gap length 0:00:01.30

Peak level 99.4 %
Track quality 100.0 %
Test CRC 971C3096
Copy CRC 971C3096
Accurately ripped (confidence 1) [0A9170A8]
Copy OK

Track 14

Filename C:\oan\14 - Nat King Cole - There's A Train Out For Dreamland.wav

Pre-gap length 0:00:01.29

Peak level 99.4 %
Track quality 100.0 %
Test CRC AB166E5D
Copy CRC AB166E5D
Accurately ripped (confidence 1) [04B70721]
Copy OK

Track 15

Filename C:\oan\15 - Kay Kyser - Hello Mr. Kringle.wav

Pre-gap length 0:00:01.30

Peak level 99.4 %
Track quality 100.0 %
Test CRC 2D9B5013
Copy CRC 2D9B5013
Accurately ripped (confidence 1) [54D26C0D]
Copy OK

Track 16

Filename C:\oan\16 - Tinorossi - Petit Papa Noel.wav

Peak level 99.4 %
Track quality 100.0 %
Test CRC F8E1A367
Copy CRC F8E1A367
Accurately ripped (confidence 1) [B9C7B529]
Copy OK

Track 17

Filename C:\oan\17 - Django reinhardt And Stephane grappelli - Christmas Swing.wav

Peak level 99.4 %
Track quality 100.0 %
Test CRC D8A4DF37
Copy CRC D8A4DF37
Accurately ripped (confidence 1) [DBFF378A]
Copy OK

Track 18

Filename C:\oan\18 - Litaroza - St. Nicholas Waltz.wav

Peak level 99.4 %
Track quality 100.0 %
Test CRC D60FACFB
Copy CRC D60FACFB
Accurately ripped (confidence 1) [6DB545D5]
Copy OK

Track 19

Filename C:\oan\19 - Boston Pops Orchestra - Sleigh Ride.wav

Peak level 97.7 %
Track quality 100.0 %
Test CRC 341A02F2
Copy CRC 341A02F2
Accurately ripped (confidence 1) [0FEE9C05]
Copy OK

Track 20

Filename C:\oan\20 - BBC Dance Orchestra - The Santa Claus Express.wav

Peak level 93.3 %
Track quality 99.9 %
Test CRC 63243016
Copy CRC 63243016
Accurately ripped (confidence 1) [03E48BEA]
Copy OK


All tracks accurately ripped

No errors occurred

End of status report


VA - 100 Hits: Christmas Legends (2010) [5CD Box Set]

Tracklist CD5:

01. Louis Armstrong - Zatyou Santa Claus 2:50
02. Louis Prima - Shake Hands With Santa Claus 2:27
03. Bobby Helms - Jingle Bell Rock 2:10
04. Mabel Scott - Boogie Woogiesanta Claus 2:19
05. Margaret Whiting - The Mistletoe Kiss Polka 2:34
06. Nat King Cole - Mrs. Santa Claus 2:08
07. The Beverly Sisters - I Saw Mommy Kissing Santa Claus 2:31
08. BBC Dance Orchestra - The Fairy On The Christmas Tree 2:59
09. Dick Haymes - The First Nowell 2:57
10. Frank Sinatra - The Christmas Waltz 3:03
11. Glenn Miller - Cradle Song 3:37
12. Jack Teagarden With Johnny Mercer - Christmas Night In Harlem 2:50
13. Perry Como - Joy To The World 3:24
14. Judy Garland - Happy New Year 2:38
15. Bing Crosby - Mele Kalikimaka [Hawaiian Christmas Song] 3:12
16. Vera Lynn - I’m Sending A Letter To Santa Claus 2:58
17. Richard Crooks - The Star Of Bethlehem 3:20
18. Eddie Arnold - C-H-R-I-S-T-M-A-S 2:29
19. Mario Lanza - The Virgin’s Slumber Song [Maria Wiegenlied] 3:24
20. The Four Ramblers - Christmas In Killarney 2:18

Exact Audio Copy V0.99 prebeta 5 from 4. May 2009

EAC extraction logfile from 28. November 2010, 11:32

Various / 100 Hits Christmas Legends [Disc 5]

Used drive : HL-DT-STDVDRRW GSA-H30L Adapter: 0 ID: 0

Read mode : Secure
Utilize accurate stream : Yes
Defeat audio cache : Yes
Make use of C2 pointers : No

Read offset correction : 102
Overread into Lead-In and Lead-Out : No
Fill up missing offset samples with silence : Yes
Delete leading and trailing silent blocks : No
Null samples used in CRC calculations : Yes
Used interface : Installed external ASPI interface
Gap handling : Appended to previous track

Used output format : User Defined Encoder
Selected bitrate : 1024 kBit/s
Quality : High
Add ID3 tag : No
Command line compressor : C:\Program Files\Exact Audio Copy\Flac\flac.exe
Additional command line options : -8 -V -T "ARTIST=%a" -T "TITLE=%t" -T "ALBUM=%g" -T "DATE=%y" -T "TRACKNUMBER=%n" -T "GENRE=%m" -T "COMMENT= EAC - FLAC - 8 - oan" %s


TOC of the extracted CD

Track | Start | Length | Start sector | End sector
––––––––––––––––––––––––––––-
1 | 0:00.00 | 2:49.44 | 0 | 12718
2 | 2:49.44 | 2:27.37 | 12719 | 23780
3 | 5:17.06 | 2:09.63 | 23781 | 33518
4 | 7:26.69 | 2:18.47 | 33519 | 43915
5 | 9:45.41 | 2:34.28 | 43916 | 55493
6 | 12:19.69 | 2:07.74 | 55494 | 65092
7 | 14:27.68 | 2:30.45 | 65093 | 76387
8 | 16:58.38 | 2:58.72 | 76388 | 89809
9 | 19:57.35 | 2:57.00 | 89810 | 103084
10 | 22:54.35 | 3:02.56 | 103085 | 116790
11 | 25:57.16 | 3:36.55 | 116791 | 133045
12 | 29:33.71 | 3:24.29 | 133046 | 148374
13 | 32:58.25 | 2:37.63 | 148375 | 160212
14 | 35:36.13 | 3:11.71 | 160213 | 174608
15 | 38:48.09 | 2:58.35 | 174609 | 187993
16 | 41:46.44 | 3:20.32 | 187994 | 203025
17 | 45:07.01 | 3:54.60 | 203026 | 220635
18 | 49:01.61 | 2:28.60 | 220636 | 231795
19 | 51:30.46 | 3:23.58 | 231796 | 247078
20 | 54:54.29 | 2:18.18 | 247079 | 257446


Track 1

Filename C:\oan\01 - Louis Armstrong - Zatyou Santa Claus.wav

Pre-gap length 0:00:02.00

Peak level 99.4 %
Track quality 100.0 %
Test CRC 15884F42
Copy CRC 15884F42
Accurately ripped (confidence 1) [5B874192]
Copy OK

Track 2

Filename C:\oan\02 - Louis Prima - Shake Hands With Santa Claus.wav

Pre-gap length 0:00:01.29

Peak level 83.1 %
Track quality 100.0 %
Test CRC 86972E8B
Copy CRC 86972E8B
Accurately ripped (confidence 1) [9F12D3F1]
Copy OK

Track 3

Filename C:\oan\03 - Bobby Helms - Jingle Bell Rock.wav

Pre-gap length 0:00:01.29

Peak level 99.4 %
Track quality 99.9 %
Test CRC 85E0741F
Copy CRC 85E0741F
Accurately ripped (confidence 1) [DE328641]
Copy OK

Track 4

Filename C:\oan\04 - Mabel Scott - Boogie Woogiesanta Claus.wav

Pre-gap length 0:00:01.29

Peak level 99.4 %
Track quality 100.0 %
Test CRC 66E31620
Copy CRC 66E31620
Accurately ripped (confidence 1) [149E3839]
Copy OK

Track 5

Filename C:\oan\05 - Margaret Whiting - The Mistletoe Kiss Polka.wav

Pre-gap length 0:00:01.29

Peak level 87.1 %
Track quality 99.9 %
Test CRC CC20778B
Copy CRC CC20778B
Accurately ripped (confidence 1) [7E89B6E3]
Copy OK

Track 6

Filename C:\oan\06 - Nat King Cole - Mrs. Santa Claus.wav

Pre-gap length 0:00:01.32

Peak level 99.4 %
Track quality 100.0 %
Test CRC 4761D1B8
Copy CRC 4761D1B8
Accurately ripped (confidence 1) [37434282]
Copy OK

Track 7

Filename C:\oan\07 - The Beverly Sisters - I Saw Mommy Kissing Santa Claus.wav

Pre-gap length 0:00:01.30

Peak level 93.3 %
Track quality 100.0 %
Test CRC A50B594C
Copy CRC A50B594C
Accurately ripped (confidence 1) [9235D9BE]
Copy OK

Track 8

Filename C:\oan\08 - BBC Dance Orchestra - The Fairy On The Christmas Tree.wav

Pre-gap length 0:00:01.29

Peak level 93.3 %
Track quality 99.9 %
Test CRC 8AB7D3B4
Copy CRC 8AB7D3B4
Accurately ripped (confidence 1) [2ABA3548]
Copy OK

Track 9

Filename C:\oan\09 - Dick Haymes - The First Nowell.wav

Pre-gap length 0:00:01.29

Peak level 76.6 %
Track quality 99.9 %
Test CRC 03D7F9DD
Copy CRC 03D7F9DD
Accurately ripped (confidence 1) [4BE3782E]
Copy OK

Track 10

Filename C:\oan\10 - Frank Sinatra - The Christmas Waltz.wav

Pre-gap length 0:00:00.53

Peak level 97.7 %
Track quality 100.0 %
Test CRC 1727B68B
Copy CRC 1727B68B
Accurately ripped (confidence 1) [B280FC8B]
Copy OK

Track 11

Filename C:\oan\11 - Glenn Miller - Cradle Song.wav

Pre-gap length 0:00:01.30

Peak level 99.4 %
Track quality 100.0 %
Test CRC 3BF51C95
Copy CRC 3BF51C95
Accurately ripped (confidence 1) [108A5E2C]
Copy OK

Track 12

Filename C:\oan\12 - Jack Teagarden With Johnny Mercer - Christmas Night In Harlem.wav

Pre-gap length 0:00:01.30

Peak level 86.4 %
Track quality 100.0 %
Test CRC 6F36EAF8
Copy CRC 6F36EAF8
Accurately ripped (confidence 1) [B3B75333]
Copy OK

Track 13

Filename C:\oan\13 - Perry Como - Joy To The World.wav

Pre-gap length 0:00:01.30

Peak level 97.9 %
Track quality 100.0 %
Test CRC 0E852570
Copy CRC 0E852570
Accurately ripped (confidence 1) [80998A1B]
Copy OK

Track 14

Filename C:\oan\14 - Judy Garland - Happy New Year.wav

Pre-gap length 0:00:01.29

Peak level 98.8 %
Track quality 99.9 %
Test CRC B00E593F
Copy CRC B00E593F
Accurately ripped (confidence 1) [267E4F2C]
Copy OK

Track 15

Filename C:\oan\15 - Bing Crosby - Mele Kalikimaka [Hawaiian Christmas Song].wav

Pre-gap length 0:00:01.30

Peak level 99.4 %
Track quality 100.0 %
Test CRC E8497D43
Copy CRC E8497D43
Accurately ripped (confidence 1) [D6F1954B]
Copy OK

Track 16

Filename C:\oan\16 - Vera Lynn - I'm Sending A Letter To Santa Claus.wav

Peak level 82.8 %
Track quality 100.0 %
Test CRC A395382F
Copy CRC A395382F
Accurately ripped (confidence 1) [0C64F271]
Copy OK

Track 17

Filename C:\oan\17 - Richard Crooks - The Star Of Bethlehem.wav

Peak level 99.4 %
Track quality 100.0 %
Test CRC C7470FE4
Copy CRC C7470FE4
Accurately ripped (confidence 1) [4B11AF4B]
Copy OK

Track 18

Filename C:\oan\18 - Eddie Arnold - C-H-R-I-S-T-M-A-S.wav

Peak level 90.1 %
Track quality 100.0 %
Test CRC 25ED460F
Copy CRC 25ED460F
Accurately ripped (confidence 1) [B6F8AAF7]
Copy OK

Track 19

Filename C:\oan\19 - Mario Lanza - The Virgin's Slumber Song [Maria Wiegenlied].wav

Peak level 99.4 %
Track quality 100.0 %
Test CRC FE5BD6E4
Copy CRC FE5BD6E4
Accurately ripped (confidence 1) [6746B178]
Copy OK

Track 20

Filename C:\oan\20 - The Four Ramblers - Christmas In Killarney.wav

Peak level 99.4 %
Track quality 100.0 %
Test CRC D51D8447
Copy CRC D51D8447
Accurately ripped (confidence 1) [DA5087F9]
Copy OK


All tracks accurately ripped

No errors occurred

End of status report


VA - 100 Hits: Christmas Legends (2010) [5CD Box Set]

All thanks go to the original releaser

Download VA - 100 Hits: Christmas Legends (2010):