Tags
Language
Tags

Christopher Hogwood, The Academy of Ancient Music - Handel: Messiah, Athalia, Esther, La Resurrezione [8CDs] (2005)

Posted By: ArlegZ
Christopher Hogwood, The Academy of Ancient Music - Handel: Messiah, Athalia, Esther, La Resurrezione [8CDs] (2005)

Christopher Hogwood, The Academy of Ancient Music - Handel: Messiah, Athalia, Esther, La Resurrezione (2005)
EAC | FLAC | Image (Cue & Log) ~ 2,05 Gb | Total time: 136:34+121:39+96:44+109:38 | Scans included
Classical | Label: Decca | # 475 6731 | Recorded: 1979-1985

Led by Christopher Hogwood, the Academy of Ancient Music has made many renowned recordings of Handel's music-particularly the oratorios. The beloved Messiah heads up this 8-CD set, followed by Esther; La Resurezzione , and, making its return to the international catalog after an absence of several years, the 1985 recording of Athalia -with none other than Joan Sutherland in the title role! Recorded in London, 1979-85.

Performer:
CDs 1 & 2: Handel - Messiah
Judith Nelson, soprano 1
Emma Kirkby, soprano 2
Carolyn Watkinson, contralto
Paul Elliott, tenor
David Thomas, bass
Choir of Christ Church Cathedral, Oxford
The Academy of Ancient Music
Conductor - Christopher Hogwood

CDs 3 & 4: Handel - Athalia
Athalia - Joan Sutherland
Josabeth - Emma Kirkby
Joas - Aled Jones
Joad - James Bowman
Mathan - Anthony Rolfe Johnson
Abner - David Thomas
Choir of New College, Oxford
The Academy of Ancient Music
Conductor - Christopher Hogwood

CDs 5 & 6: Handel - Esther
Esther - Patrizia Kwella
Ahasuerus - Anthony Rolfe Johnson
Mordecai - Ian Partridge
Haman - David Thomas
Israelite woman - Emma Kirkby
1st Israelite - Paul Elliott
2nd Israelite/Habdonah/Officier - Andrew King
Priest - Drew Minter
Westminster Cathedral Boys Choir
Chorus and Orchestra of The Academy of Ancient Music
Conductor - Christopher Hogwood

CDs 7 & 8: Handel - La Resurrezione
Angelo - Emma Kirkby
Maddalena - Patrizia Kwella
Cleofe - Carolyn Watkinson
San Giovanni - Ian Partridge
Lucifero - David Thomas
The Academy Of Ancient Music
Conductor - Christopher Hogwood


Messiah
CD1: [65.34]
01. Part I. Sinfony
02. Recitative: Comfort ye my people/Song: Every valley shall be exalted
03. Chorus: And the glory of the Lord
04. Recitative: Thus saith the Lord/Song: But who may abide the day of his coming?
05. Chorus: And he shall purify
06. Recitative: Behold, a virgin shall conceive/Song: O thou that tellest good tidings to Zion
07. Recitative: For behold, darkness shall cover the earth/Song: The people that walked in darkness
08. Chorus: For unto us a child is born
09. Pifa
10. Recitative: There were shepherds, abiding in the field/Chorus: Glory to God
11. Song: Rejoice greatly, o daughter of Zion
12. Recitative: Then shall the eyes of the blind/Song: He shall feed his flock
13. Chorus: His yoke is easy, and his burden is light
14. Part II. Chorus: Behold the Lamb of God
15. Song: He was despised
CD2: [71.00]
01. Chorus: Surely he hath borne our griefs
02. Chorus: All we like sheep have gone astray
03. Recitative: All they that see him laugh him to scorn/Chorus: He trusted in God
04. Recitative: Thy rebuke hath broken his heart/Song: Behold and see if there be any sorrow
05. Song: But thou didst not leave his soul in hell
06. Chorus: Lift up your heads, o ye gates
07. Recitative: Unto which of the angels said he at any time/Chorus: Let all the angels of God worship him
08. Song: Thou art gone up on high
09. Chorus: The Lord gave the word
10. Song: How beautiful are the feet
11. Chorus: Their sound is gone out
12. Song: Why do the nations so furiously rage together?/Chorus: Let us break their bonds asunder
13. Recitative: He that dwelleth in heaven/Song: Thou shalt break them
14. Chorus: Hallelujah
15. Part III. Song: I know that my redeemer liveth
16. Chorus: Since by man came death
17. Recitative: Behold, I tell you a mystery/Song: The trumpet shall sound
18. Recitative: Then shall be brought to pass/Duet: O Death, where is thy sting?
19. Chorus: But thanks be to God
20. Song: If God be for us
21. Chorus: Worthy is the lamb that was slain
22. Chorus: Amen
Athalia
CD3: [55.52]
01. Act I. Sinfonia
02. Aria: Blooming virgins, spotless train (Josabeth)
03. Chorus: The rising world Jehovah crown'd (Young Virgins)
04. Solo & Chorus: Tyrants would in impious throngs (Josabeth and Israelites)
05. Recitative: When he is in his wrath reveal'd (Abner)
06. Recitative: Your sacred songs awhile forbear (Joad)
07. Recitative: What scenes of horror round me rise! (Athalia)
08. Chorus: The gods, who chosen blessings shed (Attendants)
09. Chorus: Cheer her, o Baal (Attendants)
10. Aria: Gentle airs, melodious strains! (Mathan)
11. Aria: Softest sounds no more can ease me (Athalia)
12. Chorus: The traitor if you there descry (Attendants)
13. Aria: Faithful cares in vain extended (Josabeth)
14. Aria: Gloomy tyrants, we disdain (Joad)
CD4: [65.47]
01. Act II. Chorus: The mighty pow'r (Priests, Levites, Israelites)
02. Aria: Through the land so lovely blooming (Josabeth)
03. Aria: Ah, canst thou but prove me! (Abner)
04. Aria: Will God, whose mercies ever flow (Joas)
05. Aria: My vengeance awakes me (Athalia)
06. Duet: My spirits fail, I faint, I die! (Josabeth and Joad)
07. Duet: Cease thy anguish, smile once more (Joad and Josabeth)
08. Chorus: The clouded scene begins to clear (Trio of Young Virgins)
09. Act III. Recitative: What sacred horrors shake my breast! (Joad)
10. Chorus: Unfold, great seer, what heav'n imparts (Virgins, Priests, Levites)
11. Recitative: Let harmony breathe soft around (Joad)
12. Chorus: With firm united hearts (Virgins, Priests, Levites)
13. Aria: Soothing tyrant, falsely smiling! (Josabeth)
14. Chorus: Around let acclamations ring (Virgins, Priests, Levites)
15. Aria: Oppression, no longer I dread thee (Abner)
16. Aria: Hark! His thunders round me roll (Mathan)
17. Aria: To darkness eternal (Athalia)
18. Duet: Now, Josabeth, thy fears are o'er! (Joad and Josabeth)
19. Chorus: Give glory to his awful name (Virgins, Priests, Levites, Israelites)
Esther
CD5: [49.32]
01. Ouverture/Recitative: Tis greater far to spare (Habdonah, Haman)
02. Aria: Pluck root and branch from out the land (Haman)
03. Chorus: Shall we the God of Israel fear?
04. Aria: Tune your harps to cheerful strains (1st Israelite)
05. Chorus: Shall we of servitude complain
06. Aria: Praise the Lord with cheerful noise (Israelite woman)
07. Aria: Sing songs of praise, bow down the knee (2nd Israelite)
08. Chorus: Ye sons of Israel mourn
09. Aria: O Jordan, Jordan, sacred tide (Priest)
10. Aria: Dread not, righteous Queen, the danger (Mordecai)
11. Aria: Tears assist me, pity moving (Esther)
12. Chorus: Save us, o Lord
CD6: [47.12]
01. Recitative: Who dares intrude into our presence (Ahasuerus)
02. Duet: Who calls my parting soul from death? (Esther, Ahasuerus)
03. Aria: O beauteous Queen (Ahasuerus)
04. Aria: How can I stay when love invites (Ahasuerus)
05. Chorus: Virtue, truth and innocence
06. Arioso: Jehovah, crown'd with glory bright (Priest)
07. Arioso: Turn not, o Queen, thy face away (Haman)
08. Aria: Flatt'ring tongue, no more I hear thee! (Esther)
09. Aria: How art thou fall'n from thy height! (Haman)
10. Chorus: The Lord our enemy has slain
La Resurrezione
CD7: [61.21]
01. Parte Prima. Sonata
02. Disserratevi, o porte d'Averno (Angelo)
03. Qual'insolita luce (Lucifero)
04. Ma che veggio? (Lucifero)
05. D'amor fu consiglio (Angelo)
06. O voi, dell'Erebo (Lucifero)
07. Notte, notte funesta (Maddalena)
08. Piangete, sì, piangete (Cleofe)
09. Dolci chiodi, amate spine (Maddalena)
10. Quando è parto dell'affetto (S.Giovanni)
11. Naufragando va per l'onde (Cleofe)
12. Così la tortorella (S.Giovanni)
13. Ho un non so che nel cor (Maddalena)
14. Il nume vincitor (Angelo, coro)
CD8: [48.17]
01. Parte Seconda. Introduzione
02. Ecco il sol, ch'esce dal mare (S.Giovanni)
03. Risorga il mondo (Angelo)
04. Di rabbia indarno freme (Angelo)
05. Per celare il nuovo scorno (Lucifero)
06. Impedirlo saprò (Lucifero)
07. Per me già di morire (Maddalena)
08. Vedo il Ciel che più sereno (Cleofe)
09. Se per colpa di donna infelice (Angelo)
10. Del ciglio dolente (Maddalena)
11. Augelletti, ruscelletti (Cleofe)
12. Caro Figlio! (S.Giovanni)
13. Se impassibile, immortale (Maddalena)
14. Diasi lode in Cielo, in terra (Coro)



Exact Audio Copy V1.6 from 23. October 2020

EAC extraction logfile from 9. March 2022, 17:10

Christopher Hogwood, The Academy of Ancient Music / Handel - Messiah CD1

Used drive : PIONEER DVD-RW DVR-218L Adapter: 1 ID: 0

Read mode : Secure
Utilize accurate stream : Yes
Defeat audio cache : Yes
Make use of C2 pointers : No

Read offset correction : 6
Overread into Lead-In and Lead-Out : No
Fill up missing offset samples with silence : Yes
Delete leading and trailing silent blocks : No
Null samples used in CRC calculations : Yes
Used interface : Native Win32 interface for Win NT & 2000

Used output format : User Defined Encoder
Selected bitrate : 768 kBit/s
Quality : High
Add ID3 tag : No
Command line compressor : C:\Program Files\Exact Audio Copy\FLAC\FLAC.EXE
Additional command line options : -6 -V -T "ARTIST=%artist%" -T "TITLE=%title%" -T "ALBUM=%albumtitle%" -T "DATE=%year%" -T "TRACKNUMBER=%tracknr%" -T "GENRE=%genre%" -T "COMMENT=%comment%" -T "BAND=%albuminterpret%" -T "ALBUMARTIST=%albuminterpret%" -T "COMPOSER=%composer%" %haslyrics%–tag-from-file=LYRICS="%lyricsfile%"%haslyrics% -T "DISCNUMBER=%cdnumber%" -T "TOTALDISCS=%totalcds%" -T "TOTALTRACKS=%numtracks%" %hascover%–picture="%coverfile%"%hascover% %source% -o %dest%


TOC of the extracted CD

Track | Start | Length | Start sector | End sector
––––––––––––––––––––––––––––-
1 | 0:00.32 | 2:56.63 | 32 | 13294
2 | 2:57.20 | 6:35.50 | 13295 | 42969
3 | 9:32.70 | 2:50.62 | 42970 | 55781
4 | 12:23.57 | 5:31.13 | 55782 | 80619
5 | 17:54.70 | 2:42.62 | 80620 | 92831
6 | 20:37.57 | 6:14.45 | 92832 | 120926
7 | 26:52.27 | 5:35.65 | 120927 | 146116
8 | 32:28.17 | 4:14.58 | 146117 | 165224
9 | 36:43.00 | 0:52.40 | 165225 | 169164
10 | 37:35.40 | 3:21.50 | 169165 | 184289
11 | 40:57.15 | 4:09.10 | 184290 | 202974
12 | 45:06.25 | 5:03.40 | 202975 | 225739
13 | 50:09.65 | 2:48.17 | 225740 | 238356
14 | 52:58.07 | 2:22.33 | 238357 | 249039
15 | 55:20.40 | 10:19.42 | 249040 | 295506


Range status and errors

Selected range

Filename D:\ArlegZ\Handel - Messiah - Christopher Hogwood CD1.wav

Peak level 97.6 %
Extraction speed 1.9 X
Range quality 100.0 %
Test CRC E2FC91F2
Copy CRC E2FC91F2
Copy OK

No errors occurred


AccurateRip summary

Track 1 accurately ripped (confidence 91) [D393E630] (AR v2)
Track 2 accurately ripped (confidence 92) [4ACFE71C] (AR v2)
Track 3 accurately ripped (confidence 91) [DEAE2EFE] (AR v2)
Track 4 accurately ripped (confidence 91) [6DBF352C] (AR v2)
Track 5 accurately ripped (confidence 92) [544A216C] (AR v2)
Track 6 accurately ripped (confidence 92) [687D40B4] (AR v2)
Track 7 accurately ripped (confidence 90) [B49D179F] (AR v2)
Track 8 accurately ripped (confidence 91) [EC4B4A55] (AR v2)
Track 9 accurately ripped (confidence 92) [FA96574E] (AR v2)
Track 10 accurately ripped (confidence 91) [6C7E4205] (AR v2)
Track 11 accurately ripped (confidence 90) [B1C70C9F] (AR v2)
Track 12 accurately ripped (confidence 90) [85D92461] (AR v2)
Track 13 accurately ripped (confidence 92) [63632299] (AR v2)
Track 14 accurately ripped (confidence 91) [A8EC924D] (AR v2)
Track 15 accurately ripped (confidence 87) [68AD59DD] (AR v2)

All tracks accurately ripped

End of status report

–– CUETools DB Plugin V2.1.6

[CTDB TOCID: oQ4eeUGRi0gC7Y27UmC9dEgLyZk-] found
Submit result: oQ4eeUGRi0gC7Y27UmC9dEgLyZk- has been confirmed
Track | CTDB Status
1 | (224/229) Accurately ripped
2 | (227/229) Accurately ripped
3 | (226/229) Accurately ripped
4 | (227/229) Accurately ripped
5 | (228/229) Accurately ripped
6 | (226/229) Accurately ripped
7 | (228/229) Accurately ripped
8 | (227/229) Accurately ripped
9 | (227/229) Accurately ripped
10 | (225/229) Accurately ripped
11 | (227/229) Accurately ripped
12 | (225/229) Accurately ripped
13 | (226/229) Accurately ripped
14 | (226/229) Accurately ripped
15 | (219/229) Accurately ripped


==== Log checksum 7E69C962F52E9E7177F2A1172AA8BBA9168313704C90CBAE0737261C1C349033 ====


Exact Audio Copy V1.6 from 23. October 2020

EAC extraction logfile from 9. March 2022, 18:21

Christopher Hogwood, The Academy of Ancient Music / Handel - Messiah CD2

Used drive : PIONEER DVD-RW DVR-218L Adapter: 1 ID: 0

Read mode : Secure
Utilize accurate stream : Yes
Defeat audio cache : Yes
Make use of C2 pointers : No

Read offset correction : 6
Overread into Lead-In and Lead-Out : No
Fill up missing offset samples with silence : Yes
Delete leading and trailing silent blocks : No
Null samples used in CRC calculations : Yes
Used interface : Native Win32 interface for Win NT & 2000

Used output format : User Defined Encoder
Selected bitrate : 768 kBit/s
Quality : High
Add ID3 tag : No
Command line compressor : C:\Program Files\Exact Audio Copy\FLAC\FLAC.EXE
Additional command line options : -6 -V -T "ARTIST=%artist%" -T "TITLE=%title%" -T "ALBUM=%albumtitle%" -T "DATE=%year%" -T "TRACKNUMBER=%tracknr%" -T "GENRE=%genre%" -T "COMMENT=%comment%" -T "BAND=%albuminterpret%" -T "ALBUMARTIST=%albuminterpret%" -T "COMPOSER=%composer%" %haslyrics%–tag-from-file=LYRICS="%lyricsfile%"%haslyrics% -T "DISCNUMBER=%cdnumber%" -T "TOTALDISCS=%totalcds%" -T "TOTALTRACKS=%numtracks%" %hascover%–picture="%coverfile%"%hascover% %source% -o %dest%


TOC of the extracted CD

Track | Start | Length | Start sector | End sector
––––––––––––––––––––––––––––-
1 | 0:00.33 | 3:56.60 | 33 | 17792
2 | 3:57.18 | 4:06.70 | 17793 | 36312
3 | 8:04.13 | 2:59.60 | 36313 | 49797
4 | 11:03.73 | 3:37.60 | 49798 | 66132
5 | 14:41.58 | 2:22.22 | 66133 | 76804
6 | 17:04.05 | 3:15.43 | 76805 | 91472
7 | 20:19.48 | 1:44.05 | 91473 | 99277
8 | 22:03.53 | 2:54.60 | 99278 | 112387
9 | 24:58.38 | 1:13.40 | 112388 | 117902
10 | 26:12.03 | 2:04.65 | 117903 | 127267
11 | 28:16.68 | 1:21.35 | 127268 | 133377
12 | 29:38.28 | 3:15.30 | 133378 | 148032
13 | 32:53.58 | 2:11.10 | 148033 | 157867
14 | 35:04.68 | 4:04.57 | 157868 | 176224
15 | 39:09.50 | 5:35.20 | 176225 | 201369
16 | 44:44.70 | 2:02.68 | 201370 | 210587
17 | 46:47.63 | 8:59.65 | 210588 | 251077
18 | 55:47.53 | 1:23.70 | 251078 | 257372
19 | 57:11.48 | 2:17.25 | 257373 | 267672
20 | 59:28.73 | 4:21.70 | 267673 | 287317
21 | 63:50.68 | 3:45.12 | 287318 | 304204
22 | 67:36.05 | 3:37.08 | 304205 | 320487


Range status and errors

Selected range

Filename D:\ArlegZ\Handel - Messiah - Christopher Hogwood CD2.wav

Peak level 97.4 %
Extraction speed 2.1 X
Range quality 99.9 %
Test CRC 3BC905FD
Copy CRC 3BC905FD
Copy OK

No errors occurred


AccurateRip summary

Track 1 accurately ripped (confidence 11) [3937CE6B] (AR v2)
Track 2 accurately ripped (confidence 11) [85E1F55D] (AR v2)
Track 3 accurately ripped (confidence 11) [2CF08771] (AR v2)
Track 4 accurately ripped (confidence 11) [C5B8FCCE] (AR v2)
Track 5 accurately ripped (confidence 11) [DF63D0A3] (AR v2)
Track 6 accurately ripped (confidence 11) [47E8619B] (AR v2)
Track 7 accurately ripped (confidence 11) [E34F3335] (AR v2)
Track 8 accurately ripped (confidence 11) [71E32871] (AR v2)
Track 9 accurately ripped (confidence 11) [16703297] (AR v2)
Track 10 accurately ripped (confidence 11) [982BE4A6] (AR v2)
Track 11 accurately ripped (confidence 11) [36D8904E] (AR v2)
Track 12 accurately ripped (confidence 11) [86EF7922] (AR v2)
Track 13 accurately ripped (confidence 11) [231AD735] (AR v2)
Track 14 accurately ripped (confidence 11) [70F03333] (AR v2)
Track 15 accurately ripped (confidence 11) [75A4EA61] (AR v2)
Track 16 accurately ripped (confidence 11) [E6206916] (AR v2)
Track 17 accurately ripped (confidence 11) [F067FCC2] (AR v2)
Track 18 accurately ripped (confidence 11) [2F59F0A0] (AR v2)
Track 19 accurately ripped (confidence 11) [F8E0C2EE] (AR v2)
Track 20 accurately ripped (confidence 11) [3CDB6C99] (AR v2)
Track 21 accurately ripped (confidence 11) [53C4EB72] (AR v2)
Track 22 accurately ripped (confidence 11) [360A34DE] (AR v2)

All tracks accurately ripped

End of status report

–– CUETools DB Plugin V2.1.6

[CTDB TOCID: 71MBOYYo6kqgtSCjBPYYo489gas-] found
Submit result: 71MBOYYo6kqgtSCjBPYYo489gas- has been confirmed
Track | CTDB Status
1 | (260/270) Accurately ripped, or (1/270) differs in 1 samples @02:02:42
2 | (264/270) Accurately ripped
3 | (266/270) Accurately ripped
4 | (265/270) Accurately ripped
5 | (267/270) Accurately ripped
6 | (266/270) Accurately ripped
7 | (266/270) Accurately ripped
8 | (267/270) Accurately ripped
9 | (267/270) Accurately ripped
10 | (266/270) Accurately ripped
11 | (267/270) Accurately ripped
12 | (265/270) Accurately ripped
13 | (267/270) Accurately ripped
14 | (266/270) Accurately ripped
15 | (266/270) Accurately ripped
16 | (266/270) Accurately ripped
17 | (264/270) Accurately ripped
18 | (265/270) Accurately ripped
19 | (263/270) Accurately ripped
20 | (262/270) Accurately ripped
21 | (261/270) Accurately ripped
22 | (259/270) Accurately ripped


==== Log checksum 2E9048A1642C208C5417250104B4BF589B37085FE585CFF7CCE88FE43B7627C2 ====


Exact Audio Copy V1.6 from 23. October 2020

EAC extraction logfile from 9. March 2022, 19:25

Christopher Hogwood, The Academy of Ancient Music / Handel - Athalia CD1

Used drive : PIONEER DVD-RW DVR-218L Adapter: 1 ID: 0

Read mode : Secure
Utilize accurate stream : Yes
Defeat audio cache : Yes
Make use of C2 pointers : No

Read offset correction : 6
Overread into Lead-In and Lead-Out : No
Fill up missing offset samples with silence : Yes
Delete leading and trailing silent blocks : No
Null samples used in CRC calculations : Yes
Used interface : Native Win32 interface for Win NT & 2000

Used output format : User Defined Encoder
Selected bitrate : 768 kBit/s
Quality : High
Add ID3 tag : No
Command line compressor : C:\Program Files\Exact Audio Copy\FLAC\FLAC.EXE
Additional command line options : -6 -V -T "ARTIST=%artist%" -T "TITLE=%title%" -T "ALBUM=%albumtitle%" -T "DATE=%year%" -T "TRACKNUMBER=%tracknr%" -T "GENRE=%genre%" -T "COMMENT=%comment%" -T "BAND=%albuminterpret%" -T "ALBUMARTIST=%albuminterpret%" -T "COMPOSER=%composer%" %haslyrics%–tag-from-file=LYRICS="%lyricsfile%"%haslyrics% -T "DISCNUMBER=%cdnumber%" -T "TOTALDISCS=%totalcds%" -T "TOTALTRACKS=%numtracks%" %hascover%–picture="%coverfile%"%hascover% %source% -o %dest%


TOC of the extracted CD

Track | Start | Length | Start sector | End sector
––––––––––––––––––––––––––––-
1 | 0:00.00 | 5:22.45 | 0 | 24194
2 | 5:22.45 | 4:47.45 | 24195 | 45764
3 | 10:10.15 | 3:13.17 | 45765 | 60256
4 | 13:23.32 | 3:18.63 | 60257 | 75169
5 | 16:42.20 | 3:41.32 | 75170 | 91776
6 | 20:23.52 | 6:41.35 | 91777 | 121886
7 | 27:05.12 | 2:20.40 | 121887 | 132426
8 | 29:25.52 | 2:29.23 | 132427 | 143624
9 | 31:55.00 | 3:09.60 | 143625 | 157859
10 | 35:04.60 | 3:38.27 | 157860 | 174236
11 | 38:43.12 | 4:31.20 | 174237 | 194581
12 | 43:14.32 | 1:56.45 | 194582 | 203326
13 | 45:11.02 | 5:52.13 | 203327 | 229739
14 | 51:03.15 | 4:48.55 | 229740 | 251394


Range status and errors

Selected range

Filename D:\ArlegZ\Handel - Athalia - Christopher Hogwood CD1.wav

Peak level 96.5 %
Extraction speed 1.8 X
Range quality 100.0 %
Test CRC 48B018F6
Copy CRC 48B018F6
Copy OK

No errors occurred


AccurateRip summary

Track 1 accurately ripped (confidence 24) [D251EE76] (AR v2)
Track 2 accurately ripped (confidence 24) [0DCD1795] (AR v2)
Track 3 accurately ripped (confidence 24) [2A689498] (AR v2)
Track 4 accurately ripped (confidence 24) [8945C1D6] (AR v2)
Track 5 accurately ripped (confidence 24) [37209B03] (AR v2)
Track 6 accurately ripped (confidence 24) [786AAB38] (AR v2)
Track 7 accurately ripped (confidence 24) [7D89493A] (AR v2)
Track 8 accurately ripped (confidence 24) [8E1C56E0] (AR v2)
Track 9 accurately ripped (confidence 24) [0DFADF0F] (AR v2)
Track 10 accurately ripped (confidence 24) [FF101C3A] (AR v2)
Track 11 accurately ripped (confidence 24) [06496788] (AR v2)
Track 12 accurately ripped (confidence 24) [E6ACC9BE] (AR v2)
Track 13 accurately ripped (confidence 24) [8BEC415A] (AR v2)
Track 14 accurately ripped (confidence 24) [98B17875] (AR v2)

All tracks accurately ripped

End of status report

–– CUETools DB Plugin V2.1.6

[CTDB TOCID: 8AOhlK17btHz8r0siPG5rPIJzXE-] found
Submit result: 8AOhlK17btHz8r0siPG5rPIJzXE- has been confirmed
Track | CTDB Status
1 | (65/65) Accurately ripped
2 | (65/65) Accurately ripped
3 | (65/65) Accurately ripped
4 | (65/65) Accurately ripped
5 | (65/65) Accurately ripped
6 | (65/65) Accurately ripped
7 | (65/65) Accurately ripped
8 | (65/65) Accurately ripped
9 | (65/65) Accurately ripped
10 | (65/65) Accurately ripped
11 | (65/65) Accurately ripped
12 | (65/65) Accurately ripped
13 | (65/65) Accurately ripped
14 | (64/65) Accurately ripped


==== Log checksum 47C5D20D49327C6C00E699F6D51C5CDD4CC1FCFCE48A7DD0A1DD8BCE77A8107D ====


Exact Audio Copy V1.6 from 23. October 2020

EAC extraction logfile from 9. March 2022, 20:38

Christopher Hogwood, The Academy of Ancient Music / Handel - Athalia CD2

Used drive : PIONEER DVD-RW DVR-218L Adapter: 1 ID: 0

Read mode : Secure
Utilize accurate stream : Yes
Defeat audio cache : Yes
Make use of C2 pointers : No

Read offset correction : 6
Overread into Lead-In and Lead-Out : No
Fill up missing offset samples with silence : Yes
Delete leading and trailing silent blocks : No
Null samples used in CRC calculations : Yes
Used interface : Native Win32 interface for Win NT & 2000

Used output format : User Defined Encoder
Selected bitrate : 768 kBit/s
Quality : High
Add ID3 tag : No
Command line compressor : C:\Program Files\Exact Audio Copy\FLAC\FLAC.EXE
Additional command line options : -6 -V -T "ARTIST=%artist%" -T "TITLE=%title%" -T "ALBUM=%albumtitle%" -T "DATE=%year%" -T "TRACKNUMBER=%tracknr%" -T "GENRE=%genre%" -T "COMMENT=%comment%" -T "BAND=%albuminterpret%" -T "ALBUMARTIST=%albuminterpret%" -T "COMPOSER=%composer%" %haslyrics%–tag-from-file=LYRICS="%lyricsfile%"%haslyrics% -T "DISCNUMBER=%cdnumber%" -T "TOTALDISCS=%totalcds%" -T "TOTALTRACKS=%numtracks%" %hascover%–picture="%coverfile%"%hascover% %source% -o %dest%


TOC of the extracted CD

Track | Start | Length | Start sector | End sector
––––––––––––––––––––––––––––-
1 | 0:00.00 | 5:57.32 | 0 | 26806
2 | 5:57.32 | 8:22.15 | 26807 | 64471
3 | 14:19.47 | 5:31.17 | 64472 | 89313
4 | 19:50.64 | 3:18.36 | 89314 | 104199
5 | 23:09.25 | 4:52.17 | 104200 | 126116
6 | 28:01.42 | 4:11.55 | 126117 | 144996
7 | 32:13.22 | 6:34.40 | 144997 | 174586
8 | 38:47.62 | 3:58.67 | 174587 | 192503
9 | 42:46.54 | 1:28.71 | 192504 | 199174
10 | 44:15.50 | 0:51.32 | 199175 | 203031
11 | 45:07.07 | 4:15.08 | 203032 | 222164
12 | 49:22.15 | 0:56.37 | 222165 | 226401
13 | 50:18.52 | 2:20.73 | 226402 | 236974
14 | 52:39.50 | 2:39.52 | 236975 | 248951
15 | 55:19.27 | 1:52.38 | 248952 | 257389
16 | 57:11.65 | 2:43.30 | 257390 | 269644
17 | 59:55.20 | 1:05.25 | 269645 | 274544
18 | 61:00.45 | 2:35.65 | 274545 | 286234
19 | 63:36.35 | 2:10.32 | 286235 | 296016


Range status and errors

Selected range

Filename D:\ArlegZ\Handel - Athalia - Christopher Hogwood CD2.wav

Peak level 97.0 %
Extraction speed 1.9 X
Range quality 100.0 %
Test CRC 31985058
Copy CRC 31985058
Copy OK

No errors occurred


AccurateRip summary

Track 1 accurately ripped (confidence 26) [4C253E24] (AR v2)
Track 2 accurately ripped (confidence 26) [268CBF84] (AR v2)
Track 3 accurately ripped (confidence 26) [914896DE] (AR v2)
Track 4 accurately ripped (confidence 26) [76B7F8FE] (AR v2)
Track 5 accurately ripped (confidence 26) [82E97B1D] (AR v2)
Track 6 accurately ripped (confidence 26) [B9EA40DE] (AR v2)
Track 7 accurately ripped (confidence 26) [29B2A8B1] (AR v2)
Track 8 accurately ripped (confidence 26) [5A7507D0] (AR v2)
Track 9 accurately ripped (confidence 26) [7C5F705A] (AR v2)
Track 10 accurately ripped (confidence 26) [D7CD298F] (AR v2)
Track 11 accurately ripped (confidence 26) [AD18DFBF] (AR v2)
Track 12 accurately ripped (confidence 26) [21FE3B01] (AR v2)
Track 13 accurately ripped (confidence 26) [9E09346A] (AR v2)
Track 14 accurately ripped (confidence 26) [DA205B56] (AR v2)
Track 15 accurately ripped (confidence 26) [21C2FBF4] (AR v2)
Track 16 accurately ripped (confidence 26) [E576E281] (AR v2)
Track 17 accurately ripped (confidence 26) [16576F16] (AR v2)
Track 18 accurately ripped (confidence 26) [FE79F9BB] (AR v2)
Track 19 accurately ripped (confidence 26) [C0C5DC39] (AR v2)

All tracks accurately ripped

End of status report

–– CUETools DB Plugin V2.1.6

[CTDB TOCID: okp5dPFqKAWdCykt8dZt736JmIs-] found
Submit result: okp5dPFqKAWdCykt8dZt736JmIs- has been confirmed
Track | CTDB Status
1 | (61/61) Accurately ripped
2 | (61/61) Accurately ripped
3 | (61/61) Accurately ripped
4 | (61/61) Accurately ripped
5 | (61/61) Accurately ripped
6 | (60/61) Accurately ripped
7 | (61/61) Accurately ripped
8 | (61/61) Accurately ripped
9 | (61/61) Accurately ripped
10 | (61/61) Accurately ripped
11 | (61/61) Accurately ripped
12 | (61/61) Accurately ripped
13 | (61/61) Accurately ripped
14 | (61/61) Accurately ripped
15 | (61/61) Accurately ripped
16 | (61/61) Accurately ripped
17 | (61/61) Accurately ripped
18 | (61/61) Accurately ripped
19 | (61/61) Accurately ripped


==== Log checksum A0DD1DFA7EFA2F847F60ACC3F0A229664DA21E6108AE4FA25E8BE6331BDA5B77 ====


Exact Audio Copy V1.6 from 23. October 2020

EAC extraction logfile from 10. March 2022, 12:28

Christopher Hogwood, The Academy of Ancient Music / Handel - Esther CD1

Used drive : PIONEER DVD-RW DVR-218L Adapter: 1 ID: 0

Read mode : Secure
Utilize accurate stream : Yes
Defeat audio cache : Yes
Make use of C2 pointers : No

Read offset correction : 6
Overread into Lead-In and Lead-Out : No
Fill up missing offset samples with silence : Yes
Delete leading and trailing silent blocks : No
Null samples used in CRC calculations : Yes
Used interface : Native Win32 interface for Win NT & 2000

Used output format : User Defined Encoder
Selected bitrate : 768 kBit/s
Quality : High
Add ID3 tag : No
Command line compressor : C:\Program Files\Exact Audio Copy\FLAC\FLAC.EXE
Additional command line options : -6 -V -T "ARTIST=%artist%" -T "TITLE=%title%" -T "ALBUM=%albumtitle%" -T "DATE=%year%" -T "TRACKNUMBER=%tracknr%" -T "GENRE=%genre%" -T "COMMENT=%comment%" -T "BAND=%albuminterpret%" -T "ALBUMARTIST=%albuminterpret%" -T "COMPOSER=%composer%" %haslyrics%–tag-from-file=LYRICS="%lyricsfile%"%haslyrics% -T "DISCNUMBER=%cdnumber%" -T "TOTALDISCS=%totalcds%" -T "TOTALTRACKS=%numtracks%" %hascover%–picture="%coverfile%"%hascover% %source% -o %dest%


TOC of the extracted CD

Track | Start | Length | Start sector | End sector
––––––––––––––––––––––––––––-
1 | 0:00.33 | 7:45.65 | 33 | 34972
2 | 7:46.23 | 2:09.42 | 34973 | 44689
3 | 9:55.65 | 1:54.53 | 44690 | 53292
4 | 11:50.43 | 3:55.72 | 53293 | 70989
5 | 15:46.40 | 1:26.08 | 70990 | 77447
6 | 17:12.48 | 6:08.15 | 77448 | 105062
7 | 23:20.63 | 6:11.70 | 105063 | 132957
8 | 29:32.58 | 2:05.47 | 132958 | 142379
9 | 31:38.30 | 9:34.45 | 142380 | 185474
10 | 41:13.00 | 3:45.53 | 185475 | 202402
11 | 44:58.53 | 3:01.35 | 202403 | 216012
12 | 48:00.13 | 1:32.28 | 216013 | 222940


Range status and errors

Selected range

Filename D:\ArlegZ\Handel - Esther - Christopher Hogwood CD1.wav

Peak level 87.8 %
Extraction speed 1.8 X
Range quality 100.0 %
Test CRC 5F5C052C
Copy CRC 5F5C052C
Copy OK

No errors occurred


AccurateRip summary

Track 1 accurately ripped (confidence 18) [FF8D4096] (AR v2)
Track 2 accurately ripped (confidence 18) [259B2AA5] (AR v2)
Track 3 accurately ripped (confidence 18) [66DE88FC] (AR v2)
Track 4 accurately ripped (confidence 18) [20EAB558] (AR v2)
Track 5 accurately ripped (confidence 18) [A144D87D] (AR v2)
Track 6 accurately ripped (confidence 18) [B845C740] (AR v2)
Track 7 accurately ripped (confidence 18) [8810CFC7] (AR v2)
Track 8 accurately ripped (confidence 18) [947B4330] (AR v2)
Track 9 accurately ripped (confidence 18) [74673B75] (AR v2)
Track 10 accurately ripped (confidence 18) [0E71B985] (AR v2)
Track 11 accurately ripped (confidence 18) [6491417F] (AR v2)
Track 12 accurately ripped (confidence 18) [B9FD4749] (AR v2)

All tracks accurately ripped

End of status report

–– CUETools DB Plugin V2.1.6

[CTDB TOCID: 5rco0DmOgolkZuDNBMYMoWZrDTs-] database access error: Невозможно разрешить удаленное имя: 'db.cuetools.net'


==== Log checksum 1D3FB58162177091E45EC05DA99875FEF1ED5C2C9E5B26A1C9D692398405EC06 ====


Exact Audio Copy V1.6 from 23. October 2020

EAC extraction logfile from 10. March 2022, 13:24

Christopher Hogwood, The Academy of Ancient Music / Handel - Esther CD2

Used drive : PIONEER DVD-RW DVR-218L Adapter: 1 ID: 0

Read mode : Secure
Utilize accurate stream : Yes
Defeat audio cache : Yes
Make use of C2 pointers : No

Read offset correction : 6
Overread into Lead-In and Lead-Out : No
Fill up missing offset samples with silence : Yes
Delete leading and trailing silent blocks : No
Null samples used in CRC calculations : Yes
Used interface : Native Win32 interface for Win NT & 2000

Used output format : User Defined Encoder
Selected bitrate : 768 kBit/s
Quality : High
Add ID3 tag : No
Command line compressor : C:\Program Files\Exact Audio Copy\FLAC\FLAC.EXE
Additional command line options : -6 -V -T "ARTIST=%artist%" -T "TITLE=%title%" -T "ALBUM=%albumtitle%" -T "DATE=%year%" -T "TRACKNUMBER=%tracknr%" -T "GENRE=%genre%" -T "COMMENT=%comment%" -T "BAND=%albuminterpret%" -T "ALBUMARTIST=%albuminterpret%" -T "COMPOSER=%composer%" %haslyrics%–tag-from-file=LYRICS="%lyricsfile%"%haslyrics% -T "DISCNUMBER=%cdnumber%" -T "TOTALDISCS=%totalcds%" -T "TOTALTRACKS=%numtracks%" %hascover%–picture="%coverfile%"%hascover% %source% -o %dest%


TOC of the extracted CD

Track | Start | Length | Start sector | End sector
––––––––––––––––––––––––––––-
1 | 0:00.33 | 1:08.25 | 33 | 5157
2 | 1:08.58 | 2:34.50 | 5158 | 16757
3 | 3:43.33 | 7:38.47 | 16758 | 51154
4 | 11:22.05 | 3:54.15 | 51155 | 68719
5 | 15:16.20 | 2:33.50 | 68720 | 80244
6 | 17:49.70 | 6:58.53 | 80245 | 111647
7 | 24:48.48 | 2:10.62 | 111648 | 121459
8 | 26:59.35 | 5:11.65 | 121460 | 144849
9 | 32:11.25 | 4:15.63 | 144850 | 164037
10 | 36:27.13 | 10:45.40 | 164038 | 212452


Range status and errors

Selected range

Filename D:\ArlegZ\Handel - Esther - Christopher Hogwood CD2.wav

Peak level 96.3 %
Extraction speed 1.8 X
Range quality 100.0 %
Test CRC D0E65CDC
Copy CRC D0E65CDC
Copy OK

No errors occurred


AccurateRip summary

Track 1 accurately ripped (confidence 17) [641339BE] (AR v2)
Track 2 accurately ripped (confidence 18) [995C3098] (AR v2)
Track 3 accurately ripped (confidence 18) [84D9DDEB] (AR v2)
Track 4 accurately ripped (confidence 18) [53DA765B] (AR v2)
Track 5 accurately ripped (confidence 18) [DA6B429C] (AR v2)
Track 6 accurately ripped (confidence 18) [E99B2893] (AR v2)
Track 7 accurately ripped (confidence 18) [813E7602] (AR v2)
Track 8 accurately ripped (confidence 18) [52278B7C] (AR v2)
Track 9 accurately ripped (confidence 18) [378C1CEA] (AR v2)
Track 10 accurately ripped (confidence 18) [AB6F5A5F] (AR v2)

All tracks accurately ripped

End of status report

–– CUETools DB Plugin V2.1.6

[CTDB TOCID: ZYjMYOLbyjPUbiK4tENqJIRou7A-] found
Submit result: ZYjMYOLbyjPUbiK4tENqJIRou7A- has been confirmed
Track | CTDB Status
1 | (80/80) Accurately ripped
2 | (80/80) Accurately ripped
3 | (80/80) Accurately ripped
4 | (80/80) Accurately ripped
5 | (80/80) Accurately ripped
6 | (70/80) Accurately ripped, or (9/80) differs in 26 samples @00:47:49
7 | (80/80) Accurately ripped
8 | (79/80) Accurately ripped
9 | (80/80) Accurately ripped
10 | (80/80) Accurately ripped


==== Log checksum B1A10A210E6D5E8B1CDD7B37E4A0B253C2555D5324B3DE0B7057109A559AEB81 ====


Exact Audio Copy V1.6 from 23. October 2020

EAC extraction logfile from 10. March 2022, 14:35

Christopher Hogwood, The Academy of Ancient Music / Handel - La Resurrezione CD1

Used drive : PIONEER DVD-RW DVR-218L Adapter: 1 ID: 0

Read mode : Secure
Utilize accurate stream : Yes
Defeat audio cache : Yes
Make use of C2 pointers : No

Read offset correction : 6
Overread into Lead-In and Lead-Out : No
Fill up missing offset samples with silence : Yes
Delete leading and trailing silent blocks : No
Null samples used in CRC calculations : Yes
Used interface : Native Win32 interface for Win NT & 2000

Used output format : User Defined Encoder
Selected bitrate : 768 kBit/s
Quality : High
Add ID3 tag : No
Command line compressor : C:\Program Files\Exact Audio Copy\FLAC\FLAC.EXE
Additional command line options : -6 -V -T "ARTIST=%artist%" -T "TITLE=%title%" -T "ALBUM=%albumtitle%" -T "DATE=%year%" -T "TRACKNUMBER=%tracknr%" -T "GENRE=%genre%" -T "COMMENT=%comment%" -T "BAND=%albuminterpret%" -T "ALBUMARTIST=%albuminterpret%" -T "COMPOSER=%composer%" %haslyrics%–tag-from-file=LYRICS="%lyricsfile%"%haslyrics% -T "DISCNUMBER=%cdnumber%" -T "TOTALDISCS=%totalcds%" -T "TOTALTRACKS=%numtracks%" %hascover%–picture="%coverfile%"%hascover% %source% -o %dest%


TOC of the extracted CD

Track | Start | Length | Start sector | End sector
––––––––––––––––––––––––––––-
1 | 0:00.33 | 3:17.45 | 33 | 14852
2 | 3:18.03 | 5:32.45 | 14853 | 39797
3 | 8:50.48 | 4:48.50 | 39798 | 61447
4 | 13:39.23 | 1:32.35 | 61448 | 68382
5 | 15:11.58 | 3:58.70 | 68383 | 86302
6 | 19:10.53 | 3:27.65 | 86303 | 101892
7 | 22:38.43 | 6:55.50 | 101893 | 133067
8 | 29:34.18 | 4:31.12 | 133068 | 153404
9 | 34:05.30 | 5:21.38 | 153405 | 177517
10 | 39:26.68 | 4:43.20 | 177518 | 198762
11 | 44:10.13 | 6:05.25 | 198763 | 226162
12 | 50:15.38 | 4:33.40 | 226163 | 246677
13 | 54:49.03 | 4:10.07 | 246678 | 265434
14 | 58:59.10 | 2:21.73 | 265435 | 276082


Range status and errors

Selected range

Filename D:\ArlegZ\Handel - La Resurrezione - Christopher Hogwood CD1.wav

Peak level 78.9 %
Extraction speed 1.9 X
Range quality 100.0 %
Test CRC B15C8947
Copy CRC B15C8947
Copy OK

No errors occurred


AccurateRip summary

Track 1 accurately ripped (confidence 7) [37FB9454] (AR v2)
Track 2 accurately ripped (confidence 7) [7483F7CD] (AR v2)
Track 3 accurately ripped (confidence 8) [2E1A4499] (AR v2)
Track 4 accurately ripped (confidence 8) [36EC78B8] (AR v2)
Track 5 accurately ripped (confidence 8) [5975A4C3] (AR v2)
Track 6 accurately ripped (confidence 7) [E838C8DB] (AR v2)
Track 7 accurately ripped (confidence 7) [73D0419A] (AR v2)
Track 8 accurately ripped (confidence 7) [107B62F5] (AR v2)
Track 9 accurately ripped (confidence 6) [71D79C6C] (AR v2)
Track 10 accurately ripped (confidence 7) [10E19484] (AR v2)
Track 11 accurately ripped (confidence 8) [658B97AA] (AR v2)
Track 12 accurately ripped (confidence 9) [5AB97D90] (AR v2)
Track 13 accurately ripped (confidence 9) [24459794] (AR v2)
Track 14 accurately ripped (confidence 9) [C54AA853] (AR v2)

All tracks accurately ripped

End of status report

–– CUETools DB Plugin V2.1.6

[CTDB TOCID: EGv9Waf_5wlWn_.3MX6KZ9bf3do-] found
Submit result: EGv9Waf_5wlWn_.3MX6KZ9bf3do- has been confirmed
Track | CTDB Status
1 | (113/113) Accurately ripped
2 | (112/113) Accurately ripped
3 | (112/113) Accurately ripped
4 | (111/113) Accurately ripped
5 | (112/113) Accurately ripped
6 | (113/113) Accurately ripped
7 | (113/113) Accurately ripped
8 | (113/113) Accurately ripped
9 | (113/113) Accurately ripped
10 | (113/113) Accurately ripped
11 | (113/113) Accurately ripped
12 | (113/113) Accurately ripped
13 | (109/113) Accurately ripped
14 | (111/113) Accurately ripped


==== Log checksum FE74BA6E43DB7EB0FA1F42CC310E7C45F212193F84D10F6E49EB0AF83A597B79 ====


Exact Audio Copy V1.6 from 23. October 2020

EAC extraction logfile from 10. March 2022, 15:35

Christopher Hogwood, The Academy of Ancient Music / Handel - La Resurrezione CD2

Used drive : PIONEER DVD-RW DVR-218L Adapter: 1 ID: 0

Read mode : Secure
Utilize accurate stream : Yes
Defeat audio cache : Yes
Make use of C2 pointers : No

Read offset correction : 6
Overread into Lead-In and Lead-Out : No
Fill up missing offset samples with silence : Yes
Delete leading and trailing silent blocks : No
Null samples used in CRC calculations : Yes
Used interface : Native Win32 interface for Win NT & 2000

Used output format : User Defined Encoder
Selected bitrate : 768 kBit/s
Quality : High
Add ID3 tag : No
Command line compressor : C:\Program Files\Exact Audio Copy\FLAC\FLAC.EXE
Additional command line options : -6 -V -T "ARTIST=%artist%" -T "TITLE=%title%" -T "ALBUM=%albumtitle%" -T "DATE=%year%" -T "TRACKNUMBER=%tracknr%" -T "GENRE=%genre%" -T "COMMENT=%comment%" -T "BAND=%albuminterpret%" -T "ALBUMARTIST=%albuminterpret%" -T "COMPOSER=%composer%" %haslyrics%–tag-from-file=LYRICS="%lyricsfile%"%haslyrics% -T "DISCNUMBER=%cdnumber%" -T "TOTALDISCS=%totalcds%" -T "TOTALTRACKS=%numtracks%" %hascover%–picture="%coverfile%"%hascover% %source% -o %dest%


TOC of the extracted CD

Track | Start | Length | Start sector | End sector
––––––––––––––––––––––––––––-
1 | 0:00.33 | 2:24.40 | 33 | 10872
2 | 2:24.73 | 5:13.12 | 10873 | 34359
3 | 7:38.10 | 2:34.15 | 34360 | 45924
4 | 10:12.25 | 1:45.53 | 45925 | 53852
5 | 11:58.03 | 2:28.30 | 53853 | 64982
6 | 14:26.33 | 1:21.47 | 64983 | 71104
7 | 15:48.05 | 5:33.68 | 71105 | 96147
8 | 21:21.73 | 5:35.52 | 96148 | 121324
9 | 26:57.50 | 3:03.60 | 121325 | 135109
10 | 30:01.35 | 2:51.33 | 135110 | 147967
11 | 32:52.68 | 4:03.57 | 147968 | 166249
12 | 36:56.50 | 5:42.25 | 166250 | 191924
13 | 42:39.00 | 4:10.25 | 191925 | 210699
14 | 46:49.25 | 1:27.50 | 210700 | 217274


Range status and errors

Selected range

Filename D:\ArlegZ\Handel - La Resurrezione - Christopher Hogwood CD2.wav

Peak level 78.0 %
Extraction speed 1.7 X
Range quality 99.9 %
Test CRC 31EABF21
Copy CRC 31EABF21
Copy OK

No errors occurred


AccurateRip summary

Track 1 accurately ripped (confidence 55) [528F5139] (AR v2)
Track 2 accurately ripped (confidence 55) [FF4C6B0C] (AR v2)
Track 3 accurately ripped (confidence 55) [16EAC4AE] (AR v2)
Track 4 accurately ripped (confidence 55) [BD50D191] (AR v2)
Track 5 accurately ripped (confidence 55) [405B588A] (AR v2)
Track 6 accurately ripped (confidence 55) [9E0F1BA8] (AR v2)
Track 7 accurately ripped (confidence 55) [8BD43DF4] (AR v2)
Track 8 accurately ripped (confidence 54) [9F29AFB9] (AR v2)
Track 9 accurately ripped (confidence 55) [F21500F3] (AR v2)
Track 10 accurately ripped (confidence 55) [C2F581E9] (AR v2)
Track 11 accurately ripped (confidence 55) [1C8B7ADE] (AR v2)
Track 12 accurately ripped (confidence 55) [DC11D01F] (AR v2)
Track 13 accurately ripped (confidence 54) [76952C9A] (AR v2)
Track 14 accurately ripped (confidence 55) [E8CDDB48] (AR v2)

All tracks accurately ripped

End of status report

–– CUETools DB Plugin V2.1.6

[CTDB TOCID: b0ifc6dabG3Trgd3g7pC7gvfq7c-] found
Submit result: b0ifc6dabG3Trgd3g7pC7gvfq7c- has been confirmed
Track | CTDB Status
1 | (78/78) Accurately ripped
2 | (78/78) Accurately ripped
3 | (78/78) Accurately ripped
4 | (78/78) Accurately ripped
5 | (78/78) Accurately ripped
6 | (78/78) Accurately ripped
7 | (78/78) Accurately ripped
8 | (78/78) Accurately ripped
9 | (77/78) Accurately ripped
10 | (78/78) Accurately ripped
11 | (78/78) Accurately ripped
12 | (78/78) Accurately ripped
13 | (78/78) Accurately ripped
14 | (78/78) Accurately ripped


==== Log checksum 68CE739CF2727196CF13218CE568514412A2825185054180D1A7A3CEC00CE678 ====


Christopher Hogwood, The Academy of Ancient Music - Handel: Messiah, Athalia, Esther, La Resurrezione [8CDs] (2005)