Subcategories

Circus - Circus (1976)

Posted By: v3122
Circus - Circus (1976)

Circus - Circus (1976)
EAC | Flac(Image) + Cue + Log & MP3 CBR 320Kbps
2017 | Big Pink Music, Big Pink 526 | ~ 215 or 99 Mb | Scans(jpg) -> 28 Mb
Progressive Rock

This was CIRCUS' debut from 1976. It's quite mellow with lots of flute. It's interesting that the vocalist sometimes sounds like Ian Anderson and at other times like Peter Hammill. He sings in a reserved manner for the most part which suits the music here. I should mention that many consider the follow-up to this "Movin On" to be a minor classic.
"Stormsplineter" settles in with vocals quickly as flute plays over top. His vocals remind me of Ian Anderson here. Some impressive bass later. "Nowadays" is barely audible for over 2 minutes then it kicks in. It's quiet again before 4 minutes as contrasts continue. "Sundays" is mellow with keys, guitar, flute and drums standing out. Vocals join in around 1 1/2 minutes. Lots of flute when the vocals stop.

"Dawntalk" doesn't have much going on and no melody until after 2 minutes. Sax and flute arrive later. Some prominant bass too. "Room For Sale" is the over 15 minute closer. It picks up before 2 minutes with flute, guitar, bass and drums. Vocals 4 1/2 minutes in as it settles right down. Some chunky bass 6 minutes in. I like the instrumental section before 10 minutes to 12 1/2 minutes.

A good album without a doubt but the next one is an improvement in pretty much every area.

by Mellotron Storm, progarchives
Circus - Circus (1976)


Circus - Circus (1976):

Circus - Circus (1976)

Tracklist:

01. Stormsplinter 02:54
02. Nowadays 10:52
03. Sundays 06:59
04. Dawntalk 05:13
05. Room for Sale 15:03

Musicians:

Marco Cerletti - bass, basspedal, gitarre
Andreas Grieder - querflote
Roland Frei - gesang, 6-,12-sattige gitarre, tenorsaxophon
Fritz Hauser - schlagzeug, vibraphon


Exact Audio Copy V1.1 from 23. June 2015

Отчёт EAC об извлечении, выполненном 14. декабря 2017, 13:47

Circus / Circus

Дисковод: ASUS DRW-24B3ST Adapter: 0 ID: 0

Режим чтения : Достоверность
Использование точного потока : Да
Отключение кэша аудио : Да
Использование указателей C2 : Нет

Коррекция смещения при чтении : 6
Способность читать области Lead-in и Lead-out : Нет
Заполнение пропущенных сэмплов тишиной : Да
Удаление блоков с тишиной в начале и конце : Нет
При вычислениях CRC использовались нулевые сэмплы : Да
Интерфейс : Установленный внешний ASPI-интерфейс

Выходной формат : Пользовательский кодировщик
Выбранный битрейт : 1024 kBit/s
Качество : Высокий
Добавление ID3-тега : Нет
Утилита сжатия : C:\Program Files (x86)\Exact Audio Copy\Flac\flac.exe
Дополнительные параметры : -V -8 -T "Date=%year%" -T "Genre=%genre%" %source%


TOC извлечённого CD

Трек | Старт | Длительность | Начальный сектор | Конечный сектор
––––––––––––––––––––––––––––––––––-
1 | 0:00.00 | 2:53.63 | 0 | 13037
2 | 2:53.63 | 10:52.24 | 13038 | 61961
3 | 13:46.12 | 6:59.28 | 61962 | 93414
4 | 20:45.40 | 5:13.03 | 93415 | 116892
5 | 25:58.43 | 15:03.35 | 116893 | 184652


Характеристики диапазона извлечения и сообщения об ошибках

Выбранный диапазон

Имя файла E:\Torrents\Circus - 1976 - Circus\Circus - Circus.wav

Пиковый уровень 98.7 %
Скорость извлечения 7.8 X
Качество диапазона 100.0 %
CRC теста 85B97E0E
CRC копии 85B97E0E
Копирование… OK

Ошибок не произошло


AccurateRip: сводка

Трек 1 отсутствует в базе данных
Трек 2 отсутствует в базе данных
Трек 3 отсутствует в базе данных
Трек 4 отсутствует в базе данных
Трек 5 отсутствует в базе данных

Ни одного трека нет в базе AccurateRip

Конец отчёта

==== Контрольная сумма отчёта 24D14C310764D6F13280900A9ABE4C443909BCD398DB0A3D488DE75C236DA07C ====


[CUETools log; Date: 14.12.2017 14:39:18; Version: 2.1.5]
[AccurateRip ID: 00072bc9-0022c276-3b099e05] disk not present in database.

Track Peak [ CRC32 ] [W/O NULL] [ LOG ]
– 98,7 [85B97E0E] [ABBB29DF] CRC32
01 98,7 [32156880] [72918A83]
02 98,7 [AE152D33] [2572B895]
03 93,9 [061FFDB5] [DF535DD2]
04 98,7 [2EBBC77A] [C7B06C09]
05 98,7 [36A7268F] [213E19A0]


Circus - Circus (1976)

All thanks go to Копысов

Circus or Circus in my Blog

Download Circus - Circus (1976):