Subcategories

Circus Maximus - The 1st Chapter (2005) + Isolate (2007) [Japanese Editions]

Posted By: popsakov
Circus Maximus - The 1st Chapter (2005) + Isolate (2007) [Japanese Editions]

Circus Maximus - The 1st Chapter (2005) + Isolate (2007)
EAC Rip | FLAC (Img) + Cue + Log ~ 994 Mb | MP3 CBR320 ~ 313 Mb
Scans (JPG, 600 dpi) ~ 263 Mb | RAR 5% Recovery
Progressive Metal | Soundholic #TKCS-85187/85177

Circus Maximus is a Norwegian progressive metal quintet from Oslo. They employ the use of symphonic and power metal influences that feature synthesizers and occasional keyboards. As of 2012, they have released three albums, The 1st Chapter in 2005, Isolate in 2007 and Nine, in 2012.

***************

Circus Maximus - The 1st Chapter (2005) + Isolate (2007) [Japanese Editions]

Circus Maximus - The 1st Chapter (2005/2008)
EAC Rip | FLAC (Img) + Cue + Log ~ 536 Mb | MP3 CBR320 ~ 167 Mb
Scans (JPG, 600 dpi) ~ 145 Mb | RAR 5% Recovery
Progressive Metal | Soundholic #TKCS-85187

The 1st Chapter is the debut album by the Norwegian progressive metal band, Circus Maximus. The 1st Chapter was released on June 7, 2005 in the United States and on May 14, 2005 in Norway. The on-going theme of The 1st Chapter is about "the journey" to salvation expressed through the lyrics. Musically, it sports a circus-like theme (that actually can be heard) playing throughout the album. The lyrics to the song "Glory of the Empire" refer heavily to the 2000 film, Gladiator. The 1st Chapter contains, the longest running Circus Maximus song with "The 1st Chapter" running for 19 minutes and 7 seconds.
~ Wiki
Circus Maximus - The 1st Chapter (2005) + Isolate (2007) [Japanese Editions]

Track List:

01. Sin [05:54]
02. Alive [05:39]
03. Glory Of The Empire [10:28]
04. Biosfear [05:23]
05. Silence From Angels Above [04:08]
06. Why Am I Here [06:06]
07. The Prophecy [06:45]
08. The 1st Chapter [19:08]
09. Marion (bonus track) [06:13]

Exact Audio Copy V1.0 beta 3 from 29. August 2011

EAC extraction logfile from 30. May 2015, 17:30

Circus Maximus / The 1st Chapter

Used drive : SlimtypeDVD A DS8A5SH Adapter: 0 ID: 0

Read mode : Secure
Utilize accurate stream : Yes
Defeat audio cache : Yes
Make use of C2 pointers : No

Read offset correction : 6
Overread into Lead-In and Lead-Out : No
Fill up missing offset samples with silence : Yes
Delete leading and trailing silent blocks : No
Null samples used in CRC calculations : Yes
Used interface : Installed external ASPI interface

Used output format : User Defined Encoder
Selected bitrate : 320 kBit/s
Quality : High
Add ID3 tag : No
Command line compressor : C:\Program Files (x86)\Exact Audio Copy\Flac\flac.exe
Additional command line options : -V -8 -T "Date=%year%" -T "Genre=%genre%" %source%


TOC of the extracted CD

Track | Start | Length | Start sector | End sector
––––––––––––––––––––––––––––-
1 | 0:00.00 | 5:53.04 | 0 | 26478
2 | 5:53.04 | 5:38.19 | 26479 | 51847
3 | 11:31.23 | 10:27.31 | 51848 | 98903
4 | 21:58.54 | 5:22.01 | 98904 | 123054
5 | 27:20.55 | 4:07.16 | 123055 | 141595
6 | 31:27.71 | 6:05.21 | 141596 | 168991
7 | 37:33.17 | 6:44.16 | 168992 | 199307
8 | 44:17.33 | 19:07.49 | 199308 | 285381
9 | 63:25.07 | 6:12.21 | 285382 | 313302


Range status and errors

Selected range

Filename D:\My Music\Circus Maximus - Japanese Lossless Discography\Circus Maximus - 2005 The 1st Chapter\Circus Maximus - The 1st Chapter.wav

Peak level 100.0 %
Extraction speed 2.1 X
Range quality 100.0 %
Test CRC 42DFEB12
Copy CRC 42DFEB12
Copy OK

No errors occurred


AccurateRip summary

Track 1 accurately ripped (confidence 1) [64A3411D] (AR v1)
Track 2 accurately ripped (confidence 1) [54897545] (AR v1)
Track 3 accurately ripped (confidence 1) [43E0E683] (AR v1)
Track 4 accurately ripped (confidence 1) [3F656032] (AR v1)
Track 5 accurately ripped (confidence 1) [9E20EBB2] (AR v1)
Track 6 accurately ripped (confidence 1) [8BDFBD99] (AR v1)
Track 7 accurately ripped (confidence 1) [DC353F38] (AR v1)
Track 8 accurately ripped (confidence 1) [4CEB75BC] (AR v1)
Track 9 accurately ripped (confidence 1) [797CC339] (AR v1)

All tracks accurately ripped

End of status report

==== Log checksum A01F6C87CDA426F9C8B97C5C043E6446EBD163710460E6256606ECFABDB8BEE8 ====

foobar2000 1.2.6 / Dynamic Range Meter 1.1.1
log date: 2015-06-01 21:42:18

––––––––––––––––––––––––––––––––––––––––
Analyzed: Circus Maximus / The 1st Chapter
––––––––––––––––––––––––––––––––––––––––

DR Peak RMS Duration Track
––––––––––––––––––––––––––––––––––––––––
DR5 0.00 dB -5.98 dB 5:53 01-Sin
DR6 0.00 dB -6.69 dB 5:38 02-Alive
DR5 0.00 dB -6.94 dB 10:27 03-Glory Of The Empire
DR6 0.00 dB -6.78 dB 5:22 04-Biosfear
DR12 0.00 dB -14.68 dB 4:07 05-Silence From Angels Above
DR6 0.00 dB -6.85 dB 6:05 06-Why Am I Here
DR5 0.00 dB -7.41 dB 6:44 07-The Prophecy
DR5 0.00 dB -7.06 dB 19:08 08-The 1st Chapter
DR6 0.00 dB -7.35 dB 6:12 09-Marion (bonus track)
––––––––––––––––––––––––––––––––––––––––

Number of tracks: 9
Official DR value: DR6

Samplerate: 44100 Hz
Channels: 2
Bits per sample: 16
Bitrate: 1026 kbps
Codec: FLAC
================================================================================

[CUETools log; Date: 01.06.2015 21:41:55; Version: 2.1.5]
[CTDB TOCID: kJXYb8HCmouzMrVsUJOibtZ6MhI-] found.
Track | CTDB Status
1 | (1/1) Accurately ripped
2 | (1/1) Accurately ripped
3 | (1/1) Accurately ripped
4 | (1/1) Accurately ripped
5 | (1/1) Accurately ripped
6 | (1/1) Accurately ripped
7 | (1/1) Accurately ripped
8 | (1/1) Accurately ripped
9 | (1/1) Accurately ripped
[AccurateRip ID: 00157f63-00a0f286-84105109] found.
Track [ CRC | V2 ] Status
01 [64a3411d|cc0bc732] (1+0/1) Accurately ripped
02 [54897545|835749d7] (1+0/1) Accurately ripped
03 [43e0e683|25a05582] (1+0/1) Accurately ripped
04 [3f656032|1a51eff5] (1+0/1) Accurately ripped
05 [9e20ebb2|b5c7f498] (1+0/1) Accurately ripped
06 [8bdfbd99|f97bd43c] (1+0/1) Accurately ripped
07 [dc353f38|003319a9] (1+0/1) Accurately ripped
08 [4ceb75bc|8e21e14f] (1+0/1) Accurately ripped
09 [797cc339|3f61d27c] (1+0/1) Accurately ripped

Track Peak [ CRC32 ] [W/O NULL] [ LOG ]
– 99,9 [42DFEB12] [968F2E88] CRC32
01 99,9 [EB6DF86D] [4553D9B3]
02 99,9 [9684D1A5] [6F218774]
03 99,9 [E0051C32] [215F2516]
04 99,9 [C6FEC743] [8E227E46]
05 99,9 [9A93475D] [EFD89BD9]
06 99,9 [2FCEEE60] [4AFFD8D8]
07 99,9 [81F40185] [2351B576]
08 99,9 [85F9A962] [C3BFD746]
09 99,9 [E25305FD] [9828A0A4]

Circus Maximus - The 1st Chapter (2005) + Isolate (2007) [Japanese Editions]

***************

Circus Maximus - The 1st Chapter (2005) + Isolate (2007) [Japanese Editions]

Circus Maximus - Isolate (2007)
EAC Rip | FLAC (Img) + Cue + Log ~ 458 Mb | MP3 CBR320 ~ 146 Mb
Scans (JPG, 600 dpi) ~ 117 Mb | RAR 5% Recovery
Progressive Metal | Soundholic #TKCS-85177

Isolate is the second full-length studio album by the Norwegian progressive metal band Circus Maximus. The album was released on October 24, 2007 in Japan, August, 2007 in Europe and September 4, 2007 in the US. Like its former album, Isolate contains the same number of tracks (with the bonus tracks) and also track 4 is an Instrumental ("Biosfear" on The 1st Chapter and "Sane No More" on Isolate). Isolate is also the first album to feature new keyboardist Lasse Finbråten after Espen Storø's departure at the end of recording of The 1st Chapter. Lasse Finbråten added more keyboard/synthesizer sounds to the album in both soloing and overall use. This is different from the previous album as Espen Storø's sound centered around the use of the piano. The album entered the Norwegian national charts at number 70 in August, 2007.
~ Wiki
Circus Maximus - The 1st Chapter (2005) + Isolate (2007) [Japanese Editions]

Track List:

01. A Darkened Mind [05:34]
02. Abyss [05:01]
03. Wither [04:47]
04. Sane No More [03:55]
05. Arrival Of Love [04:11]
06. Zero [04:50]
07. Mouth Of Madness [12:43]
08. From Childhood's Hour [04:29]
09. Ultimate Sacrifice [09:20]
10. Silence (bonus track) [06:14]

Exact Audio Copy V1.0 beta 3 from 29. August 2011

EAC extraction logfile from 30. May 2015, 16:19

Circus Maximus / Isolate

Used drive : SlimtypeDVD A DS8A5SH Adapter: 0 ID: 0

Read mode : Secure
Utilize accurate stream : Yes
Defeat audio cache : Yes
Make use of C2 pointers : No

Read offset correction : 6
Overread into Lead-In and Lead-Out : No
Fill up missing offset samples with silence : Yes
Delete leading and trailing silent blocks : No
Null samples used in CRC calculations : Yes
Used interface : Installed external ASPI interface

Used output format : User Defined Encoder
Selected bitrate : 320 kBit/s
Quality : High
Add ID3 tag : No
Command line compressor : C:\Program Files (x86)\Exact Audio Copy\Flac\flac.exe
Additional command line options : -V -8 -T "Date=%year%" -T "Genre=%genre%" %source%


TOC of the extracted CD

Track | Start | Length | Start sector | End sector
––––––––––––––––––––––––––––-
1 | 0:00.00 | 5:33.35 | 0 | 25009
2 | 5:33.35 | 5:00.02 | 25010 | 47511
3 | 10:33.37 | 4:46.20 | 47512 | 68981
4 | 15:19.57 | 3:54.44 | 68982 | 86575
5 | 19:14.26 | 4:10.12 | 86576 | 105337
6 | 23:24.38 | 4:49.39 | 105338 | 127051
7 | 28:14.02 | 12:42.08 | 127052 | 184209
8 | 40:56.10 | 4:28.31 | 184210 | 204340
9 | 45:24.41 | 9:19.29 | 204341 | 246294
10 | 54:43.70 | 6:13.53 | 246295 | 274322


Range status and errors

Selected range

Filename D:\My Music\Circus Maximus - Japanese Lossless Discography\Circus Maximus - 2007 Isolate\Circus Maximus - Isolate.wav

Peak level 100.0 %
Extraction speed 2.0 X
Range quality 99.9 %
Test CRC 454174D3
Copy CRC 454174D3
Copy OK

No errors occurred


AccurateRip summary

Track 1 accurately ripped (confidence 2) [9F8C0A51] (AR v2)
Track 2 accurately ripped (confidence 2) [A4D91493] (AR v2)
Track 3 accurately ripped (confidence 2) [0E5BA058] (AR v2)
Track 4 accurately ripped (confidence 2) [FB9A342C] (AR v2)
Track 5 accurately ripped (confidence 2) [BEF734EA] (AR v2)
Track 6 accurately ripped (confidence 2) [A2BA8601] (AR v2)
Track 7 accurately ripped (confidence 2) [6D581A55] (AR v2)
Track 8 accurately ripped (confidence 2) [3DF5DE53] (AR v2)
Track 9 accurately ripped (confidence 2) [2246D196] (AR v2)
Track 10 accurately ripped (confidence 2) [FF7FDF47] (AR v2)

All tracks accurately ripped

End of status report

==== Log checksum 962A6BB76CC268F1B477AFD6EB075E88814A2480B29879CBB790589C16D0E956 ====

foobar2000 1.2.6 / Dynamic Range Meter 1.1.1
log date: 2015-06-01 21:43:03

––––––––––––––––––––––––––––––––––––––––
Analyzed: Circus Maximus / Isolate
––––––––––––––––––––––––––––––––––––––––

DR Peak RMS Duration Track
––––––––––––––––––––––––––––––––––––––––
DR5 0.00 dB -6.00 dB 5:33 01-A Darkened Mind
DR5 0.00 dB -5.72 dB 5:00 02-Abyss
DR5 0.00 dB -5.93 dB 4:46 03-Wither
DR5 0.00 dB -5.75 dB 3:55 04-Sane No More
DR5 0.00 dB -6.06 dB 4:10 05-Arrival Of Love
DR6 0.00 dB -9.39 dB 4:50 06-Zero
DR5 0.00 dB -7.02 dB 12:42 07-Mouth Of Madness
DR5 0.00 dB -6.39 dB 4:28 08-From Childhood's Hour
DR5 0.00 dB -6.78 dB 9:19 09-Ultimate Sacrifice
DR6 0.00 dB -9.43 dB 6:14 10-Silence (bonus track)
––––––––––––––––––––––––––––––––––––––––

Number of tracks: 10
Official DR value: DR5

Samplerate: 44100 Hz
Channels: 2
Bits per sample: 16
Bitrate: 1000 kbps
Codec: FLAC
================================================================================

[CUETools log; Date: 01.06.2015 21:43:03; Version: 2.1.5]
[CTDB TOCID: xFOOx8gQmLuQizXGeRRkc2LVeqA-] found.
Track | CTDB Status
1 | (2/2) Accurately ripped
2 | (2/2) Accurately ripped
3 | (2/2) Accurately ripped
4 | (2/2) Accurately ripped
5 | (2/2) Accurately ripped
6 | (2/2) Accurately ripped
7 | (2/2) Accurately ripped
8 | (2/2) Accurately ripped
9 | (2/2) Accurately ripped
10 | (2/2) Accurately ripped
[AccurateRip ID: 0014e627-00ab2489-8b0e490a] found.
Track [ CRC | V2 ] Status
01 [0a6f9dfa|9f8c0a51] (4+2/6) Accurately ripped
02 [382162c9|a4d91493] (4+2/6) Accurately ripped
03 [ba309aa1|0e5ba058] (4+2/6) Accurately ripped
04 [3e1b711b|fb9a342c] (4+2/6) Accurately ripped
05 [67ae0045|bef734ea] (4+2/6) Accurately ripped
06 [a9e894dc|a2ba8601] (4+2/6) Accurately ripped
07 [b48e26a8|6d581a55] (4+2/6) Accurately ripped
08 [771887dd|3df5de53] (4+2/6) Accurately ripped
09 [d9c8acb1|2246d196] (4+2/6) Accurately ripped
10 [7ead2729|ff7fdf47] (4+2/6) Accurately ripped

Track Peak [ CRC32 ] [W/O NULL] [ LOG ]
– 99,9 [454174D3] [DFEDBE16] CRC32
01 99,9 [FDAEE8C7] [12119016]
02 99,9 [BEFE6D74] [6867E340]
03 99,9 [372082D0] [905308D2]
04 99,9 [FFB05FE6] [B8988255]
05 99,9 [1E0DB118] [94E973D7]
06 99,9 [76B15499] [699F2823]
07 99,9 [50D81DBF] [7BE3CA36]
08 99,9 [8D28596E] [A57C98D4]
09 99,9 [2B1B48C0] [889945D9]
10 99,9 [961686DE] [434B0B71]

Circus Maximus - The 1st Chapter (2005) + Isolate (2007) [Japanese Editions]

All thanks go to kolushew

Visit my blog!

Download: