Subcategories
Tags
Language
Tags

Clannad - 3 Originals: 'Sirius', 'Anam', 'Banba' (2002) 3CD Box Set [Re-Up]

Posted By: Designol
Clannad - 3 Originals: 'Sirius', 'Anam', 'Banba' (2002) 3CD Box Set [Re-Up]

Clannad - 3 Originals (2002) 3CD Box Set
EAC | FLAC | Image (Cue&Log) ~ 840 Mb | Mp3 (CBR320) ~ 411 Mb | Scans included
Celtic Fusion, Folk, New Age, Folk Rock | Ariola/BMG/RCA | # 74321 95071 2 | 02:08:35

This box-set combines three of the Celtic folk-rock/new age act's albums, Sirius (1987), Anam (1990) & Banba (1994). 31 tracks. Three standard jewelcases with individual artwork housed together in a slipcase.

Clannad bridged the gap between traditional Celtic music and pop. Usually, their results were an entrancing, enchanting form of pop that managed to fuse the disparate elements together rather seamlessly. Such fusions have earned the band an international cult of fans.

Taking their name from the Gaelic word for "family," Clannad formed in 1970 when the Brennan family – Maire (vocals, harp), Ciaran (vocals, guitar, bass, keyboards), Pol (guitar, percussion, flute, vocals) – began playing at their father Leo's tavern with two of their uncles, Padraig Duggan (guitar, vocals, mandolin) and Noel Duggan (guitar, vocals). Soon afterward, the group began playing folk festivals in Ireland. They released their self-titled first album in 1973, yet the band didn't earn any widespread success until they toured Germany in 1975. Maire's sister, Enya, joined the group in 1980, but left in 1982, just as the group was beginning to come into some pop success in the U.K. Clannad recorded the theme song for the television program Harry's Game; the single hit number five on the charts and won the band an Ivor Novello Award. The band recorded the soundtrack to the television production Robin of Sherwood in 1984; it won a British Academy Award for best soundtrack the next year. Clannad's success continued in 1986, when U2's Bono was featured on the Top 20 hit "In a Lifetime." The band continued to release albums into the '90s, building their pop following without losing their folk audience. Landmarks, which was issued in early 1997, earned the group their first ever Grammy award, though it also signaled the beginning of a long hiatus from the stage, and an indefinite one in regards to the studio. Compilations like The Best of Clannad: In a Lifetime and solo projects from Noel and Pádraig (The Duggans) and Moya Brennan dominated the front half of the 2000s, culminating in a 2008 world tour that found Clannad traveling as far as Thailand.

Stephen Thomas Erlewine, Allmusic.com

Clannad - 3 Originals: 'Sirius', 'Anam', 'Banba' (2002) 3CD Box Set [Re-Up]





Clannad - 3 Originals: 'Sirius', 'Anam', 'Banba' (2002) 3CD Box Set [Re-Up]

Clannad - Sirius (1987)
EAC | FLAC | Image (Cue&Log) ~ 295 Mb | Mp3 (CBR320) ~ 131 Mb
Label: BMG/RCA | # ND 75149 | Time: 00:42:37 | Scans included

Clannad took a lot of flack about this album. Some believed that an American production took away the raw energy and left nothing but a slick polished rock sound. But, do not dismiss SIRIUS too easily for on this album are some fine moments of music!

Standout tracks include:

The cymbal-crash of "In Search of a Heart" which proves to those who believe Clannad can only do slow songs that Clannad is not a one trick pony.

"Second Nature" has a big sound when it comes over the speakers. Electric instruments find an odd companion in the Irish pipes!

"Skellig" should be filed with the "Clannad's Tour of Ireland In Song" catagory with songs like "Newgrange" and "Poison Glen". I love it when Clannad do historical music! "Skellig" refers to a group of rocky islands off the coast of County Kerry. Because of their placement ships have trouble getting in and out of the inlet. The music is very atmospheric with the sound of the ocean and wind blowing through a harp…beautiful!

"White Fool" is a musical account of the Roman occupation of Brittain and Ireland when they pilaged for treasure and pushed back the Celts. Steve Perry (from Journey) joins the boys on the chanting of tribal Gaelic backing Maire's determined voice.

Maire duets with Bruce Hornsby in "Something to Believe In". Just a perfect piece of pop showing off their amazing harmony.

If you are just now getting into Clannad this was an important album for them, the last of the 1980s.

The album isn't lush like LORE but hearing it will help you understand how they got to make LORE (which many fans consider their best). Artists must continue to grow and experiment and SIRIUS was a worthwhile effort and a must for listeners.

Mars Velvet, Amazon.com

Clannad - 3 Originals: 'Sirius', 'Anam', 'Banba' (2002) 3CD Box Set [Re-Up]

Clannad - 3 Originals: 'Sirius', 'Anam', 'Banba' (2002) 3CD Box Set [Re-Up]


Tracklist:

01. In Search of a Heart (03:52)
02. Second Nature (03:19)
03. Turning Tide (04:40)
04. Skellig (04:47)
05. Stepping Stone (03:52)
06. White Fool (04:39)
07. Something to Believe In (04:46)
08. Live and Learn (03:34)
09. Many Roads (03:24)
10. Sirius (05:38)


Exact Audio Copy V1.0 beta 3 from 29. August 2011

Отчёт EAC об извлечении, выполненном 22. июня 2014, 13:59

Clannad / Sirius

Дисковод: PLEXTOR DVDR PX-760A Adapter: 1 ID: 0

Режим чтения : Достоверность
Использование точного потока : Да
Отключение кэша аудио : Да
Использование указателей C2 : Нет

Коррекция смещения при чтении : 30
Способность читать области Lead-in и Lead-out : Да
Заполнение пропущенных сэмплов тишиной : Да
Удаление блоков с тишиной в начале и конце : Нет
При вычислениях CRC использовались нулевые сэмплы : Да
Интерфейс : Установленный внешний ASPI-интерфейс

Выходной формат : Пользовательский кодировщик
Выбранный битрейт : 32 kBit/s
Качество : Низкий
Добавление ID3-тега : Нет
Утилита сжатия : C:\Program Files\Exact Audio Copy\Flac\flac.exe
Дополнительные параметры : -8 -V -T "ARTIST=%artist%" -T "ALBUM=%albumtitle%" -T "DATE=%year%" -T "GENRE=%genre%" -T "COMMENT=EAC FLAC -8" %source%


TOC извлечённого CD

Трек | Старт | Длительность | Начальный сектор | Конечный сектор
––––––––––––––––––––––––––––––––––-
1 | 0:00.00 | 3:52.37 | 0 | 17436
2 | 3:52.37 | 3:19.53 | 17437 | 32414
3 | 7:12.15 | 4:40.32 | 32415 | 53446
4 | 11:52.47 | 4:47.05 | 53447 | 74976
5 | 16:39.52 | 3:53.45 | 74977 | 92496
6 | 20:33.22 | 4:39.70 | 92497 | 113491
7 | 25:13.17 | 4:46.68 | 113492 | 135009
8 | 30:00.10 | 3:34.22 | 135010 | 151081
9 | 33:34.32 | 3:24.13 | 151082 | 166394
10 | 36:58.45 | 5:38.20 | 166395 | 191764


Характеристики диапазона извлечения и сообщения об ошибках

Выбранный диапазон

Имя файла E:\Muzons\Clannad\Clannad - 3 Originals\Clannad - Sirius (1987)\Clannad - Sirius.wav

Пиковый уровень 100.0 %
Скорость извлечения 2.5 X
Качество диапазона 100.0 %
CRC теста FDFF251C
CRC копии FDFF251C
Копирование… OK

Ошибок не произошло


AccurateRip: сводка

Трек 1 : извлечено точно (доверие 10) [E727D2A0] (AR v2)
Трек 2 : извлечено точно (доверие 10) [09FBAD18] (AR v2)
Трек 3 : извлечено точно (доверие 10) [94A6FA30] (AR v2)
Трек 4 : извлечено точно (доверие 10) [A7953B6E] (AR v2)
Трек 5 : извлечено точно (доверие 10) [7D7FD086] (AR v2)
Трек 6 : извлечено точно (доверие 10) [CF7818C0] (AR v2)
Трек 7 : извлечено точно (доверие 10) [C6EA1CCC] (AR v2)
Трек 8 : извлечено точно (доверие 10) [F3CE0E23] (AR v2)
Трек 9 : извлечено точно (доверие 10) [8294B5CC] (AR v2)
Трек 10 : извлечено точно (доверие 9) [2903B8E3] (AR v2)

Все треки извлечены точно

Конец отчёта

==== Контрольная сумма отчёта 27D1DF1AD09FF709FF79AF2FE111F8403CF3D9B259F8E129B67CBF8514873C01 ====

foobar2000 1.2 / Dynamic Range Meter 1.1.1
log date: 2014-07-24 18:30:02

––––––––––––––––––––––––––––––––––––––––
Analyzed: Clannad / Sirius
––––––––––––––––––––––––––––––––––––––––

DR Peak RMS Duration Track
––––––––––––––––––––––––––––––––––––––––
DR12 -2.22 dB -17.27 dB 3:52 01-In Search of a Heart
DR13 -0.38 dB -15.96 dB 3:20 02-Second Nature
DR13 -1.58 dB -17.33 dB 4:40 03-Turning Tide
DR14 -1.54 dB -18.74 dB 4:47 04-Skellig
DR13 0.00 dB -15.79 dB 3:54 05-Stepping Stone
DR15 -0.24 dB -19.17 dB 4:40 06-White Fool
DR13 -0.04 dB -17.27 dB 4:47 07-Something to Believe In
DR15 0.00 dB -17.24 dB 3:34 08-Live and Learn
DR13 -4.71 dB -19.13 dB 3:24 09-Many Roads
DR13 -0.96 dB -17.53 dB 5:38 10-Sirius
––––––––––––––––––––––––––––––––––––––––

Number of tracks: 10
Official DR value: DR13

Samplerate: 44100 Hz
Channels: 2
Bits per sample: 16
Bitrate: 856 kbps
Codec: FLAC
================================================================================




Clannad - 3 Originals: 'Sirius', 'Anam', 'Banba' (2002) 3CD Box Set [Re-Up]

Clannad - Anam (1990)
EAC | FLAC | Image (Cue&Log) ~ 223 Mb | Mp3 (CBR320) ~ 116 Mb
Label: BMG/RCA | # 74321 33068 2 | Time: 00:38:45 | Scans included

With the release of Anam in 1992, the Irish family act, with more than a dozen albums and 20 years behind them, had been pared to a quartet. Saxophonist Mel Collins spices things up on the jaunty "In Fortune's Hand," but most of Anam is slower and softer, mixing keyboard-based ballads with more folk-inflected tracks. Maire Brennan's voice is a thing of beauty, wispy and crystal clear, making the lyrics almost inconsequential (which they will be to most listeners, anyhow, as several tracks are sung in Gaelic). Her duet with Bono on "In a Lifetime" had already appeared years earlier, but its inclusion is one of the set's highlights, as is "Harry's Game" (recognizable from its commercial use). It's all the perfect fit for folk fans wanting something more pop-oriented and new age fans wanting something not so sterile.

Tom Demalon, Allmusic.com

Clannad - 3 Originals: 'Sirius', 'Anam', 'Banba' (2002) 3CD Box Set [Re-Up]

Clannad - 3 Originals: 'Sirius', 'Anam', 'Banba' (2002) 3CD Box Set [Re-Up]

Tracklist:

01. Ri Na Cruinne (04:02)
02. Anam (04:04)
03. In Fortune's Hand (03:54)
04. The Poison Glen (03:53)
05. Wilderness (02:06)
06. Why Worry (04:27)
07. Uirchill an Chreagain (04:23)
08. Love and Affection (04:58)
09. You're the One (03:53)
10. Dobhar (02:39)


Exact Audio Copy V1.0 beta 3 from 29. August 2011

Отчёт EAC об извлечении, выполненном 22. июня 2014, 14:34

Clannad / Anam

Дисковод: PLEXTOR DVDR PX-760A Adapter: 1 ID: 0

Режим чтения : Достоверность
Использование точного потока : Да
Отключение кэша аудио : Да
Использование указателей C2 : Нет

Коррекция смещения при чтении : 30
Способность читать области Lead-in и Lead-out : Да
Заполнение пропущенных сэмплов тишиной : Да
Удаление блоков с тишиной в начале и конце : Нет
При вычислениях CRC использовались нулевые сэмплы : Да
Интерфейс : Установленный внешний ASPI-интерфейс

Выходной формат : Пользовательский кодировщик
Выбранный битрейт : 32 kBit/s
Качество : Низкий
Добавление ID3-тега : Нет
Утилита сжатия : C:\Program Files\Exact Audio Copy\Flac\flac.exe
Дополнительные параметры : -8 -V -T "ARTIST=%artist%" -T "ALBUM=%albumtitle%" -T "DATE=%year%" -T "GENRE=%genre%" -T "COMMENT=EAC FLAC -8" %source%


TOC извлечённого CD

Трек | Старт | Длительность | Начальный сектор | Конечный сектор
––––––––––––––––––––––––––––––––––-
1 | 0:00.38 | 4:05.07 | 38 | 18419
2 | 4:05.45 | 4:05.63 | 18420 | 36857
3 | 8:11.33 | 3:57.67 | 36858 | 54699
4 | 12:09.25 | 3:55.55 | 54700 | 72379
5 | 16:05.05 | 2:08.63 | 72380 | 82042
6 | 18:13.68 | 4:30.05 | 82043 | 102297
7 | 22:43.73 | 4:25.37 | 102298 | 122209
8 | 27:09.35 | 4:59.20 | 122210 | 144654
9 | 32:08.55 | 3:57.38 | 144655 | 162467
10 | 36:06.18 | 2:39.42 | 162468 | 174434


Характеристики диапазона извлечения и сообщения об ошибках

Выбранный диапазон

Имя файла E:\Muzons\Clannad\Clannad - 3 Originals\Clannad - Anam (1990)\Clannad - Anam.wav

Пиковый уровень 100.0 %
Скорость извлечения 2.5 X
Качество диапазона 100.0 %
CRC теста 17DC646F
CRC копии 17DC646F
Копирование… OK

Ошибок не произошло


AccurateRip: сводка

Трек 1 : извлечено точно (доверие 5) [337AE9CC] (AR v2)
Трек 2 : извлечено точно (доверие 5) [6389F2F2] (AR v2)
Трек 3 : извлечено точно (доверие 5) [C90ECF1D] (AR v2)
Трек 4 : извлечено точно (доверие 5) [0586ADCB] (AR v2)
Трек 5 : извлечено точно (доверие 5) [28069C4A] (AR v2)
Трек 6 : извлечено точно (доверие 5) [37B6A128] (AR v2)
Трек 7 : извлечено точно (доверие 5) [11D1A098] (AR v2)
Трек 8 : извлечено точно (доверие 5) [988C5EA5] (AR v2)
Трек 9 : извлечено точно (доверие 5) [71E66BCD] (AR v2)
Трек 10 : извлечено точно (доверие 5) [4990455D] (AR v2)

Все треки извлечены точно

Конец отчёта

==== Контрольная сумма отчёта 8CF04E8BBBF6EAC43F9B4C79253084630F4650AE857604676D36809FCB996414 ====

foobar2000 1.2 / Dynamic Range Meter 1.1.1
log date: 2014-07-24 18:29:34

––––––––––––––––––––––––––––––––––––––––
Analyzed: Clannad / Anam
––––––––––––––––––––––––––––––––––––––––

DR Peak RMS Duration Track
––––––––––––––––––––––––––––––––––––––––
DR11 -2.59 dB -16.34 dB 4:05 01-Ri Na Cruinne
DR12 -4.72 dB -20.94 dB 4:06 02-Anam
DR13 0.00 dB -16.40 dB 3:58 03-In Fortune's Hand
DR12 -2.47 dB -17.16 dB 3:56 04-The Poison Glen
DR13 -3.03 dB -21.95 dB 2:09 05-Wilderness
DR14 -0.70 dB -17.67 dB 4:30 06-Why Worry
DR10 -8.28 dB -24.56 dB 4:25 07-Uirchill an Chreagain
DR13 -0.61 dB -17.08 dB 4:59 08-Love and Affection
DR14 -1.04 dB -18.43 dB 3:58 09-You're the One
DR15 -4.97 dB -25.39 dB 2:40 10-Dobhar
––––––––––––––––––––––––––––––––––––––––

Number of tracks: 10
Official DR value: DR13

Samplerate: 44100 Hz
Channels: 2
Bits per sample: 16
Bitrate: 705 kbps
Codec: FLAC
================================================================================




Clannad - 3 Originals: 'Sirius', 'Anam', 'Banba' (2002) 3CD Box Set [Re-Up]

Clannad - Banba (1993)
EAC | FLAC | Image (Cue&Log) ~ 322 Mb | Mp3 (CBR320) ~ 164 Mb
Label: BMG/RCA | # 74321 13961 2 | Time: 00:47:13 | Scans included

Clannad continues in the trend of the last few albums with their latest release, Banba. Though certainly a pop effort, the Celtic influences are still present, this time in a more subdued, low-key production.

Daevid Jehnzen, Allmusic.com

Clannad - 3 Originals: 'Sirius', 'Anam', 'Banba' (2002) 3CD Box Set [Re-Up]

Clannad - 3 Originals: 'Sirius', 'Anam', 'Banba' (2002) 3CD Box Set [Re-Up]


Tracklist:

01. Na Laethe Bhi (05:19)
02. Banba Oir (03:26)
03. There For You (04:09)
04. Mystery Game (04:24)
05. Struggle (04:03)
06. I Will Find You (Theme From 'The Last Of The Mohicans') (05:15)
07. Soul Searcher (04:24)
08. Ca De Sin Do'n Te Sin (04:21)
09. The Other Side (04:17)
10. Sunset Dreams (04:11)
11. A Gentle Place (03:10)


Exact Audio Copy V1.0 beta 3 from 29. August 2011

Отчёт EAC об извлечении, выполненном 22. июня 2014, 15:18

Clannad / Banba

Дисковод: PLEXTOR DVDR PX-760A Adapter: 1 ID: 0

Режим чтения : Достоверность
Использование точного потока : Да
Отключение кэша аудио : Да
Использование указателей C2 : Нет

Коррекция смещения при чтении : 30
Способность читать области Lead-in и Lead-out : Да
Заполнение пропущенных сэмплов тишиной : Да
Удаление блоков с тишиной в начале и конце : Нет
При вычислениях CRC использовались нулевые сэмплы : Да
Интерфейс : Установленный внешний ASPI-интерфейс

Выходной формат : Пользовательский кодировщик
Выбранный битрейт : 32 kBit/s
Качество : Низкий
Добавление ID3-тега : Нет
Утилита сжатия : C:\Program Files\Exact Audio Copy\Flac\flac.exe
Дополнительные параметры : -8 -V -T "ARTIST=%artist%" -T "ALBUM=%albumtitle%" -T "DATE=%year%" -T "GENRE=%genre%" -T "COMMENT=EAC FLAC -8" %source%


TOC извлечённого CD

Трек | Старт | Длительность | Начальный сектор | Конечный сектор
––––––––––––––––––––––––––––––––––-
1 | 0:00.00 | 5:20.65 | 0 | 24064
2 | 5:20.65 | 3:26.55 | 24065 | 39569
3 | 8:47.45 | 4:10.57 | 39570 | 58376
4 | 12:58.27 | 4:24.40 | 58377 | 78216
5 | 17:22.67 | 4:04.40 | 78217 | 96556
6 | 21:27.32 | 5:16.08 | 96557 | 120264
7 | 26:43.40 | 4:25.55 | 120265 | 140194
8 | 31:09.20 | 4:22.47 | 140195 | 159891
9 | 35:31.67 | 4:18.08 | 159892 | 179249
10 | 39:50.00 | 4:12.70 | 179250 | 198219
11 | 44:02.70 | 3:10.07 | 198220 | 212476


Характеристики диапазона извлечения и сообщения об ошибках

Выбранный диапазон

Имя файла E:\Muzons\Clannad\Clannad - 3 Originals\Clannad - Banba (1993)\Clannad - Banba.wav

Пиковый уровень 97.7 %
Скорость извлечения 2.5 X
Качество диапазона 100.0 %
CRC теста B2885C92
CRC копии B2885C92
Копирование… OK

Ошибок не произошло


AccurateRip: сводка

Трек 1 : извлечено точно (доверие 5) [1D55CE78] (AR v2)
Трек 2 : извлечено точно (доверие 5) [9B7F7AE1] (AR v2)
Трек 3 : извлечено точно (доверие 5) [296F29D2] (AR v2)
Трек 4 : извлечено точно (доверие 5) [595FC04A] (AR v2)
Трек 5 : извлечено точно (доверие 5) [D81C2930] (AR v2)
Трек 6 : извлечено точно (доверие 5) [2696C649] (AR v2)
Трек 7 : извлечено точно (доверие 5) [33B9FEAA] (AR v2)
Трек 8 : извлечено точно (доверие 5) [D325FE17] (AR v2)
Трек 9 : извлечено точно (доверие 5) [15AFD42A] (AR v2)
Трек 10 : извлечено точно (доверие 5) [62AC28F9] (AR v2)
Трек 11 : извлечено точно (доверие 5) [C7A719AA] (AR v2)

Все треки извлечены точно

Конец отчёта

==== Контрольная сумма отчёта 9C6FF662959F2AEFF69F8819B607010C23D14FAF687BDEFC07B2BEE7F209AB2A ====

foobar2000 1.2 / Dynamic Range Meter 1.1.1
log date: 2014-07-24 18:29:49

––––––––––––––––––––––––––––––––––––––––
Analyzed: Clannad / Banba
––––––––––––––––––––––––––––––––––––––––

DR Peak RMS Duration Track
––––––––––––––––––––––––––––––––––––––––
DR12 -0.92 dB -16.50 dB 5:21 01-Na Laethe Bhi
DR13 -0.20 dB -16.02 dB 3:27 02-Banba Oir
DR12 -0.20 dB -15.18 dB 4:11 03-There For You
DR13 -0.20 dB -18.13 dB 4:25 04-Mystery Game
DR12 -0.20 dB -15.48 dB 4:05 05-Struggle
DR11 -1.47 dB -16.77 dB 5:16 06-I Will Find You (Theme From 'The Last Of The Mohicans')
DR13 -0.21 dB -15.46 dB 4:26 07-Soul Searcher
DR12 -1.18 dB -15.78 dB 4:23 08-Ca De Sin Do'n Te Sin
DR13 -0.20 dB -14.45 dB 4:18 09-The Other Side
DR11 -1.57 dB -14.94 dB 4:13 10-Sunset Dreams
DR11 -2.62 dB -16.50 dB 3:10 11-A Gentle Place
––––––––––––––––––––––––––––––––––––––––

Number of tracks: 11
Official DR value: DR12

Samplerate: 44100 Hz
Channels: 2
Bits per sample: 16
Bitrate: 789 kbps
Codec: FLAC
================================================================================




Clannad - 3 Originals: 'Sirius', 'Anam', 'Banba' (2002) 3CD Box Set [Re-Up]