Subcategories

Classics For Clubbers (2004)

Posted By: JET 1
Classics For Clubbers (2004)

Classics For Clubbers (2004)
X Lossless decoder | FLAC (Tracks) +CUE, LOG | 1.08 GB | Covers Included
Genre: House, Club, Dance | Label: Feel The Rhythm | Catalog Number: FTR 4185-2

20 track complilaton from Feel The Rhythm label.

X Lossless Decoder version 20141129a (148.2)

XLD extraction logfile from 2015-12-08 16:55:06 +0300

Различные исполнители / Classics For Clubbers [Disc 1]

Used drive : HL-DT-ST DVDRAM GP08NU10 (revision JE01)
Media type : Pressed CD

Ripper mode : XLD Secure Ripper
Disable audio cache : OK for the drive with a cache less than 1375KiB
Make use of C2 pointers : NO
Read offset correction : 667
Max retry count : 100
Gap status : Analyzed, Appended

TOC of the extracted CD
Track | Start | Length | Start sector | End sector
––––––––––––––––––––––––––––-
1 | 00:00:00 | 07:49:13 | 0 | 35187
2 | 07:49:13 | 07:45:25 | 35188 | 70087
3 | 15:34:38 | 06:43:35 | 70088 | 100347
4 | 22:17:73 | 06:19:11 | 100348 | 128783
5 | 28:37:09 | 07:18:29 | 128784 | 161662
6 | 35:55:38 | 09:14:03 | 161663 | 203215
7 | 45:09:41 | 07:11:43 | 203216 | 235583
8 | 52:21:09 | 07:06:42 | 235584 | 267575
9 | 59:27:51 | 06:51:65 | 267576 | 298465
10 | 66:19:41 | 06:50:07 | 298466 | 329222

AccurateRip Summary (DiscID: 001becf8-00df0b44-9311250a)
Track 01 : OK (v2, confidence 1/1)
Track 02 : OK (v2, confidence 1/1)
Track 03 : OK (v2, confidence 1/1)
Track 04 : OK (v2, confidence 1/1)
Track 05 : OK (v2, confidence 1/1)
Track 06 : OK (v2, confidence 1/1)
Track 07 : OK (v2, confidence 1/1)
Track 08 : OK (v2, confidence 1/1)
Track 09 : OK (v2, confidence 1/1)
Track 10 : OK (v2, confidence 1/1)
->All tracks accurately ripped.

All Tracks
Album gain : -8.66 dB
Peak : 1.000000
Statistics
Read error : 0
Jitter error (maybe fixed) : 0
Retry sector count : 0
Damaged sector count : 0

Track 01
Filename : /Volumes/System/Rembo Music/Classics For Clubbers [Disc 1]/01 Lee Carbera Feat. Alex Cartana - Shake It (Move A Little Closer) (Extended Vocal).flac
Pre-gap length : 00:02:00

Track gain : -8.76 dB
Peak : 1.000000
CRC32 hash (test run) : 286C9C03
CRC32 hash : 286C9C03
CRC32 hash (skip zero) : 75694BD8
AccurateRip v1 signature : B760BA11
AccurateRip v2 signature : 58CFE807
->Accurately ripped (v2, confidence 1/1)
Statistics
Read error : 0
Jitter error (maybe fixed) : 0
Retry sector count : 0
Damaged sector count : 0

Track 02
Filename : /Volumes/System/Rembo Music/Classics For Clubbers [Disc 1]/02 Rune - Calabria (Original Mix).flac
Pre-gap length : 00:02:00

Track gain : -5.13 dB
Peak : 1.000000
CRC32 hash (test run) : 80F4FA65
CRC32 hash : 80F4FA65
CRC32 hash (skip zero) : 497D4F3B
AccurateRip v1 signature : E9C9D40B
AccurateRip v2 signature : CF8601B1
->Accurately ripped (v2, confidence 1/1)
Statistics
Read error : 0
Jitter error (maybe fixed) : 0
Retry sector count : 0
Damaged sector count : 0

Track 03
Filename : /Volumes/System/Rembo Music/Classics For Clubbers [Disc 1]/03 Milk & Sugar - Let The Sunshine (Original Terrace Mix).flac
Pre-gap length : 00:02:00

Track gain : -8.61 dB
Peak : 1.000000
CRC32 hash (test run) : 7B415348
CRC32 hash : 7B415348
CRC32 hash (skip zero) : 98BC2175
AccurateRip v1 signature : E5C7A109
AccurateRip v2 signature : 827B8D59
->Accurately ripped (v2, confidence 1/1)
Statistics
Read error : 0
Jitter error (maybe fixed) : 0
Retry sector count : 0
Damaged sector count : 0

Track 04
Filename : /Volumes/System/Rembo Music/Classics For Clubbers [Disc 1]/04 Sandy Rivera - I Can't Stop (Luca Cassani Extended Remix).flac
Pre-gap length : 00:02:00

Track gain : -9.40 dB
Peak : 1.000000
CRC32 hash (test run) : DA45A964
CRC32 hash : DA45A964
CRC32 hash (skip zero) : 1074F700
AccurateRip v1 signature : 40A10DBE
AccurateRip v2 signature : 3624C45B
->Accurately ripped (v2, confidence 1/1)
Statistics
Read error : 0
Jitter error (maybe fixed) : 0
Retry sector count : 0
Damaged sector count : 0

Track 05
Filename : /Volumes/System/Rembo Music/Classics For Clubbers [Disc 1]/05 Tim Deluxe - Less Talk More Action (Club Mix).flac
Pre-gap length : 00:02:00

Track gain : -8.29 dB
Peak : 1.000000
CRC32 hash (test run) : E9F7D57A
CRC32 hash : E9F7D57A
CRC32 hash (skip zero) : 219C120D
AccurateRip v1 signature : 8BBDEACC
AccurateRip v2 signature : D87F2697
->Accurately ripped (v2, confidence 1/1)
Statistics
Read error : 0
Jitter error (maybe fixed) : 0
Retry sector count : 0
Damaged sector count : 0

Track 06
Filename : /Volumes/System/Rembo Music/Classics For Clubbers [Disc 1]/06 Praise Cats Feat. Andrea Love - We Got Love (Main Mix).flac
Pre-gap length : 00:02:00

Track gain : -8.83 dB
Peak : 1.000000
CRC32 hash (test run) : B8FD4C82
CRC32 hash : B8FD4C82
CRC32 hash (skip zero) : 1DD24F3E
AccurateRip v1 signature : E54BFAE6
AccurateRip v2 signature : 2404B0F1
->Accurately ripped (v2, confidence 1/1)
Statistics
Read error : 0
Jitter error (maybe fixed) : 0
Retry sector count : 0
Damaged sector count : 0

Track 07
Filename : /Volumes/System/Rembo Music/Classics For Clubbers [Disc 1]/07 Eric Prydz - Slammin' (Original Mix).flac
Pre-gap length : 00:02:00

Track gain : -6.81 dB
Peak : 1.000000
CRC32 hash (test run) : 4A79EA69
CRC32 hash : 4A79EA69
CRC32 hash (skip zero) : CC17CC07
AccurateRip v1 signature : 7231FF32
AccurateRip v2 signature : 18308852
->Accurately ripped (v2, confidence 1/1)
Statistics
Read error : 0
Jitter error (maybe fixed) : 0
Retry sector count : 0
Damaged sector count : 0

Track 08
Filename : /Volumes/System/Rembo Music/Classics For Clubbers [Disc 1]/08 Soulsearcher - Feeling Love (Soulsearcher Club Mix).flac
Pre-gap length : 00:02:00

Track gain : -8.14 dB
Peak : 1.000000
CRC32 hash (test run) : 8AF2F5F0
CRC32 hash : 8AF2F5F0
CRC32 hash (skip zero) : 1DEEAD28
AccurateRip v1 signature : 87EC9F2B
AccurateRip v2 signature : 52B5E3B6
->Accurately ripped (v2, confidence 1/1)
Statistics
Read error : 0
Jitter error (maybe fixed) : 0
Retry sector count : 0
Damaged sector count : 0

Track 09
Filename : /Volumes/System/Rembo Music/Classics For Clubbers [Disc 1]/09 Saffron Hill Feat. Ben Onono - My Love Is Always (Tim Deluxe's Summertime Remix).flac
Pre-gap length : 00:02:00

Track gain : -8.88 dB
Peak : 1.000000
CRC32 hash (test run) : 08CA2027
CRC32 hash : 08CA2027
CRC32 hash (skip zero) : 7FBA9F49
AccurateRip v1 signature : 1F619693
AccurateRip v2 signature : 26692963
->Accurately ripped (v2, confidence 1/1)
Statistics
Read error : 0
Jitter error (maybe fixed) : 0
Retry sector count : 0
Damaged sector count : 0

Track 10
Filename : /Volumes/System/Rembo Music/Classics For Clubbers [Disc 1]/10 Dutch Feat. Crystal Waters - My Time (Extended Vocal).flac
Pre-gap length : 00:02:00

Track gain : -9.26 dB
Peak : 1.000000
CRC32 hash (test run) : AF58A789
CRC32 hash : AF58A789
CRC32 hash (skip zero) : 820EB83C
AccurateRip v1 signature : 965D3A7D
AccurateRip v2 signature : 32D9BFD1
->Accurately ripped (v2, confidence 1/1)
Statistics
Read error : 0
Jitter error (maybe fixed) : 0
Retry sector count : 0
Damaged sector count : 0

No errors occurred

End of status report

––-BEGIN XLD SIGNATURE––-
qvVp8FrbQwCmOuZ1eMjBqgww.qTVHp.XqAZvtofUN5noNx_kd.S2_GD.M0UT93h2O7FC5yuxJcNuq.iB2Kiyy9apDyL5YRefj8XqiKi
––-END XLD SIGNATURE––


X Lossless Decoder version 20141129a (148.2)

XLD extraction logfile from 2015-12-08 18:43:47 +0300

Различные исполнители / Classics For Clubbers [Disc 2]

Used drive : HL-DT-ST DVDRAM GP08NU10 (revision JE01)
Media type : Pressed CD

Ripper mode : XLD Secure Ripper
Disable audio cache : OK for the drive with a cache less than 1375KiB
Make use of C2 pointers : NO
Read offset correction : 667
Max retry count : 100
Gap status : Analyzed, Appended

TOC of the extracted CD
Track | Start | Length | Start sector | End sector
––––––––––––––––––––––––––––-
1 | 00:00:00 | 06:34:37 | 0 | 29586
2 | 06:34:37 | 07:04:71 | 29587 | 61457
3 | 13:39:33 | 07:04:25 | 61458 | 93282
4 | 20:43:58 | 08:22:11 | 93283 | 130943
5 | 29:05:69 | 09:35:59 | 130944 | 174127
6 | 38:41:53 | 06:36:55 | 174128 | 203882
7 | 45:18:33 | 08:57:20 | 203883 | 244177
8 | 54:15:53 | 07:03:36 | 244178 | 275938
9 | 61:19:14 | 07:37:32 | 275939 | 310245
10 | 68:56:46 | 07:56:13 | 310246 | 345958

AccurateRip Summary (DiscID: 001c8725-00e63a6a-8612040a)
Track 01 : OK (v2, confidence 1/1)
Track 02 : OK (v2, confidence 1/1)
Track 03 : OK (v2, confidence 1/1)
Track 04 : OK (v2, confidence 1/1)
Track 05 : OK (v2, confidence 1/1)
Track 06 : OK (v2, confidence 1/1)
Track 07 : OK (v2, confidence 1/1)
Track 08 : OK (v2, confidence 1/1)
Track 09 : OK (v2, confidence 1/1)
Track 10 : OK (v2, confidence 1/1)
->All tracks accurately ripped.

All Tracks
Album gain : -8.82 dB
Peak : 1.000000
Statistics
Read error : 0
Jitter error (maybe fixed) : 0
Retry sector count : 0
Damaged sector count : 0

Track 01
Filename : /Volumes/System/Rembo Music/Classics For Clubbers [Disc 2]/01 Ultra Naté - Free (Mood II Swing Extended Vocal Edit).flac
Pre-gap length : 00:02:00

Track gain : -8.46 dB
Peak : 1.000000
CRC32 hash (test run) : 9A1F0A9F
CRC32 hash : 9A1F0A9F
CRC32 hash (skip zero) : 15AADAC8
AccurateRip v1 signature : 74D9B2CC
AccurateRip v2 signature : 20C70CF3
->Accurately ripped (v2, confidence 1/1)
Statistics
Read error : 0
Jitter error (maybe fixed) : 0
Retry sector count : 0
Damaged sector count : 0

Track 02
Filename : /Volumes/System/Rembo Music/Classics For Clubbers [Disc 2]/02 Byron Stingily - Get Up (Mousse T Extended Mix).flac
Pre-gap length : 00:02:00

Track gain : -7.33 dB
Peak : 1.000000
CRC32 hash (test run) : 35B30989
CRC32 hash : 35B30989
CRC32 hash (skip zero) : FDFB4D25
AccurateRip v1 signature : 2C49C95F
AccurateRip v2 signature : EE9EB617
->Accurately ripped (v2, confidence 1/1)
Statistics
Read error : 0
Jitter error (maybe fixed) : 0
Retry sector count : 0
Damaged sector count : 0

Track 03
Filename : /Volumes/System/Rembo Music/Classics For Clubbers [Disc 2]/03 Cleptomaniacs Feat. Brian Chambers - All I Do (Original Cleptomaniacs Mix).flac
Pre-gap length : 00:02:00

Track gain : -9.85 dB
Peak : 1.000000
CRC32 hash (test run) : EB3716EF
CRC32 hash : EB3716EF
CRC32 hash (skip zero) : 83826353
AccurateRip v1 signature : 13589576
AccurateRip v2 signature : F7BF3224
->Accurately ripped (v2, confidence 1/1)
Statistics
Read error : 0
Jitter error (maybe fixed) : 0
Retry sector count : 0
Damaged sector count : 0

Track 04
Filename : /Volumes/System/Rembo Music/Classics For Clubbers [Disc 2]/04 ATFC Pres. OnePhatDeeva - In & Out Of My Life (ATFC Original Vocal Mix).flac
Pre-gap length : 00:02:00

Track gain : -9.08 dB
Peak : 1.000000
CRC32 hash (test run) : E54A135A
CRC32 hash : E54A135A
CRC32 hash (skip zero) : 425D2523
AccurateRip v1 signature : FC24216E
AccurateRip v2 signature : DCADC58A
->Accurately ripped (v2, confidence 1/1)
Statistics
Read error : 0
Jitter error (maybe fixed) : 0
Retry sector count : 0
Damaged sector count : 0

Track 05
Filename : /Volumes/System/Rembo Music/Classics For Clubbers [Disc 2]/05 Celeda - The Underground (Addictive Trip Mix).flac
Pre-gap length : 00:02:00

Track gain : -7.89 dB
Peak : 1.000000
CRC32 hash (test run) : B3F7092E
CRC32 hash : B3F7092E
CRC32 hash (skip zero) : AB4BFAEA
AccurateRip v1 signature : F3D4FA55
AccurateRip v2 signature : B12A7A6C
->Accurately ripped (v2, confidence 1/1)
Statistics
Read error : 0
Jitter error (maybe fixed) : 0
Retry sector count : 0
Damaged sector count : 0

Track 06
Filename : /Volumes/System/Rembo Music/Classics For Clubbers [Disc 2]/06 Johnny Corporate - Sunday Shoutin' (Original Club Mix).flac
Pre-gap length : 00:02:00

Track gain : -9.29 dB
Peak : 1.000000
CRC32 hash (test run) : 12A78FCD
CRC32 hash : 12A78FCD
CRC32 hash (skip zero) : 5293CDC7
AccurateRip v1 signature : 128BA588
AccurateRip v2 signature : FA70DC42
->Accurately ripped (v2, confidence 1/1)
Statistics
Read error : 0
Jitter error (maybe fixed) : 0
Retry sector count : 0
Damaged sector count : 0

Track 07
Filename : /Volumes/System/Rembo Music/Classics For Clubbers [Disc 2]/07 Michelle Weeks - The Light (Jamie Lewis Main Mix).flac
Pre-gap length : 00:02:00

Track gain : -7.91 dB
Peak : 1.000000
CRC32 hash (test run) : 6442B602
CRC32 hash : 6442B602
CRC32 hash (skip zero) : A33B40C1
AccurateRip v1 signature : 029E1D0C
AccurateRip v2 signature : 3C017338
->Accurately ripped (v2, confidence 1/1)
Statistics
Read error : 0
Jitter error (maybe fixed) : 0
Retry sector count : 0
Damaged sector count : 0

Track 08
Filename : /Volumes/System/Rembo Music/Classics For Clubbers [Disc 2]/08 Praise Cats Feat. Andrea Love - Shined On Me (Original E-Smoove Vocal Mix).flac
Pre-gap length : 00:02:00

Track gain : -9.53 dB
Peak : 1.000000
CRC32 hash (test run) : C0132869
CRC32 hash : C0132869
CRC32 hash (skip zero) : 8193144F
AccurateRip v1 signature : 56B99647
AccurateRip v2 signature : 069EBF7B
->Accurately ripped (v2, confidence 1/1)
Statistics
Read error : 0
Jitter error (maybe fixed) : 0
Retry sector count : 0
Damaged sector count : 0

Track 09
Filename : /Volumes/System/Rembo Music/Classics For Clubbers [Disc 2]/09 Ministers De-La-Funk Feat. Jocelyn Brown - Believe (Ministers Vocal Mix).flac
Pre-gap length : 00:02:00

Track gain : -9.16 dB
Peak : 1.000000
CRC32 hash (test run) : 7891AC55
CRC32 hash : 7891AC55
CRC32 hash (skip zero) : 94EF9325
AccurateRip v1 signature : EC67A759
AccurateRip v2 signature : 74CA10E0
->Accurately ripped (v2, confidence 1/1)
Statistics
Read error : 0
Jitter error (maybe fixed) : 0
Retry sector count : 0
Damaged sector count : 0

Track 10
Filename : /Volumes/System/Rembo Music/Classics For Clubbers [Disc 2]/10 David Morales - Needin' U (Original Mistake).flac
Pre-gap length : 00:02:00

Track gain : -7.16 dB
Peak : 1.000000
CRC32 hash (test run) : 28AF743D
CRC32 hash : 28AF743D
CRC32 hash (skip zero) : 83E1A847
AccurateRip v1 signature : 7F0680D1
AccurateRip v2 signature : 364A36D1
->Accurately ripped (v2, confidence 1/1)
Statistics
Read error : 0
Jitter error (maybe fixed) : 0
Retry sector count : 0
Damaged sector count : 0

No errors occurred

End of status report

––-BEGIN XLD SIGNATURE––-
_HpluW0YHw1TX8_Mxdad9JrPB.C_R3f4XtTfjJQd8.6Jw5JDyoNMdkBaHTIpY1RWIrB9Ujwym9IkxbMWhbDmBU3CXoIE93siuaVLitW
––-END XLD SIGNATURE––-


Tracklist:
CD 1
1. Lee Carbera Feat. Alex Cartana - Shake It (Move A Little Closer) (Extended Vocal) (7:49)
2. Rune - Calabria (Original Mix) (7:45)
3. Milk & Sugar - Let The Sunshine (Original Terrace Mix) (6:43)
4. Sandy Rivera - I Can't Stop (Luca Cassani Extended Remix) (6:19)
5. Tim Deluxe - Less Talk More Action (Club Mix) (7:18)
6. Praise Cats Feat. Andrea Love - We Got Love (Main Mix) (9:14)
7. Eric Prydz - Slammin' (Original Mix) (7:12)
8. Soulsearcher - Feeling Love (Soulsearcher Club Mix) (7:07)
9. Saffron Hill Feat. Ben Onono - My Love Is Always (Tim Deluxe's Summertime Remix) (6:52)
10. Dutch Feat. Crystal Waters - My Time (Extended Vocal) (6:50)

CD 2
1. Ultra Naté - Free (Mood II Swing Extended Vocal Edit) (6:34)
2. Byron Stingily - Get Up (Mousse T Extended Mix) (7:05)
3. Cleptomaniacs Feat. Brian Chambers - All I Do (Original Cleptomaniacs Mix) (7:04)
4. ATFC Pres. OnePhatDeeva - In & Out Of My Life (ATFC Original Vocal Mix) (8:22)
5. Celeda - The Underground (Addictive Trip Mix) (9:36)
6. Johnny Corporate - Sunday Shoutin' (Original Club Mix) (6:37)
7. Michelle Weeks - The Light (Jamie Lewis Main Mix) (8:57)
8. Praise Cats Feat. Andrea Love - Shined On Me (Original E-Smoove Vocal Mix) (7:03)
9. Ministers De-La-Funk Feat. Jocelyn Brown - Believe (Ministers Vocal Mix) (7:37)
10. David Morales - Needin' U (Original Mistake) (7:56)