Tags
Language
Tags

Claude Quartet - Claude Bolling: Concerto for Classical Guitar and Jazz Piano Trio, Sonate pour Guitare (2016)

Posted By: tirexiss
Claude Quartet - Claude Bolling: Concerto for Classical Guitar and Jazz Piano Trio, Sonate pour Guitare (2016)

Claude Quartet - Claude Bolling: Concerto for Classical Guitar and Jazz Piano Trio, Sonate pour Guitare (2016)
EAC | FLAC (tracks+.cue, log) | Covers Included | 54:56 | 304 MB
Genre: Classical, Jazz | Label: Brilliant Classics | Catalog: 95227

I grew up listening to the original recording (Lagoya on guitar, Bolling on piano) on vinyl. That version, alas, has never made it to my favorite music streaming services - nor had any version for that matter. I was excited to see that the suite had been freshly recorded and was available for streaming.
Overall, the musicianship here is wonderful. The Claude Quartet plays with precision and feeling, and in lock step. Nuances (subtle dynamics, etc.) have been captured in fuller fidelity than in the original recording, making this an interesting listen. Of course, when you've heard one recording hundreds of time, the first time listening to a new one will seem a bit jarring at times, when the differences are at their greatest - but I'll not place any value on that - it's just different.
The only minor criticism I have is likely a by-product of the modern, crystal-clear, all-digital recording medium. Throughout the recording, and particularly when the guitar is being played solo, the studio mic picked up quite a bit of background noise (breathing, and probably the guitar moving around).

Claude Quartet - Claude Bolling: Concerto for Classical Guitar and Jazz Piano Trio, Sonate pour Guitare (2016)

Track List:

Concerto for Classical Guitar and Jazz Piano Trio (1975)
1. Hispanic Dance 5:36
2. Mexicane 7:08
3. Invention 4:10
4. Serenade 5:19
5. Rhapsodic 6:30
6. Africaine 4:07
7. Finale 5:55
Sonate pour guitare (1996)
8. Jazzo Brasileiro 5'58
9. Baladina 5'21
10. Fogoso 4'17

Personnel:
Duilio Meucci - guitar
Roberto Porzio - piano
Paolo Petrella - double-bass
Andrea De Fazio - drums

Exact Audio Copy V1.3 from 2. September 2016

EAC extraction logfile from 10. October 2018, 16:38

Claude Quartet / Bolling

Used drive : HL-DT-STDVDRAM GH24NSB0 Adapter: 1 ID: 0

Read mode : Secure
Utilize accurate stream : Yes
Defeat audio cache : Yes
Make use of C2 pointers : No

Read offset correction : 6
Overread into Lead-In and Lead-Out : No
Fill up missing offset samples with silence : Yes
Delete leading and trailing silent blocks : No
Null samples used in CRC calculations : Yes
Used interface : Native Win32 interface for Win NT & 2000
Gap handling : Appended to previous track

Used output format : User Defined Encoder
Selected bitrate : 1024 kBit/s
Quality : High
Add ID3 tag : No
Command line compressor : C:\Program Files (x86)\Exact Audio Copy\FLAC\FLAC.EXE
Additional command line options : -V -8 -T "Genre=%genre%" -T "Artist=%artist%" -T "Title=%title%" -T "Album=%albumtitle%" -T "Date=%year%" -T "Tracknumber=%tracknr%" -T "Comment=%comment%" %source%


TOC of the extracted CD

Track | Start | Length | Start sector | End sector
––––––––––––––––––––––––––––-
1 | 0:00.00 | 5:38.14 | 0 | 25363
2 | 5:38.14 | 7:12.74 | 25364 | 57837
3 | 12:51.13 | 4:13.70 | 57838 | 76882
4 | 17:05.08 | 5:22.69 | 76883 | 101101
5 | 22:28.02 | 6:33.31 | 101102 | 130607
6 | 29:01.33 | 4:11.06 | 130608 | 149438
7 | 33:12.39 | 5:59.45 | 149439 | 176408
8 | 39:12.09 | 6:01.09 | 176409 | 203492
9 | 45:13.18 | 5:24.56 | 203493 | 227848
10 | 50:37.74 | 4:18.49 | 227849 | 247247


Track 1

Filename D:\Music\MG rips\Claude Quartet - Bolling-Concerto for Classical Guitar and Jazz Piano Trio, Sonate pour Guitare - 2016 [FLAC]\01 - Hispanic Dance.wav

Pre-gap length 0:00:02.00

Peak level 97.8 %
Extraction speed 1.1 X
Track quality 100.0 %
Test CRC 08CA0C53
Copy CRC 08CA0C53
Cannot be verified as accurate (confidence 2) [207A4FDD], AccurateRip returned [822871AF] (AR v2)
Copy OK

Track 2

Filename D:\Music\MG rips\Claude Quartet - Bolling-Concerto for Classical Guitar and Jazz Piano Trio, Sonate pour Guitare - 2016 [FLAC]\02 - Mexicaine.wav

Pre-gap length 0:00:00.09

Peak level 96.3 %
Extraction speed 1.3 X
Track quality 100.0 %
Test CRC D9C64A28
Copy CRC D9C64A28
Cannot be verified as accurate (confidence 2) [EAE3BC95], AccurateRip returned [8030AE56] (AR v2)
Copy OK

Track 3

Filename D:\Music\MG rips\Claude Quartet - Bolling-Concerto for Classical Guitar and Jazz Piano Trio, Sonate pour Guitare - 2016 [FLAC]\03 - Invention.wav

Pre-gap length 0:00:00.10

Peak level 97.4 %
Extraction speed 1.2 X
Track quality 99.9 %
Test CRC D94183CD
Copy CRC D94183CD
Cannot be verified as accurate (confidence 2) [7620BC32], AccurateRip returned [1DF2B994] (AR v2)
Copy OK

Track 4

Filename D:\Music\MG rips\Claude Quartet - Bolling-Concerto for Classical Guitar and Jazz Piano Trio, Sonate pour Guitare - 2016 [FLAC]\04 - Serenade.wav

Pre-gap length 0:00:03.01

Peak level 95.3 %
Extraction speed 1.5 X
Track quality 100.0 %
Test CRC CB81B397
Copy CRC CB81B397
Cannot be verified as accurate (confidence 2) [B7FFE03A], AccurateRip returned [43065D5A] (AR v2)
Copy OK

Track 5

Filename D:\Music\MG rips\Claude Quartet - Bolling-Concerto for Classical Guitar and Jazz Piano Trio, Sonate pour Guitare - 2016 [FLAC]\05 - Rhapsodic.wav

Pre-gap length 0:00:02.74

Peak level 96.6 %
Extraction speed 1.6 X
Track quality 99.9 %
Test CRC 8A763EC9
Copy CRC 8A763EC9
Cannot be verified as accurate (confidence 2) [1715336C], AccurateRip returned [40430854] (AR v2)
Copy OK

Track 6

Filename D:\Music\MG rips\Claude Quartet - Bolling-Concerto for Classical Guitar and Jazz Piano Trio, Sonate pour Guitare - 2016 [FLAC]\06 - Africaine.wav

Pre-gap length 0:00:03.00

Peak level 96.5 %
Extraction speed 1.7 X
Track quality 100.0 %
Test CRC 00ECE62A
Copy CRC 00ECE62A
Cannot be verified as accurate (confidence 2) [A0CBDAFC], AccurateRip returned [43F87395] (AR v2)
Copy OK

Track 7

Filename D:\Music\MG rips\Claude Quartet - Bolling-Concerto for Classical Guitar and Jazz Piano Trio, Sonate pour Guitare - 2016 [FLAC]\07 - Finale.wav

Pre-gap length 0:00:03.01

Peak level 97.2 %
Extraction speed 1.9 X
Track quality 100.0 %
Test CRC D60EE460
Copy CRC D60EE460
Cannot be verified as accurate (confidence 2) [CD0A87D9], AccurateRip returned [3CE64DBD] (AR v2)
Copy OK

Track 8

Filename D:\Music\MG rips\Claude Quartet - Bolling-Concerto for Classical Guitar and Jazz Piano Trio, Sonate pour Guitare - 2016 [FLAC]\08 - Jazzo Brasileiro.wav

Pre-gap length 0:00:03.44

Peak level 95.2 %
Extraction speed 2.0 X
Track quality 100.0 %
Test CRC AE7989C9
Copy CRC AE7989C9
Cannot be verified as accurate (confidence 2) [6EA75EB4], AccurateRip returned [A051DFBE] (AR v2)
Copy OK

Track 9

Filename D:\Music\MG rips\Claude Quartet - Bolling-Concerto for Classical Guitar and Jazz Piano Trio, Sonate pour Guitare - 2016 [FLAC]\09 - Baladina.wav

Pre-gap length 0:00:02.73

Peak level 66.4 %
Extraction speed 2.1 X
Track quality 100.0 %
Test CRC BE8676CA
Copy CRC BE8676CA
Cannot be verified as accurate (confidence 2) [5ADDA2E1], AccurateRip returned [B88C3D14] (AR v2)
Copy OK

Track 10

Filename D:\Music\MG rips\Claude Quartet - Bolling-Concerto for Classical Guitar and Jazz Piano Trio, Sonate pour Guitare - 2016 [FLAC]\10 - Fogoso.wav

Pre-gap length 0:00:03.01

Peak level 95.3 %
Extraction speed 1.9 X
Track quality 99.9 %
Test CRC A0DAD594
Copy CRC A0DAD594
Cannot be verified as accurate (confidence 2) [9121AB44], AccurateRip returned [C4E2864D] (AR v2)
Copy OK


No tracks could be verified as accurate
You may have a different pressing from the one(s) in the database

No errors occurred

End of status report

==== Log checksum 8C5D7D7415103F1560DDCBDEDC024B0BBA0401DFFC242D504DB6317024CE2503 ====

Thanks to the Original ripper (unknown)!

Download: