Subcategories

Claudia Brucken - Where Else… (2014)

Posted By: popsakov
Claudia Brucken - Where Else… (2014)

Claudia Brucken - Where Else… (2014)
EAC Rip | WV (Img) + Cue + Log ~ 234 Mb | MP3 CBR320 ~ 97 Mb
Scans (JPG, 600 dpi) ~ 66 Mb | RAR 5% Recovery
Pop, Ballad, Acoustic, Synth-pop | Cherry Red #CDBRED634

Claudia has enjoyed enormous popularity since the 1980s when she fronted the synthpop bands Propaganda and Act. The new solo album follows Cherry Reds expanded 2CD re-issue of Claudias debut solo album Love: And A Million Other Things. 'Where Else' is a collaboration with co-writer and producer John Williams (Housemartins, Proclaimers, Paul Heaton & Jacqui Abbott, Blancmange, Petula Clark). 'Where Else' follows the lyrical thread of Claudias debut solo album 'Love And A Million Other Things'. The album is not only a collection of moods and styles but a further examination of the vagaries of love; exploring emotion, beginnings, endings, past life and future hopes.

***************

Claudia Brucken - Where Else… (2014)

Claudia Brucken - Where Else… (2014)

Track List:

01. I Want You [3:45]
02. Nothing Good Is Ever Easy [4:23]
03. I Lay All Night [2:55]
04. Day Is Done [2:33]
05. Walk Right In [3:33]
06. Nevermind [3:35]
07. How Do I Know [3:27]
08. Moon Song [3:44]
09. Letting Go [4:15]
10. Time To Make Changes [3:24]
11. Sweet Sound Vision [4:15]

Exact Audio Copy V1.1 from 23. June 2015

Отчёт EAC об извлечении, выполненном 1. июля 2017, 1:24

CLAUDIA BRÜCKEN / WHERE ELSE…..

Дисковод: ATAPI DVD-ROM 16XMax Adapter: 0 ID: 1

Режим чтения : Достоверность
Использование точного потока : Да
Отключение кэша аудио : Да
Использование указателей C2 : Нет

Коррекция смещения при чтении : 12
Способность читать области Lead-in и Lead-out : Нет
Заполнение пропущенных сэмплов тишиной : Да
Удаление блоков с тишиной в начале и конце : Нет
При вычислениях CRC использовались нулевые сэмплы : Да
Интерфейс : Установленный внешний ASPI-интерфейс

Выходной формат : Внутренние WAV-операции
Формат сэмплов : 44.100 Гц; 16 бит; стерео


TOC извлечённого CD

Трек | Старт | Длительность | Начальный сектор | Конечный сектор
––––––––––––––––––––––––––––––––––-
1 | 0:00.00 | 3:45.16 | 0 | 16890
2 | 3:45.16 | 4:23.11 | 16891 | 36626
3 | 8:08.27 | 2:54.55 | 36627 | 49731
4 | 11:03.07 | 2:33.23 | 49732 | 61229
5 | 13:36.30 | 3:32.51 | 61230 | 77180
6 | 17:09.06 | 3:34.44 | 77181 | 93274
7 | 20:43.50 | 3:26.54 | 93275 | 108778
8 | 24:10.29 | 3:43.54 | 108779 | 125557
9 | 27:54.08 | 4:15.36 | 125558 | 144718
10 | 32:09.44 | 3:23.72 | 144719 | 160015
11 | 35:33.41 | 4:14.52 | 160016 | 179117


Характеристики диапазона извлечения и сообщения об ошибках

Выбранный диапазон

Имя файла I:\FOR_NL\CLAUDIA BRUCKEN - WHERE ELSE…..wav

Пиковый уровень 98.0 %
Скорость извлечения 5.8 X
Качество диапазона 100.0 %
CRC теста 4A2D80D1
CRC копии 4A2D80D1
Копирование… OK

Ошибок не произошло


AccurateRip: сводка

Трек 1 : извлечено точно (доверие 8) [E3462981] (AR v2)
Трек 2 : извлечено точно (доверие 8) [19F5E6C7] (AR v2)
Трек 3 : извлечено точно (доверие 8) [9DC30805] (AR v2)
Трек 4 : извлечено точно (доверие 8) [04792F40] (AR v2)
Трек 5 : извлечено точно (доверие 8) [AB1354B7] (AR v2)
Трек 6 : извлечено точно (доверие 8) [89EAAEFD] (AR v2)
Трек 7 : извлечено точно (доверие 8) [145E9B1A] (AR v2)
Трек 8 : извлечено точно (доверие 8) [39B23628] (AR v2)
Трек 9 : извлечено точно (доверие 8) [C7729C85] (AR v2)
Трек 10 : извлечено точно (доверие 8) [A14CA08C] (AR v2)
Трек 11 : извлечено точно (доверие 8) [A3DFED59] (AR v2)

Все треки извлечены точно

Конец отчёта

–– CUETools DB Plugin V2.1.6

[CTDB TOCID: Q2r2.x4G_gAJl5cyRK15YlEHDnQ-] found
Submit result: already submitted
Track | CTDB Status
1 | (25/25) Accurately ripped
2 | (25/25) Accurately ripped
3 | (24/25) Accurately ripped
4 | (24/25) Accurately ripped
5 | (24/25) Accurately ripped
6 | (24/25) Accurately ripped
7 | (24/25) Accurately ripped
8 | (24/25) Accurately ripped
9 | (24/25) Accurately ripped
10 | (24/25) Accurately ripped
11 | (24/25) Accurately ripped


==== Контрольная сумма отчёта FD12DD79E5977CBC4F187A13007D73B64CE819C937F4F3A6B3C1B10C9EC125D5 ====

foobar2000 1.2.6 / Dynamic Range Meter 1.1.1
log date: 2017-07-17 20:54:47

––––––––––––––––––––––––––––––––––––––––
Analyzed: Claudia Brucken / Where Else…
––––––––––––––––––––––––––––––––––––––––

DR Peak RMS Duration Track
––––––––––––––––––––––––––––––––––––––––
DR9 -0.18 dB -11.37 dB 3:45 01-I Want You
DR7 -1.83 dB -9.67 dB 4:23 02-Nothing Good Is Ever Easy
DR8 -0.58 dB -10.86 dB 2:55 03-I Lay All Night
DR9 -0.18 dB -11.14 dB 2:33 04-Day Is Done
DR8 -1.35 dB -11.23 dB 3:33 05-Walk Right In
DR8 -0.78 dB -10.41 dB 3:35 06-Nevermind
DR9 -0.18 dB -11.03 dB 3:27 07-How Do I Know
DR8 -0.18 dB -10.08 dB 3:44 08-Moon Song
DR7 -0.17 dB -7.89 dB 4:15 09-Letting Go
DR9 -0.68 dB -11.31 dB 3:24 10-Time To Make Changes
DR9 -0.78 dB -10.66 dB 4:15 11-Sweet Sound Vision
––––––––––––––––––––––––––––––––––––––––

Number of tracks: 11
Official DR value: DR8

Samplerate: 44100 Hz
Channels: 2
Bits per sample: 16
Bitrate: 777 kbps
Codec: WavPack
================================================================================

[CUETools log; Date: 17.07.2017 20:48:29; Version: 2.1.5]
[CTDB TOCID: Q2r2.x4G_gAJl5cyRK15YlEHDnQ-] found.
Track | CTDB Status
1 | (27/27) Accurately ripped
2 | (27/27) Accurately ripped
3 | (26/27) Accurately ripped
4 | (26/27) Accurately ripped
5 | (26/27) Accurately ripped
6 | (26/27) Accurately ripped
7 | (26/27) Accurately ripped
8 | (26/27) Accurately ripped
9 | (26/27) Accurately ripped
10 | (26/27) Accurately ripped
11 | (26/27) Accurately ripped
[AccurateRip ID: 001011c6-008b2ffd-8609540b] found.
Track [ CRC | V2 ] Status
01 [262711ca|e3462981] (0+9/9) Accurately ripped
02 [e986ded1|19f5e6c7] (0+9/9) Accurately ripped
03 [71d927ca|9dc30805] (0+9/9) Accurately ripped
04 [b5170a86|04792f40] (0+9/9) Accurately ripped
05 [747bb384|ab1354b7] (0+9/9) Accurately ripped
06 [54101448|89eaaefd] (0+9/9) Accurately ripped
07 [53688b48|145e9b1a] (0+9/9) Accurately ripped
08 [42abdf18|39b23628] (0+9/9) Accurately ripped
09 [3955e331|c7729c85] (0+9/9) Accurately ripped
10 [b3714c56|a14ca08c] (0+9/9) Accurately ripped
11 [a155dc2e|a3dfed59] (0+9/9) Accurately ripped

Track Peak [ CRC32 ] [W/O NULL] [ LOG ]
– 98,0 [4A2D80D1] [00864650] CRC32
01 97,9 [71B940A8] [093735D1]
02 80,9 [2D83DF44] [1F91B964]
03 93,5 [A19621EF] [B96AFBE1]
04 97,9 [A66CAF0D] [FD6F8408]
05 85,5 [3F8F1766] [344BD60B]
06 91,4 [7D5E990E] [A9692F3A]
07 97,9 [99534ABC] [23DF3648]
08 97,9 [A04F7CAC] [701C63B9]
09 98,0 [5FEEB7D3] [1C2C2CE8]
10 92,4 [950CFF22] [615AC50A]
11 91,4 [4FE9C9F3] [C2ED3F15]

Claudia Brucken - Where Else… (2014)

All thanks go to Abo

>>> My Blog <<<

Download from icerbox.com: