Subcategories

Clay Aiken - A Thousand Different Ways (2006)

Posted By: BlondStyle
Clay Aiken - A Thousand Different Ways (2006)

Clay Aiken - A Thousand Different Ways (2006)
Pop | EAC Rip | APE + CUE + LOG + Covers | 55:33 Min | 390,97 Mb
Label: RCA Records | Released: September 19, 2006

A Thousand Different Ways is the third studio album by Clay Aiken. The album, which was executive produced by Jaymes Foster, consists of ten covers and four new songs. It was released by RCA on September 19, 2006. The first single was "Without You" and the second, "A Thousand Days."

TrackList:

01. Right Here Waiting - (originally by Richard Marx)
02. When I See You Smile - (originally by John Waite)
03. Without You - (originally by Harry Nilsson and Mariah Carey)
04. Lonely No More - (new song)
05. Sorry Seems to Be the Hardest Word - (originally by Elton John)
06. Everytime You Go Away - (originally by Paul Young)
07. Everything I Do (I Do It For You) - (originally by Bryan Adams)
08. I Want to Know What Love Is [feat. Suzie McNeil] - (originally by Foreigner)
09. These Open Arms - (new song)
10. Because You Loved Me - (originally by Celine Dion)
11. Here You Come Again - (originally by Dolly Parton)
12. Everything I Have [feat. William Joseph] - (new song)
13. A Thousand Days - (new song)
14. Broken Wings - (originally by Mr. Mister)

Exact Audio Copy V0.99 prebeta 4 from 23. January 2008

Отчёт EAC об извлечении, выполненном 31. марта 2009, 18:03

Clay Aiken / A Thousand Different Ways

Дисковод: ATAPI DVD DW 8X16X8X16 Adapter: 0 ID: 2

Режим чтения : Достоверность
Использование точного потока : Да
Отключение кэша аудио : Да
Использование указателей C2 : Нет

Коррекция смещения при чтении : 618
Способность читать области Lead-in и Lead-out : Нет
Заполнение пропущенных сэмплов тишиной : Да
Удаление блоков с тишиной в начале и конце : Нет
При вычислениях CRC использовались нулевые сэмплы : Да
Интерфейс : Встроенный Win32-интерфейс для Win NT/2000

Выходной формат : Внутренние WAV-операции
Формат сэмплов : 44.100 Гц; 16 бит; стерео


TOC извлечённого CD

Трек | Старт | Длительность | Начальный сектор | Конечный сектор
––––––––––––––––––––––––––––––––––-
1 | 0:00.00 | 4:17.02 | 0 | 19276
2 | 4:17.02 | 3:27.24 | 19277 | 34825
3 | 7:44.26 | 3:34.24 | 34826 | 50899
4 | 11:18.50 | 4:10.38 | 50900 | 69687
5 | 15:29.13 | 3:43.72 | 69688 | 86484
6 | 19:13.10 | 4:24.51 | 86485 | 106335
7 | 23:37.61 | 4:28.31 | 106336 | 126466
8 | 28:06.17 | 4:00.34 | 126467 | 144500
9 | 32:06.51 | 4:43.33 | 144501 | 165758
10 | 36:50.09 | 3:41.47 | 165759 | 182380
11 | 40:31.56 | 3:27.50 | 182381 | 197955
12 | 43:59.31 | 3:34.39 | 197956 | 214044
13 | 47:33.70 | 4:07.00 | 214045 | 232569
14 | 51:40.70 | 3:58.30 | 232570 | 250449


Характеристики диапазона извлечения и сообщения об ошибках

Выбранный диапазон

Имя файла C:\Documents and Settings\OEM\Мои документы\Мои аудиозаписи\Clay Aiken - A Thousand Different Ways.wav

Пиковый уровень 100.0 %
Качество диапазона 100.0 %
CRC копии A6095CF5
Копирование… OK

Ошибок не произошло


AccurateRip: сводка

Трек 1 точное извлечение (доверие 11) [EAE0A0CE]
Трек 2 точное извлечение (доверие 11) [DD9AFF98]
Трек 3 точное извлечение (доверие 11) [AB17327C]
Трек 4 точное извлечение (доверие 11) [33FF2390]
Трек 5 точное извлечение (доверие 11) [C49ED9FF]
Трек 6 точное извлечение (доверие 11) [05E8EA03]
Трек 7 точное извлечение (доверие 11) [E1C9774A]
Трек 8 точное извлечение (доверие 11) [B3812BD1]
Трек 9 точное извлечение (доверие 11) [72D12F40]
Трек 10 точное извлечение (доверие 11) [C6CA7ABF]
Трек 11 точное извлечение (доверие 11) [9FC2376B]
Трек 12 точное извлечение (доверие 11) [59471BA7]
Трек 13 точное извлечение (доверие 11) [719C65CF]
Трек 14 точное извлечение (доверие 11) [FEA4DDE9]

Все треки извлечены точно

Конец отчёта


All Download Links
are Here


Password: www.AvaxHome.ru

P.S.
Sorry guys for this secrecy but such way will help to save the links from deleting
and it much more better than crappy and greedy so called "linkprotectors".

No Mirror Please