Subcategories

Clepsydra - Hologram (1991) {1997, Japanese Edition}

Posted By: popsakov
Clepsydra - Hologram (1991) {1997, Japanese Edition}

Clepsydra - Hologram (1991) {1997, Japanese Edition}
EAC Rip | FLAC (Img) + Cue + Log ~ 377 Mb | MP3 CBR320 ~ 156 Mb
Scans Included (JPG, 300 dpi) | RAR 5% Recovery
Art Rock, Neo Progressive Rock | Avalon #MICY-1036

Clepsydra is a Swiss neo-progressive band that was formed in 1990 by Aluisio Maggini (vocals), Lele Hofmann (guitars), Philip Hubert (keyboards), Andy Thommen (bass) and Pietro Duca (drums).

In 1991 Clepsydra released their first album "Hologram", which was followed by the EP "Fly Man" in 1993. Clepsydra then signed to InsideOut, who released their second album "More Grains of Sand" in 1994. This CD included the song Moonshine on Heights, which by many is regarded as neo-prog classic. 1994 also saw them performing two songs on national Swiss TV, a rare occurrence for a progressive rock band at that time.

In 1998 Clepsydra released their third album "Fears", the first album with Marco Cerulli on guitar. In the wake of the album release Clepsydra had a 10 day long European tour and was booked for a concert in Canada on the strength of this production. In 2001 the band released "Alone" with Nicola De Vita on bass. This album came with 3 different album covers: "The Chicken", "The Octopus" and "The Fish".

Following these four albums Clepsydra entered a state of hiatus. At this point they had established themselves as a popular entity among fans of neo-progressive rock, and they were often compared to the likes of Jadis, IQ and Fish-era Marillion. In 2013 Clepsydra announced they were reuniting, with Andy Thommen back on bass guitar and a reunion tour for 2014.

Clepsydra's first live DVD "Clepsydra live @ RoSfest 2014" was released in April 2015.

***************

Clepsydra - Hologram (1991) {1997, Japanese Edition}

Clepsydra - Hologram (1991) {1997, Japanese Edition}

Track List:

01. Sunrise [1:21]
02. New Day (Part 1) [5:16]
03. 4107 [5:16]
04. Fleeting Moments [3:18]
05. Fading Colours of Time [3:55]
06. Poem for a Rainy Day [2:17]
07. New Day (Part 2) [6:16]
08. Sandflow [3:22]
09. For Her Eyes [5:11]
10. Steve and Jane [5:25]
11. New Day (Part 3) [2:06]
12. Hologram [7:48]
13. Sunset [1:25]
14. The Age of Glass [6:00]

Personnel:
Aluisio Maggini - lead & backing vocals
Gabriele Hofmann - guitars, keyboards
Philip Hubert - keyboards
Andy Thommen - bass
Pietro Duca - drums

With:
Marco Zappa / lead guitar (13)

Exact Audio Copy V1.3 from 2. September 2016

EAC extraction logfile from 3. December 2017, 13:14

Clepsydra / Hologram

Used drive : _NEC DVD_RW ND-3520A Adapter: 1 ID: 1

Read mode : Secure
Utilize accurate stream : Yes
Defeat audio cache : Yes
Make use of C2 pointers : No

Read offset correction : 48
Overread into Lead-In and Lead-Out : No
Fill up missing offset samples with silence : Yes
Delete leading and trailing silent blocks : No
Null samples used in CRC calculations : Yes
Used interface : Native Win32 interface for Win NT & 2000

Used output format : Internal WAV Routines
Sample format : 44.100 Hz; 16 Bit; Stereo


TOC of the extracted CD

Track | Start | Length | Start sector | End sector
––––––––––––––––––––––––––––-
1 | 0:00.00 | 1:20.45 | 0 | 6044
2 | 1:20.45 | 5:16.35 | 6045 | 29779
3 | 6:37.05 | 5:16.35 | 29780 | 53514
4 | 11:53.40 | 3:18.20 | 53515 | 68384
5 | 15:11.60 | 3:54.40 | 68385 | 85974
6 | 19:06.25 | 2:16.47 | 85975 | 96221
7 | 21:22.72 | 6:16.13 | 96222 | 124434
8 | 27:39.10 | 3:22.07 | 124435 | 139591
9 | 31:01.17 | 5:11.10 | 139592 | 162926
10 | 36:12.27 | 5:24.60 | 162927 | 187286
11 | 41:37.12 | 2:06.05 | 187287 | 196741
12 | 43:43.17 | 7:47.45 | 196742 | 231811
13 | 51:30.62 | 1:24.68 | 231812 | 238179
14 | 52:55.55 | 5:59.42 | 238180 | 265146


Range status and errors

Selected range

Filename N:\C\Clepsydra - Hologram (Japan) - 1997\Clepsydra - Hologram.wav

Peak level 97.4 %
Extraction speed 5.9 X
Range quality 99.9 %
Copy CRC F361E1BB
Copy OK

No errors occurred


AccurateRip summary

Track 1 accurately ripped (confidence 1) [9008F34D] (AR v1)
Track 2 accurately ripped (confidence 1) [A0D7F6F7] (AR v1)
Track 3 accurately ripped (confidence 1) [247E2BBB] (AR v1)
Track 4 accurately ripped (confidence 1) [F8E614FC] (AR v1)
Track 5 accurately ripped (confidence 1) [75A27733] (AR v1)
Track 6 accurately ripped (confidence 1) [CC9CBCBD] (AR v1)
Track 7 accurately ripped (confidence 1) [EC1AEDB8] (AR v1)
Track 8 accurately ripped (confidence 1) [067B3658] (AR v1)
Track 9 accurately ripped (confidence 1) [ED93BA48] (AR v1)
Track 10 accurately ripped (confidence 1) [3E23A8A3] (AR v1)
Track 11 accurately ripped (confidence 1) [4CA2ECF1] (AR v1)
Track 12 accurately ripped (confidence 1) [3D460A5A] (AR v1)
Track 13 accurately ripped (confidence 1) [2AF6EB3B] (AR v1)
Track 14 accurately ripped (confidence 1) [21D81872] (AR v1)

All tracks accurately ripped

End of status report

foobar2000 1.3.16 / Dynamic Range Meter 1.1.1
log date: 2018-01-14 02:10:28

––––––––––––––––––––––––––––––––––––––––
Analyzed: Clepsydra / Hologram
––––––––––––––––––––––––––––––––––––––––

DR Peak RMS Duration Track
––––––––––––––––––––––––––––––––––––––––
DR12 -0.48 dB -19.52 dB 1:21 01-Sunrise
DR13 -0.47 dB -16.15 dB 5:16 02-New Day (Part 1)
DR12 -0.25 dB -15.65 dB 5:16 03-4107
DR14 -0.71 dB -18.38 dB 3:18 04-Fleeting Moments
DR12 -0.39 dB -16.18 dB 3:55 05-Fading Colours of Time
DR15 -1.25 dB -21.38 dB 2:17 06-Poem for a Rainy Day
DR12 -0.25 dB -15.44 dB 6:16 07-New Day (Part 2)
DR15 -0.22 dB -18.76 dB 3:22 08-Sandflow
DR13 -0.92 dB -17.99 dB 5:11 09-For Her Eyes
DR14 -0.27 dB -17.73 dB 5:25 10-Steve and Jane
DR11 -3.93 dB -20.15 dB 2:06 11-New Day (Part 3)
DR14 -0.60 dB -18.74 dB 7:48 12-Hologram
DR12 -0.24 dB -15.59 dB 1:25 13-Sunset
DR12 -1.05 dB -16.60 dB 6:00 14-The Age of Glass
––––––––––––––––––––––––––––––––––––––––

Number of tracks: 14
Official DR value: DR13

Samplerate: 44100 Hz
Channels: 2
Bits per sample: 16
Bitrate: 819 kbps
Codec: FLAC
================================================================================

[CUETools log; Date: 14.01.2018 2:10:28; Version: 2.1.5]
[CTDB TOCID: K2OU2j12MMnDrSZgtQRjMrbvcVw-] found.
Track | CTDB Status
1 | (1/1) Accurately ripped
2 | (1/1) Accurately ripped
3 | (1/1) Accurately ripped
4 | (1/1) Accurately ripped
5 | (1/1) Accurately ripped
6 | (1/1) Accurately ripped
7 | (1/1) Accurately ripped
8 | (1/1) Accurately ripped
9 | (1/1) Accurately ripped
10 | (1/1) Accurately ripped
11 | (1/1) Accurately ripped
12 | (1/1) Accurately ripped
13 | (1/1) Accurately ripped
14 | (1/1) Accurately ripped
[AccurateRip ID: 001cc75c-01386980-cd0dcf0e] found.
Track [ CRC | V2 ] Status
01 [9008f34d|f693f96b] (1+1/2) Accurately ripped
02 [a0d7f6f7|239ce9c7] (1+1/2) Accurately ripped
03 [247e2bbb|22dba04c] (1+1/2) Accurately ripped
04 [f8e614fc|d9a02d64] (1+1/2) Accurately ripped
05 [75a27733|2f277db0] (1+1/2) Accurately ripped
06 [cc9cbcbd|afa067e2] (1+1/2) Accurately ripped
07 [ec1aedb8|e92a42e4] (1+1/2) Accurately ripped
08 [067b3658|a4a77541] (1+1/2) Accurately ripped
09 [ed93ba48|fb06a584] (1+1/2) Accurately ripped
10 [3e23a8a3|52207a61] (1+1/2) Accurately ripped
11 [4ca2ecf1|de89205d] (1+1/2) Accurately ripped
12 [3d460a5a|7604c7c7] (1+1/2) Accurately ripped
13 [2af6eb3b|37da87c8] (1+1/2) Accurately ripped
14 [21d81872|e51b2dea] (1+1/2) Accurately ripped

Track Peak [ CRC32 ] [W/O NULL] [ LOG ]
– 97,4 [F361E1BB] [95754650] CRC32
01 94,6 [6882C491] [8A8C422A]
02 94,7 [A791105F] [A3ABC085]
03 97,1 [6DCEC5E1] [B0FDFE39]
04 92,1 [CB6914DE] [9F3165E2]
05 95,6 [8F6654BA] [5941D7FB]
06 86,6 [2A2469F1] [6D47D86B]
07 97,1 [5A4B74D3] [138599BB]
08 97,4 [A0E7C7B9] [6F728E1C]
09 89,9 [60E52440] [295756DD]
10 96,9 [88E71579] [6FC98E84]
11 63,6 [FEE721ED] [B57CA919]
12 93,3 [072F1501] [3A277FB2]
13 97,3 [54B49B95] [F97A0D08]
14 88,6 [AB100B85] [77346EF2]

Clepsydra - Hologram (1991) {1997, Japanese Edition}

All thanks go to fabian1

>>> My Blog <<<

Download from icerbox.com: