Subcategories

Clepsydra - 3654 Days (1991-2002) [4CD Box Set] (2014)

Posted By: gribovar
Clepsydra - 3654 Days (1991-2002) [4CD Box Set] (2014)

Clepsydra - 3654 Days (1991-2002) [4CD Box Set] (2014)
EAC Rip | FLAC (image+.cue+log) - 2,05 GB | MP3 CBR 320 kbps (LAME 3.93) - 710 MB | Covers - 155 MB
Genre: Neo-Progressive Rock | RAR 3% Rec. | Label: Galileo Records/Gonzo MultiMedia (GLR118BOXCD)

Stunning limited edition box set by this great Swiss neo prog band. Box set includes all 4 studio CD's that are remastered with bonus tracks, booklet with biography and photos as well as an autographed certificate of authenticity. Hand-numbered edition of 1,000.
Many aspects feature in their beautiful music, mainly the outstanding voice of Aluisio Magini, which fits perfectly on top of a well structured instrumentation. Although this band continues the path signed by IQ or Pendragon, they do it in a more bombastic and powerful way, keeping the sense of melody and beauty at the same time. Listener won't find tons of originality, but this album guarantees an excellent hour, specially to neo-prog fans.

Clepsydra - 3654 Days (1991-2002) [4CD Box Set] (2014)

CD 1: Clepsydra - Hologram (1991) [Reissue 2014]
EAC Rip | FLAC (image+.cue+log) - 474 MB | MP3 CBR 320 kbps (LAME 3.93) - 179 MB | Covers - 31 MB
Genre: Neo-Progressive Rock | RAR 3% Rec. | Label: Galileo Records/Gonzo MultiMedia (GR037/GLR114CD)

Tracklist:
01. Sunrise
02. New Day (Part 1)
03. 4107
04. Fleeting Moment
05. Fading Clouds of Time
06. Poem For a Rainy Day
07. New Day (Part 2)
08. Sandflow
09. For Her Eyes
10. Steve and Jane
11. New Day (Part 3)
12. Hologram
13. Sunset
Bonus tracks:
14. No Place For Flowers (raw mix, alternative drum track and percussion, abridged, 1994)
15. Into My Cartoon (demo tape, edited 1997)
16. For Her Eyes (bonus track of Japanese Fears version, edited, 1997)
17. The Nineteenth Hole (live in Barcelona, Spain, 1998)

Total time: 01:16:02

Exact Audio Copy V1.0 beta 3 from 29. August 2011

EAC extraction logfile from 27. February 2014, 23:14

Clepsydra / 3654 Days - Boxset CD1: Hologram [Remaster]

Used drive : ASUS DRW-24B1LT Adapter: 4 ID: 0

Read mode : Secure
Utilize accurate stream : Yes
Defeat audio cache : Yes
Make use of C2 pointers : No

Read offset correction : 6
Overread into Lead-In and Lead-Out : No
Fill up missing offset samples with silence : Yes
Delete leading and trailing silent blocks : No
Null samples used in CRC calculations : Yes
Used interface : Native Win32 interface for Win NT & 2000

Used output format : User Defined Encoder
Selected bitrate : 1024 kBit/s
Quality : High
Add ID3 tag : Yes
Command line compressor : C:\Program Files (x86)\FLAC\flac.exe
Additional command line options : -6 -V -T "ARTIST=%artist%" -T "TITLE=%title%" -T "ALBUM=%albumtitle%" -T "DATE=%year%" -T "TRACKNUMBER=%tracknr%" -T "GENRE=%genre%" -T "COMMENT=%comment%" %source% -o %dest%


TOC of the extracted CD

Track | Start | Length | Start sector | End sector
––––––––––––––––––––––––––––-
1 | 0:00.00 | 1:21.17 | 0 | 6091
2 | 1:21.17 | 5:16.30 | 6092 | 29821
3 | 6:37.47 | 5:16.33 | 29822 | 53554
4 | 11:54.05 | 3:18.50 | 53555 | 68454
5 | 15:12.55 | 3:54.60 | 68455 | 86064
6 | 19:07.40 | 2:15.70 | 86065 | 96259
7 | 21:23.35 | 6:16.15 | 96260 | 124474
8 | 27:39.50 | 3:22.07 | 124475 | 139631
9 | 31:01.57 | 5:11.10 | 139632 | 162966
10 | 36:12.67 | 5:24.68 | 162967 | 187334
11 | 41:37.60 | 2:05.72 | 187335 | 196781
12 | 43:43.57 | 7:47.45 | 196782 | 231851
13 | 51:31.27 | 1:24.38 | 231852 | 238189
14 | 52:55.65 | 7:06.67 | 238190 | 270206
15 | 60:02.57 | 3:24.65 | 270207 | 285571
16 | 63:27.47 | 3:49.53 | 285572 | 302799
17 | 67:17.25 | 8:44.22 | 302800 | 342121


Range status and errors

Selected range

Filename M:\EAC\wurensh\Clepsydra\Clepsydra - 3654 Days - Boxset CD1_ Hologram [Remaster].wav

Peak level 96.6 %
Extraction speed 9.8 X
Range quality 99.9 %
Test CRC 994F634F
Copy CRC 994F634F
Copy OK

No errors occurred


AccurateRip summary

Track 1 not present in database
Track 2 not present in database
Track 3 not present in database
Track 4 not present in database
Track 5 not present in database
Track 6 not present in database
Track 7 not present in database
Track 8 not present in database
Track 9 not present in database
Track 10 not present in database
Track 11 not present in database
Track 12 not present in database
Track 13 not present in database
Track 14 not present in database
Track 15 not present in database
Track 16 not present in database
Track 17 not present in database

None of the tracks are present in the AccurateRip database

End of status report

==== Log checksum 23F76E250565551AAF513EA9A117209FCBBE47BE81C5587D9DB1FD1054789954 ====

[CUETools log; Date: 19.11.2019 14:20:49; Version: 2.1.4]
[CTDB TOCID: hH6eh5JM1HshBUqYKPOWG0_Ysxs-] found.
Track | CTDB Status
1 | (9/9) Accurately ripped
2 | (9/9) Accurately ripped
3 | (9/9) Accurately ripped
4 | (9/9) Accurately ripped
5 | (9/9) Accurately ripped
6 | (9/9) Accurately ripped
7 | (9/9) Accurately ripped
8 | (9/9) Accurately ripped
9 | (9/9) Accurately ripped
10 | (9/9) Accurately ripped
11 | (9/9) Accurately ripped
12 | (9/9) Accurately ripped
13 | (9/9) Accurately ripped
14 | (9/9) Accurately ripped
15 | (9/9) Accurately ripped
16 | (9/9) Accurately ripped
17 | (9/9) Accurately ripped
[AccurateRip ID: 002b1027-022bde3c-0511d111] found.
Track [ CRC | V2 ] Status
01 [cd3680b7|ae990aab] (0+3/3) Accurately ripped
02 [4017e806|d8ee6031] (0+3/3) Accurately ripped
03 [67451945|3b8e97af] (0+3/3) Accurately ripped
04 [6912cfd7|c71fcf23] (0+3/3) Accurately ripped
05 [93a49761|7a6b908c] (0+3/3) Accurately ripped
06 [1acaa664|8ef3eb82] (0+3/3) Accurately ripped
07 [5930548d|a29b9f13] (0+3/3) Accurately ripped
08 [49947ca9|850ee348] (0+3/3) Accurately ripped
09 [fc2a42e5|02ca5bf4] (0+3/3) Accurately ripped
10 [f4420986|4aac4769] (0+3/3) Accurately ripped
11 [d76b2434|8c1e56af] (0+3/3) Accurately ripped
12 [a1164f21|59590a88] (0+3/3) Accurately ripped
13 [e3faf53e|cafbe355] (0+3/3) Accurately ripped
14 [b3cf05fe|4d55ab17] (0+3/3) Accurately ripped
15 [69698092|926e40a2] (0+3/3) Accurately ripped
16 [81f59704|cbb39d9f] (0+3/3) Accurately ripped
17 [5181d164|16a74b0a] (0+3/3) Accurately ripped

Track Peak [ CRC32 ] [W/O NULL] [ LOG ]
– 96,6 [994F634F] [1FE9A823] CRC32
01 95,0 [73FB855E] [BC744CB5]
02 96,6 [A3585D56] [0A7F0320]
03 96,6 [B7639E4A] [A6A1B9A7]
04 96,6 [00630F14] [C6C10487]
05 96,6 [EB692157] [5C7BCECF]
06 96,6 [63FA0424] [83116A55]
07 96,6 [E85F5BBD] [17E4E562]
08 96,6 [FB6E75A1] [429FD3B9]
09 96,6 [36644BE2] [E2924059]
10 96,6 [B0BE140B] [8F7B0AD1]
11 84,4 [2D92F5E3] [6C20792A]
12 96,6 [FD8ACD93] [5BFC2C05]
13 96,6 [6049783A] [E0C36AD7]
14 96,6 [01BE02A0] [F868D8EA]
15 96,6 [92E596E9] [7B0C9CC7]
16 96,6 [EE4D356B] [0335D11F]
17 96,6 [AA23DC56] [3D6D63BF]

Clepsydra - 3654 Days (1991-2002) [4CD Box Set] (2014)

CD 2: Clepsydra - More Grains of Sand (1994) [Reissue 2014]
EAC Rip | FLAC (image+.cue+log) - 519 MB | MP3 CBR 320 kbps (LAME 3.93) - 178 MB | Covers - 33 MB
Genre: Neo-Progressive Rock | RAR 3% Rec. | Label: Galileo Records/Gonzo MultiMedia (GR038/GLR115CD)

Tracklist:
01. The First Grain
02. Moonshine On Heights
03. Birthday Party
04. Eagles
05. Hold Me Tight
06. No Place For Flowers
I) Darkness
II) The Return Of The Light
07. The Outermost Bounds
08. Fly Man
09. The River In Your Eyes
10. Grain Dance
11. The Prisoner's Victory
12. Vienna
13. The Last Grain
Bonus Track:
14. The Missing Spark (live in Barcelona Spain, 1998)

Total time: 01:15:41

Exact Audio Copy V1.0 beta 3 from 29. August 2011

EAC extraction logfile from 28. February 2014, 0:03

Clepsydra / 3654 Days - Boxset CD2: More Grains of Sand [Remaster]

Used drive : ASUS DRW-24B1LT Adapter: 4 ID: 0

Read mode : Secure
Utilize accurate stream : Yes
Defeat audio cache : Yes
Make use of C2 pointers : No

Read offset correction : 6
Overread into Lead-In and Lead-Out : No
Fill up missing offset samples with silence : Yes
Delete leading and trailing silent blocks : No
Null samples used in CRC calculations : Yes
Used interface : Native Win32 interface for Win NT & 2000

Used output format : User Defined Encoder
Selected bitrate : 1024 kBit/s
Quality : High
Add ID3 tag : Yes
Command line compressor : C:\Program Files (x86)\FLAC\flac.exe
Additional command line options : -6 -V -T "ARTIST=%artist%" -T "TITLE=%title%" -T "ALBUM=%albumtitle%" -T "DATE=%year%" -T "TRACKNUMBER=%tracknr%" -T "GENRE=%genre%" -T "COMMENT=%comment%" %source% -o %dest%


TOC of the extracted CD

Track | Start | Length | Start sector | End sector
––––––––––––––––––––––––––––-
1 | 0:00.00 | 0:46.17 | 0 | 3466
2 | 0:46.17 | 7:12.25 | 3467 | 35891
3 | 7:58.42 | 7:16.43 | 35892 | 68634
4 | 15:15.10 | 5:54.57 | 68635 | 95241
5 | 21:09.67 | 3:17.73 | 95242 | 110089
6 | 24:27.65 | 8:04.27 | 110090 | 146416
7 | 32:32.17 | 2:53.60 | 146417 | 159451
8 | 35:26.02 | 4:09.38 | 159452 | 178164
9 | 39:35.40 | 8:45.57 | 178165 | 217596
10 | 48:21.22 | 2:04.60 | 217597 | 226956
11 | 50:26.07 | 7:15.05 | 226957 | 259586
12 | 57:41.12 | 4:39.68 | 259587 | 280579
13 | 62:21.05 | 3:33.60 | 280580 | 296614
14 | 65:54.65 | 9:46.45 | 296615 | 340609


Range status and errors

Selected range

Filename M:\EAC\wurensh\Clepsydra\Clepsydra - 3654 Days - Boxset CD2_ More Grains of Sand [Remaster].wav

Peak level 96.6 %
Extraction speed 3.5 X
Range quality 99.9 %
Test CRC C0894D87
Copy CRC C0894D87
Copy OK

No errors occurred


AccurateRip summary

Track 1 not present in database
Track 2 not present in database
Track 3 not present in database
Track 4 not present in database
Track 5 not present in database
Track 6 not present in database
Track 7 not present in database
Track 8 not present in database
Track 9 not present in database
Track 10 not present in database
Track 11 not present in database
Track 12 not present in database
Track 13 not present in database
Track 14 not present in database

None of the tracks are present in the AccurateRip database

End of status report

==== Log checksum 5C075F7F893E6F87225EEFB56C04784038DEDDC1CE430957EC55480722994A3A ====

[CUETools log; Date: 19.11.2019 14:21:18; Version: 2.1.4]
[CTDB TOCID: Rw9S4eu6LV4IIORZZcty8HQKoAM-] found.
Track | CTDB Status
1 | (11/11) Accurately ripped
2 | (11/11) Accurately ripped
3 | (11/11) Accurately ripped
4 | (11/11) Accurately ripped
5 | (11/11) Accurately ripped
6 | (11/11) Accurately ripped
7 | (11/11) Accurately ripped
8 | (11/11) Accurately ripped
9 | (11/11) Accurately ripped
10 | (11/11) Accurately ripped
11 | (11/11) Accurately ripped
12 | (11/11) Accurately ripped
13 | (11/11) Accurately ripped
14 | (11/11) Accurately ripped
[AccurateRip ID: 0024ea6a-018ea9aa-d011bd0e] found.
Track [ CRC | V2 ] Status
01 [8c34270b|54bd6056] (0+9/9) Accurately ripped
02 [6fb39da8|421f337a] (0+9/9) Accurately ripped
03 [8e46f936|ebf4aa69] (0+9/9) Accurately ripped
04 [28661baa|78e709a8] (0+9/9) Accurately ripped
05 [336f7757|973306f8] (0+9/9) Accurately ripped
06 [a8366eb4|30319221] (0+9/9) Accurately ripped
07 [1d6f06ab|000151c2] (0+9/9) Accurately ripped
08 [80721a5c|a66ddb7a] (0+9/9) Accurately ripped
09 [80877331|0978b0ec] (0+9/9) Accurately ripped
10 [aef310af|fc20b6c7] (0+9/9) Accurately ripped
11 [54b4a9f5|b5ca36a2] (0+9/9) Accurately ripped
12 [4ba9c182|1528a24d] (0+9/9) Accurately ripped
13 [f9620399|dd61bf48] (0+9/9) Accurately ripped
14 [1d6e8be0|58db6d18] (0+9/9) Accurately ripped

Track Peak [ CRC32 ] [W/O NULL] [ LOG ]
– 96,6 [C0894D87] [4D5916A0] CRC32
01 96,6 [57AE5D25] [4461D0A2]
02 96,6 [CF1F09A8] [5BED802B]
03 96,6 [14E4AE8D] [73BB2081]
04 96,6 [05635C04] [27D6E79C]
05 96,6 [ED953F74] [65D0FA16]
06 96,6 [1D145521] [052E4475]
07 96,6 [6450EAFF] [DDF8A3F7]
08 96,6 [E75B3C3A] [C2B9E185]
09 96,6 [9200031C] [3CDD511A]
10 96,6 [8B1B261C] [D5E545BD]
11 96,6 [5D2EA7FC] [27DBCA60]
12 96,6 [CFE0DF08] [823409A0]
13 96,6 [E6854208] [5ECF3A59]
14 96,6 [0D04133E] [DB9671BC]

Clepsydra - 3654 Days (1991-2002) [4CD Box Set] (2014)

CD 3: Clepsydra - Fears (1997) [Reissue 2014]
EAC Rip | FLAC (image+.cue+log) - 507 MB | MP3 CBR 320 kbps (LAME 3.93) - 177 MB | Covers - 47 MB
Genre: Neo-Progressive Rock | RAR 3% Rec. | Label: Galileo Records/Gonzo MultiMedia (GR039/GLR116CD)

Tracklist:
01. Soaked
02. The Missing Spark
03. Into My Cartoon
04. The Age Of Glass
05. Fearless
06. Daisies In The Sunshine
07. The Cloister
08. The Nineteenth Hole
09. Sweet Smelling Wood
10. Fear
Bonus Tracks:
11. New Day (Part One) (demo tape, 1990)
12. Sandflow (live in Locarno, Switzerland, 1992)
13. The Outermost Bounds (raw mix, alternative vocal track, 1994)

Total time: 01:15:19

Exact Audio Copy V1.0 beta 3 from 29. August 2011

EAC extraction logfile from 28. February 2014, 21:24

Clepsydra / 3654 Days - Boxset CD3: Fears [Remaster]

Used drive : ASUS DRW-24B1LT Adapter: 4 ID: 0

Read mode : Secure
Utilize accurate stream : Yes
Defeat audio cache : Yes
Make use of C2 pointers : No

Read offset correction : 6
Overread into Lead-In and Lead-Out : No
Fill up missing offset samples with silence : Yes
Delete leading and trailing silent blocks : No
Null samples used in CRC calculations : Yes
Used interface : Native Win32 interface for Win NT & 2000

Used output format : User Defined Encoder
Selected bitrate : 1024 kBit/s
Quality : High
Add ID3 tag : Yes
Command line compressor : C:\Program Files (x86)\FLAC\flac.exe
Additional command line options : -6 -V -T "ARTIST=%artist%" -T "TITLE=%title%" -T "ALBUM=%albumtitle%" -T "DATE=%year%" -T "TRACKNUMBER=%tracknr%" -T "GENRE=%genre%" -T "COMMENT=%comment%" %source% -o %dest%


TOC of the extracted CD

Track | Start | Length | Start sector | End sector
––––––––––––––––––––––––––––-
1 | 0:00.00 | 9:03.20 | 0 | 40744
2 | 9:03.20 | 9:03.05 | 40745 | 81474
3 | 18:06.25 | 4:08.62 | 81475 | 100136
4 | 22:15.12 | 5:53.63 | 100137 | 126674
5 | 28:09.00 | 3:59.30 | 126675 | 144629
6 | 32:08.30 | 2:31.07 | 144630 | 155961
7 | 34:39.37 | 5:46.33 | 155962 | 181944
8 | 40:25.70 | 8:45.10 | 181945 | 221329
9 | 49:11.05 | 2:46.37 | 221330 | 233816
10 | 51:57.42 | 10:57.03 | 233817 | 283094
11 | 62:54.45 | 6:13.10 | 283095 | 311079
12 | 69:07.55 | 3:15.10 | 311080 | 325714
13 | 72:22.65 | 2:56.22 | 325715 | 338936


Range status and errors

Selected range

Filename M:\EAC\wurensh\Clepsydra\Clepsydra - 3654 Days - Boxset CD3_ Fears [Remaster].wav

Peak level 96.6 %
Extraction speed 9.2 X
Range quality 99.9 %
Test CRC 0EA6369F
Copy CRC 0EA6369F
Copy OK

No errors occurred


AccurateRip summary

Track 1 not present in database
Track 2 not present in database
Track 3 not present in database
Track 4 not present in database
Track 5 not present in database
Track 6 not present in database
Track 7 not present in database
Track 8 not present in database
Track 9 not present in database
Track 10 not present in database
Track 11 not present in database
Track 12 not present in database
Track 13 not present in database

None of the tracks are present in the AccurateRip database

End of status report

==== Log checksum 3C59FE5A866027C4D60C7FADD0B9847065AD0DA4013977D8FCDDCDD849935A6B ====

[CUETools log; Date: 19.11.2019 14:22:13; Version: 2.1.4]
[CTDB TOCID: 4qMgk_QloH5o9dmTaVapo5D117k-] found.
Track | CTDB Status
1 | (7/8) Accurately ripped
2 | (7/8) Accurately ripped
3 | (7/8) Accurately ripped
4 | (7/8) Accurately ripped
5 | (7/8) Accurately ripped
6 | (7/8) Accurately ripped
7 | (7/8) Accurately ripped
8 | (7/8) Accurately ripped
9 | (7/8) Accurately ripped
10 | (7/8) Accurately ripped
11 | (7/8) Accurately ripped
12 | (7/8) Accurately ripped
13 | (7/8) Accurately ripped
[AccurateRip ID: 0026d787-017c6c8f-c011a70d] found.
Track [ CRC | V2 ] Status
01 [bc2e7d2e|84e923d4] (00+10/10) Accurately ripped
02 [f50b5a18|c1b5a18a] (00+10/10) Accurately ripped
03 [0098c5db|2bd30ef6] (00+10/10) Accurately ripped
04 [1ce9a07f|d02c4306] (00+10/10) Accurately ripped
05 [92579e37|d3ce1bd7] (00+10/10) Accurately ripped
06 [b4fcd148|f30683ce] (00+10/10) Accurately ripped
07 [3f3a4064|046ffcc0] (00+10/10) Accurately ripped
08 [27fc120d|f90d2ec4] (00+09/09) Accurately ripped
09 [33ca01d2|2e7f2ed4] (00+10/10) Accurately ripped
10 [1e2406fa|0dc176e0] (00+09/09) Accurately ripped
11 [56c88d26|ec2d4b69] (00+10/10) Accurately ripped
12 [bafe8ac8|6b9944ae] (00+10/10) Accurately ripped
13 [1024e0af|29b6f950] (00+10/10) Accurately ripped

Track Peak [ CRC32 ] [W/O NULL] [ LOG ]
– 96,6 [0EA6369F] [C19B1056] CRC32
01 96,6 [CD8E3664] [02B6FB30]
02 96,6 [5D35EDB2] [11D427D4]
03 96,6 [B5BE178F] [7F388430]
04 96,6 [03FDEE53] [B8FD69B0]
05 96,6 [41BE6E36] [D18265D6]
06 96,6 [19776FF0] [B5103754]
07 96,6 [3866B04F] [CED17D90]
08 96,6 [827D2A6F] [C0DA2AE2]
09 96,6 [F3612946] [B5D7CA5D]
10 96,6 [3AF2139C] [B345D616]
11 96,6 [1D20D490] [B0E0B913]
12 96,6 [E7194F01] [503C02F5]
13 96,6 [ADA4F258] [7B7B84A8]

Clepsydra - 3654 Days (1991-2002) [4CD Box Set] (2014)

CD 4: Clepsydra - Alone (2002) [Reissue 2014]
EAC Rip | FLAC (image+.cue+log) - 553 MB | MP3 CBR 320 kbps (LAME 3.93) - 176 MB | Covers - 44 MB
Genre: Neo-Progressive Rock | RAR 3% Rec. | Label: Galileo Records/Gonzo MultiMedia (GR040/GLR117CD)

Tracklist:
01. Tuesday Night
02. Travel of Dream
03. The Return
04. The Father
05. Alone
06. The Nest
07. God or Beggar
08. End of Tuesday
Bonus Tracks
09. Old Dream 1993
10. Eagles (raw mix, alternative choir track, 1997)

Total time: 01:15:02

Exact Audio Copy V1.0 beta 3 from 29. August 2011

EAC extraction logfile from 28. February 2014, 22:13

Clepsydra / 3654 Days - Boxset CD4_ Alone [Remaster]

Used drive : ASUS DRW-24B1LT Adapter: 4 ID: 0

Read mode : Secure
Utilize accurate stream : Yes
Defeat audio cache : Yes
Make use of C2 pointers : No

Read offset correction : 6
Overread into Lead-In and Lead-Out : No
Fill up missing offset samples with silence : Yes
Delete leading and trailing silent blocks : No
Null samples used in CRC calculations : Yes
Used interface : Native Win32 interface for Win NT & 2000

Used output format : User Defined Encoder
Selected bitrate : 1024 kBit/s
Quality : High
Add ID3 tag : Yes
Command line compressor : C:\Program Files (x86)\FLAC\flac.exe
Additional command line options : -6 -V -T "ARTIST=%artist%" -T "TITLE=%title%" -T "ALBUM=%albumtitle%" -T "DATE=%year%" -T "TRACKNUMBER=%tracknr%" -T "GENRE=%genre%" -T "COMMENT=%comment%" %source% -o %dest%


TOC of the extracted CD

Track | Start | Length | Start sector | End sector
––––––––––––––––––––––––––––-
1 | 0:00.00 | 13:14.57 | 0 | 59606
2 | 13:14.57 | 10:52.63 | 59607 | 108569
3 | 24:07.45 | 7:10.32 | 108570 | 140851
4 | 31:18.02 | 7:30.48 | 140852 | 174649
5 | 38:48.50 | 6:00.32 | 174650 | 201681
6 | 44:49.07 | 6:58.10 | 201682 | 233041
7 | 51:47.17 | 5:44.40 | 233042 | 258881
8 | 57:31.57 | 5:00.50 | 258882 | 281431
9 | 62:32.32 | 6:32.60 | 281432 | 310891
10 | 69:05.17 | 5:57.08 | 310892 | 337674


Range status and errors

Selected range

Filename M:\EAC\wurensh\Clepsydra\Clepsydra - 3654 Days - Boxset CD4_ Alone [Remaster].wav

Peak level 96.6 %
Extraction speed 3.6 X
Range quality 100.0 %
Test CRC 88D47117
Copy CRC 88D47117
Copy OK

No errors occurred


AccurateRip summary

Track 1 not present in database
Track 2 not present in database
Track 3 not present in database
Track 4 not present in database
Track 5 not present in database
Track 6 not present in database
Track 7 not present in database
Track 8 not present in database
Track 9 not present in database
Track 10 not present in database

None of the tracks are present in the AccurateRip database

End of status report

==== Log checksum 99B3A89E66A1A72691FA6E1050DFFE6569B64E29F144555ADB1595F80220B4E4 ====

[CUETools log; Date: 19.11.2019 14:22:55; Version: 2.1.4]
[CTDB TOCID: gbYiBR_nYWB6pA.l9c_ZHzaYhvY-] found.
Track | CTDB Status
1 | (10/11) Accurately ripped
2 | (10/11) Accurately ripped
3 | (10/11) Accurately ripped
4 | (11/11) Accurately ripped
5 | (11/11) Accurately ripped
6 | (11/11) Accurately ripped
7 | (11/11) Accurately ripped
8 | (11/11) Accurately ripped
9 | (10/11) Accurately ripped
10 | (11/11) Accurately ripped
[AccurateRip ID: 00202794-00f66ef2-9411960a] found.
Track [ CRC | V2 ] Status
01 [f34f7864|1bc52082] (0+9/9) Accurately ripped
02 [1693d4ce|f3494ca7] (0+9/9) Accurately ripped
03 [9b59d0bd|beefcf6e] (0+9/9) Accurately ripped
04 [742d3023|5ae7a9b3] (0+9/9) Accurately ripped
05 [27dbb122|32d32494] (0+9/9) Accurately ripped
06 [4206bf1b|013615e2] (0+9/9) Accurately ripped
07 [84388b72|02be9f6b] (0+9/9) Accurately ripped
08 [93b1fa15|56f41e30] (0+9/9) Accurately ripped
09 [06be3df8|bfa10267] (0+9/9) Accurately ripped
10 [ec48fc2a|ac8ba3e6] (0+9/9) Accurately ripped

Track Peak [ CRC32 ] [W/O NULL] [ LOG ]
– 96,6 [88D47117] [AA73D7C1] CRC32
01 96,6 [0D75E0E5] [C166AD6E]
02 96,6 [71DD1EFE] [6328CAC8]
03 96,6 [30ADB7C3] [AC765D48]
04 96,6 [47AB077F] [6E62AA14]
05 96,6 [410C5FC5] [1FCF3754]
06 96,6 [D8F3310F] [68198BEC]
07 96,6 [67127D6C] [C4AC8F53]
08 96,6 [B4D91886] [9ACEE5BE]
09 96,6 [8B165564] [78172157]
10 96,6 [D196DEE4] [6ACB2129]

Thanks to wurensh