Subcategories
Tags
Language
Tags

Cliff Richard - The Ultimate Collection (2013)

Posted By: popsakov
Cliff Richard - The Ultimate Collection (2013)

Cliff Richard - The Ultimate Collection (2013)
2CD | EAC Rip | FLAC (Img) + Cue + Log ~ 764 Mb | MP3 CBR320 ~ 263 Mb
Scans ~ 73 Mb | 00:50:01 + 00:59:16 | RAR 5% Recovery
Pop, Pop Rock, Rock & Roll | EMI / Warner Music #5310569942

Sir Cliff Richard is an English singer, musician, actor, and philanthropist who holds both British and Barbadian citizenship. He has sold more than 250 million records worldwide, making him one of the best-selling music artists of all time. He has total sales of over 21.5 million singles in the United Kingdom and is the third-top-selling artist in UK Singles Chart history, behind the Beatles and Elvis Presley.

Richard was originally marketed as a rebellious rock and roll singer in the style of Presley and Little Richard. With his backing group, the Shadows, he dominated the British popular music scene in the pre-Beatles period of the late 1950s to early 1960s. His 1958 hit single "Move It" is often described as Britain's first authentic rock and roll song; John Lennon once said that "before Cliff and the Shadows, there had been nothing worth listening to in British music". In the early 1960s, he had a prosperous film career with films including The Young Ones and Summer Holiday. Increased focus on his Christianity and subsequent softening of his music led to a more middle-of-the-road image, and he sometimes ventured into contemporary Christian music.

Over a career spanning 60 years, Richard has amassed several gold and platinum discs and awards, including two Ivor Novello Awards and three Brit Awards. More than 130 of his singles, albums, and EPs have reached the UK Top 20, more than any other artist. Richard has had 67 UK top ten singles, the second highest total for an artist behind Presley. He holds the record, with Presley, as the only act to make the UK singles charts in all of its first six decades (1950s–2000s). He has achieved 14 UK No. 1 singles, and is the only singer to have had a No. 1 single in the UK in each of five consecutive decades. He also had four UK Christmas No. 1 singles, two of which were as a solo artist; "Mistletoe and Wine" and "Saviour's Day".

Richard has never achieved the same popularity in the United States despite eight US Top 40 singles, including the million-selling "Devil Woman" and "We Don't Talk Anymore". In Canada, he had a successful period in the early 1960s, the late 1970s and early 1980s, with some releases certified gold and platinum. He has remained a popular music, film, and television personality in Australia, New Zealand, South Africa, Northern Europe and Asia, and retains a following in other countries. When not touring, he divides his time between Barbados and Portugal. In 2019, he relocated to the United States.
***************

Track List CD1:

01. I Love You [2:04]
02. The Young Ones [3:12]
03. Living Doll [2:39]
04. Summer Holiday [2:17]
05. A Girl Like You [2:32]
06. Constantly [2:39]
07. I Could Easily Fall In Love Wit [2:56]
08. Visions [3:02]
09. Travelling Light [2:37]
10. Please Dont Tease [3:00]
11. Bachelor Boy [2:02]
12. Its All In The Game [3:12]
13. All My Love [2:58]
14. Carrie [3:43]
15. The Minute You're Gone [2:21]
16. Miss You Nights [3:57]
17. Move It [2:24]
18. On The Beach [2:33]

Exact Audio Copy V1.3 from 2. September 2016

Отчёт EAC об извлечении, выполненном 14. января 2021, 7:20

Cliff Richard / The Ultimate Collection CD1

Дисковод: PLEXTOR DVDR PX-755A Adapter: 1 ID: 1

Режим чтения : Достоверность
Использование точного потока : Да
Отключение кэша аудио : Да
Использование указателей C2 : Нет

Коррекция смещения при чтении : 30
Способность читать области Lead-in и Lead-out : Нет
Заполнение пропущенных сэмплов тишиной : Да
Удаление блоков с тишиной в начале и конце : Нет
При вычислениях CRC использовались нулевые сэмплы : Да
Интерфейс : Встроенный Win32-интерфейс для Win NT/2000

Выходной формат : Пользовательский кодировщик
Выбранный битрейт : 128 kBit/s
Качество : Высокий
Добавление ID3-тега : Нет
Утилита сжатия : C:\Program Files (x86)\Exact Audio Copy\Flac\flac.exe
Дополнительные параметры : -V -8 -T "Date=%year%" -T "Genre=%genre%" %source%


TOC извлечённого CD

Трек | Старт | Длительность | Начальный сектор | Конечный сектор
––––––––––––––––––––––––––––––––––-
1 | 0:00.00 | 2:04.00 | 0 | 9299
2 | 2:04.00 | 3:11.45 | 9300 | 23669
3 | 5:15.45 | 2:38.08 | 23670 | 35527
4 | 7:53.53 | 2:16.30 | 35528 | 45757
5 | 10:10.08 | 2:32.00 | 45758 | 57157
6 | 12:42.08 | 2:38.53 | 57158 | 69060
7 | 15:20.61 | 2:55.45 | 69061 | 82230
8 | 18:16.31 | 3:02.00 | 82231 | 95880
9 | 21:18.31 | 2:36.68 | 95881 | 107648
10 | 23:55.24 | 2:59.38 | 107649 | 121111
11 | 26:54.62 | 2:01.45 | 121112 | 130231
12 | 28:56.32 | 3:11.60 | 130232 | 144616
13 | 32:08.17 | 2:57.38 | 144617 | 157929
14 | 35:05.55 | 3:42.68 | 157930 | 174647
15 | 38:48.48 | 2:20.30 | 174648 | 185177
16 | 41:09.03 | 3:56.23 | 185178 | 202900
17 | 45:05.26 | 2:23.08 | 202901 | 213633
18 | 47:28.34 | 2:32.30 | 213634 | 225063


Характеристики диапазона извлечения и сообщения об ошибках

Выбранный диапазон

Имя файла D:\РАЗДАЧА\Cliff Richard - The Ultimate Collection - 2013 (Malaysia)\Cliff Richard - The Ultimate Coollection CD1\Cliff Richard - The Ultimate Collection CD1.wav

Пиковый уровень 99.7 %
Скорость извлечения 8.0 X
Качество диапазона 100.0 %
CRC теста 0FD8D6EA
CRC копии 0FD8D6EA
Копирование… OK

Ошибок не произошло


AccurateRip: сводка

Трек 1 отсутствует в базе данных
Трек 2 отсутствует в базе данных
Трек 3 отсутствует в базе данных
Трек 4 отсутствует в базе данных
Трек 5 отсутствует в базе данных
Трек 6 отсутствует в базе данных
Трек 7 отсутствует в базе данных
Трек 8 отсутствует в базе данных
Трек 9 отсутствует в базе данных
Трек 10 отсутствует в базе данных
Трек 11 отсутствует в базе данных
Трек 12 отсутствует в базе данных
Трек 13 отсутствует в базе данных
Трек 14 отсутствует в базе данных
Трек 15 отсутствует в базе данных
Трек 16 отсутствует в базе данных
Трек 17 отсутствует в базе данных
Трек 18 отсутствует в базе данных

Ни одного трека нет в базе AccurateRip

Конец отчёта

–– CUETools DB Plugin V2.1.6

[CTDB TOCID: Dv1gnglh9D6O06mtVyC6FA9LwQs-] found
Submit result: already submitted
Track | CTDB Status
1 | (5/5) Accurately ripped
2 | (5/5) Accurately ripped
3 | (5/5) Accurately ripped
4 | (5/5) Accurately ripped
5 | (5/5) Accurately ripped
6 | (5/5) Accurately ripped
7 | (5/5) Accurately ripped
8 | (5/5) Accurately ripped
9 | (5/5) Accurately ripped
10 | (5/5) Accurately ripped
11 | (5/5) Accurately ripped
12 | (5/5) Accurately ripped
13 | (5/5) Accurately ripped
14 | (5/5) Accurately ripped
15 | (5/5) Accurately ripped
16 | (5/5) Accurately ripped
17 | (5/5) Accurately ripped
18 | (5/5) Accurately ripped


==== Контрольная сумма отчёта 35E6FCE01D726156493F6F1283954C5C46F16719AD8FBB91BF8B8DD8F22A4B38 ====

Track List CD2:

01. Falling In Love With You [2:32]
02. Devil Women [3:35]
03. Congratulations [2:33]
04. Daddy's Home [2:59]
05. A Little In Love [3:23]
06. The Best Of Me [4:11]
07. Ocean Deep [5:15]
08. We Dont Talk Anymore [4:14]
09. Evergreen Tree [2:41]
10. Dreamin [3:37]
11. The Day I Met Marie [2:17]
12. I Still Believe In You [3:45]
13. The Only Way Out [3:24]
14. True Love Way [3:18]
15. Don't Talk To Him [2:55]
16. Theme Of A Dream [2:06]
17. Please Dont Fall In Love [3:14]
18. I Just Dont Have The Heart [3:25]

Exact Audio Copy V1.3 from 2. September 2016

Отчёт EAC об извлечении, выполненном 13. января 2021, 22:21

Cliff Richard / The Ultimate Coollection CD2

Дисковод: PLEXTOR DVDR PX-755A Adapter: 1 ID: 1

Режим чтения : Достоверность
Использование точного потока : Да
Отключение кэша аудио : Да
Использование указателей C2 : Нет

Коррекция смещения при чтении : 30
Способность читать области Lead-in и Lead-out : Нет
Заполнение пропущенных сэмплов тишиной : Да
Удаление блоков с тишиной в начале и конце : Нет
При вычислениях CRC использовались нулевые сэмплы : Да
Интерфейс : Встроенный Win32-интерфейс для Win NT/2000

Выходной формат : Пользовательский кодировщик
Выбранный битрейт : 128 kBit/s
Качество : Высокий
Добавление ID3-тега : Нет
Утилита сжатия : C:\Program Files (x86)\Exact Audio Copy\Flac\flac.exe
Дополнительные параметры : -V -8 -T "Date=%year%" -T "Genre=%genre%" %source%


TOC извлечённого CD

Трек | Старт | Длительность | Начальный сектор | Конечный сектор
––––––––––––––––––––––––––––––––––-
1 | 0:00.00 | 2:31.38 | 0 | 11362
2 | 2:31.38 | 3:34.30 | 11363 | 27442
3 | 6:05.68 | 2:32.15 | 27443 | 38857
4 | 8:38.08 | 2:58.60 | 38858 | 52267
5 | 11:36.68 | 3:22.30 | 52268 | 67447
6 | 14:59.23 | 4:10.15 | 67448 | 86212
7 | 19:09.38 | 5:15.00 | 86213 | 109837
8 | 24:24.38 | 4:13.15 | 109838 | 128827
9 | 28:37.53 | 2:41.00 | 128828 | 140902
10 | 31:18.53 | 3:37.00 | 140903 | 157177
11 | 34:55.53 | 2:16.08 | 157178 | 167385
12 | 37:11.61 | 3:44.15 | 167386 | 184200
13 | 40:56.01 | 3:23.38 | 184201 | 199463
14 | 44:19.39 | 3:17.38 | 199464 | 214276
15 | 47:37.02 | 2:54.08 | 214277 | 227334
16 | 50:31.10 | 2:06.00 | 227335 | 236784
17 | 52:37.10 | 3:13.30 | 236785 | 251289
18 | 55:50.40 | 3:24.68 | 251290 | 266657


Характеристики диапазона извлечения и сообщения об ошибках

Выбранный диапазон

Имя файла D:\РАЗДАЧА\Cliff Richard - The Ultimate Collection - 2013 (Malaysia)\Cliff Richard - The Ultimate Coollection CD2\Cliff Richard - The Ultimate Coollection CD2.wav

Пиковый уровень 99.7 %
Скорость извлечения 8.3 X
Качество диапазона 100.0 %
CRC теста 41EB84B1
CRC копии 41EB84B1
Копирование… OK

Ошибок не произошло


AccurateRip: сводка

Трек 1 отсутствует в базе данных
Трек 2 : извлечено точно (доверие 1) [9FACA3A7] (AR v2)
Трек 3 отсутствует в базе данных
Трек 4 отсутствует в базе данных
Трек 5 отсутствует в базе данных
Трек 6 отсутствует в базе данных
Трек 7 отсутствует в базе данных
Трек 8 отсутствует в базе данных
Трек 9 отсутствует в базе данных
Трек 10 отсутствует в базе данных
Трек 11 отсутствует в базе данных
Трек 12 отсутствует в базе данных
Трек 13 отсутствует в базе данных
Трек 14 отсутствует в базе данных
Трек 15 отсутствует в базе данных
Трек 16 отсутствует в базе данных
Трек 17 отсутствует в базе данных
Трек 18 отсутствует в базе данных

1 трек(и) скопированы точно
17 трек(и) не содержатся в базе AccurateRip

Некоторые треки не прошли проверку на точность

Конец отчёта

–– CUETools DB Plugin V2.1.6

[CTDB TOCID: 9jm0zJVHu6wVup0V3SU6KnDPx48-] found
Submit result: 9jm0zJVHu6wVup0V3SU6KnDPx48- has been confirmed
Track | CTDB Status
1 | (4/4) Accurately ripped
2 | (4/4) Accurately ripped
3 | (4/4) Accurately ripped
4 | (4/4) Accurately ripped
5 | (4/4) Accurately ripped
6 | (4/4) Accurately ripped
7 | (4/4) Accurately ripped
8 | (4/4) Accurately ripped
9 | (4/4) Accurately ripped
10 | (4/4) Accurately ripped
11 | (4/4) Accurately ripped
12 | (4/4) Accurately ripped
13 | (4/4) Accurately ripped
14 | (4/4) Accurately ripped
15 | (4/4) Accurately ripped
16 | (4/4) Accurately ripped
17 | (4/4) Accurately ripped
18 | (4/4) Accurately ripped


==== Контрольная сумма отчёта FB13F141058D794074D08D460EDBA3CAA16ABA28466779674348ACC09327CBDD ====

All thanks go to pishin

>>> Cliff Richard in my Blog <<<

DOWNLOAD: