Subcategories

Hubert Clifford & Edgar Leslie Bainton - Orchestral works vol. 2

Posted By: tapaz9
Hubert Clifford & Edgar Leslie Bainton - Orchestral works vol. 2

Hubert Clifford & Edgar Leslie Bainton - Orchestral works vol. 2
Classical | EAC: FLAC+Cue+Log | 1 Cd, Covers + Booklet | 402 Mb
Label: Chandos - Date: 2003

'I would recommend this CD for Epithalamion alone, but those interested in the far corners of the last century's home-grown repertoire will find much else here to enjoy.'
International Record Review
Tracks:

01. Epithalamion (1929) [0:13:19.05]
02. An English Idyll_Pastoral. Andante, molto tranquillo [0:03:52.18]
03. An…, London Andante grazioso, con moto… [0:04:29.01]
04. An English Idyll_The Cathedral. Andante, un poco mosso [0:10:00.59]
05. A Kentish Suite (1935) I. Dover Intro_Alla hornpipe [0:03:42.01]
06. II. A Choral prelude on 'Canterbury'. With dignity [0:02:41.59]
07. III. Pastoral and flolk. Lento pastorale, Andante buccolica [0:04:54.01]
08. IV. Swift Nicks of Gad's Hill: A Scherzo. Allegro con brio [0:03:30.18]
09. V. Greenwich: A pageant of the River. Maestoso [0:05:06.02]
10. The Casanova Melody (1949) [0:03:45.59]
11. 5 English Nursery Tunes The Frog and the mouse [0:03:38.35]
12. II. The Evening Prayer. Lento [0:03:05.59]
13. III. Lavender's Blue. Allegretto scherzando [0:02:38.01]
14. IV Curly Locks. Andantino [0:04:17.01]
15. V. London Bridge. Allegro molto [0:02:49.18]
16. Shanagoldon-Irish Pastoral Sketch [0:04:06.64]


Exact Audio Copy V1.0 beta 3 from 29. August 2011

EAC extraction logfile from 14. January 2013, 0:54

Clifford & Bainton / Orchestral works vol. 2

Used drive : TSSTcorpCDDVDW SH-S223C Adapter: 2 ID: 1

Read mode : Secure
Utilize accurate stream : Yes
Defeat audio cache : Yes
Make use of C2 pointers : No

Read offset correction : 697
Overread into Lead-In and Lead-Out : No
Fill up missing offset samples with silence : Yes
Delete leading and trailing silent blocks : No
Null samples used in CRC calculations : Yes
Used interface : Native Win32 interface for Win NT & 2000

Used output format : User Defined Encoder
Selected bitrate : 896 kBit/s
Quality : High
Add ID3 tag : No
Command line compressor : C:\Program Files (x86)\Exact Audio Copy\FLAC\FLAC.EXE
Additional command line options : -V -0 -T "COMMENT=Ripped by Tapaz9" -T "artist=%artist%" -T "title=%title%" -T "album=%albumtitle%" -T "date=%year%" -T "tracknumber=%tracknr%" -T "genre=%genre%" %source%


TOC of the extracted CD

Track | Start | Length | Start sector | End sector
––––––––––––––––––––––––––––-
1 | 0:00.00 | 13:19.05 | 0 | 59929
2 | 13:19.05 | 3:52.18 | 59930 | 77347
3 | 17:11.23 | 4:29.01 | 77348 | 97523
4 | 21:40.24 | 10:00.59 | 97524 | 142582
5 | 31:41.08 | 3:42.01 | 142583 | 159233
6 | 35:23.09 | 2:41.59 | 159234 | 171367
7 | 38:04.68 | 4:54.01 | 171368 | 193418
8 | 42:58.69 | 3:30.18 | 193419 | 209186
9 | 46:29.12 | 5:06.02 | 209187 | 232138
10 | 51:35.14 | 3:45.59 | 232139 | 249072
11 | 55:20.73 | 3:38.35 | 249073 | 265457
12 | 58:59.33 | 3:05.59 | 265458 | 279391
13 | 62:05.17 | 2:38.01 | 279392 | 291242
14 | 64:43.18 | 4:17.01 | 291243 | 310518
15 | 69:00.19 | 2:49.18 | 310519 | 323211
16 | 71:49.37 | 4:06.64 | 323212 | 341725


Range status and errors

Selected range

Filename F:\Musique\Clifford\Clifford_Bainton_OrchestralWorksVol2\Clifford & Bainton - Orchestral works vol. 2.wav

Peak level 76.5 %
Extraction speed 14.4 X
Range quality 99.9 %
Copy CRC 973DB4EB
Copy OK

No errors occurred

End of status report

==== Log checksum B501444232D3596B4BAEAD1CC8BD9152EB69E0263C610E4E62559D9BF0F9E710 ====

No Mirrors and Torrent-uploads Please

See my classical digital download posts in the Vinyl & HR section or check out My Avax blog