Tags
Language
Tags

Climax Blues Band - Lucky For Some (1981) {2012, Remastered}

Posted By: popsakov
Climax Blues Band - Lucky For Some (1981) {2012, Remastered}

Climax Blues Band - Lucky For Some (1981) {2012, Remastered}
EAC Rip | FLAC (Img) + Cue + Log ~ 318 Mb | MP3 CBR320 ~ 105 Mb
Full Scans ~ 42 Mb | 00:43:24 | RAR 5% Recovery
Pop Rock, Soft Rock | Repertoire Records #REP5209

In 1981 the Climax Blues Band was located in Los Angeles, recording yet another album to meet the heavy demand for their musical aspirations. Lucky For Some featured, once again, the tightly knit line up of Peter Haycock on guitar and vocals, Colin Cooper on vocals and saxophone, Derek Holt on vocals, bass guitar and keyboards and John Cuffley on drums. By now, the band had been on the road for a decade or more and played with a telepathic sense of communication on these nine superb original LP tracks, including four Haycock originals. But the guys were also helped out in the studio by some distinguished guests, notably the late session keyboard player Nicky Hopkins and vocalist Glenn Hughes. Complete with a saucy album cover design, Lucky For Some has some hot performances like Peter's Shake It Lucy and Derek Holt's Breakdown , plus a bonus track Darlin (single version).
Climax Blues Band - Lucky For Some (1981) {2012, Remastered}


***************

Climax Blues Band - Lucky For Some (1981) {2012, Remastered}

Track List:

01. Victim [3:06]
02. Cuttin' Up Rough [4:36]
03. Shake It Lucy [4:00]
04. Oceans Apart [4:25]
05. Breakdown [3:42]
06. Darlin' [4:52]
07. This Time You're The Singer [4:12]
08. Last Chance Saloon [4:38]
09. They'd Never Believe Us [5:54]
10. Darlin' (Single version) [3:59]

Exact Audio Copy V1.3 from 2. September 2016

Отчёт EAC об извлечении, выполненном 18. апреля 2018, 11:32

Climax Blues Band / Lucky For Some

Дисковод: HL-DT-STDVDRAM GH24NSD0 Adapter: 1 ID: 0

Режим чтения : Достоверность
Использование точного потока : Да
Отключение кэша аудио : Да
Использование указателей C2 : Нет

Коррекция смещения при чтении : 6
Способность читать области Lead-in и Lead-out : Нет
Заполнение пропущенных сэмплов тишиной : Да
Удаление блоков с тишиной в начале и конце : Нет
При вычислениях CRC использовались нулевые сэмплы : Да
Интерфейс : Встроенный Win32-интерфейс для Win NT/2000

Выходной формат : Пользовательский кодировщик
Выбранный битрейт : 128 kBit/s
Качество : Высокий
Добавление ID3-тега : Нет
Утилита сжатия : C:\Program Files (x86)\Exact Audio Copy\Flac\flac.exe
Дополнительные параметры : -V -8 -T "Date=%year%" -T "Genre=%genre%" %source%


TOC извлечённого CD

Трек | Старт | Длительность | Начальный сектор | Конечный сектор
––––––––––––––––––––––––––––––––––-
1 | 0:00.00 | 3:05.67 | 0 | 13941
2 | 3:05.67 | 4:36.14 | 13942 | 34655
3 | 7:42.06 | 4:00.15 | 34656 | 52670
4 | 11:42.21 | 4:24.70 | 52671 | 72540
5 | 16:07.16 | 3:41.39 | 72541 | 89154
6 | 19:48.55 | 4:52.24 | 89155 | 111078
7 | 24:41.04 | 4:11.64 | 111079 | 129967
8 | 28:52.68 | 4:37.50 | 129968 | 150792
9 | 33:30.43 | 5:54.14 | 150793 | 177356
10 | 39:24.57 | 3:59.18 | 177357 | 195299


Характеристики диапазона извлечения и сообщения об ошибках

Выбранный диапазон

Имя файла C:\Users\khokh\OneDrive\Рабочий стол\Climax Blues Band - Lucky For Some.wav

Пиковый уровень 98.8 %
Скорость извлечения 6.6 X
Качество диапазона 100.0 %
CRC теста 7758E540
CRC копии 7758E540
Копирование… OK

Ошибок не произошло


AccurateRip: сводка

Трек 1 : извлечено точно (доверие 4) [9FEB1E5C] (AR v2)
Трек 2 : извлечено точно (доверие 3) [19F04F8A] (AR v2)
Трек 3 : извлечено точно (доверие 4) [E8364E71] (AR v2)
Трек 4 : извлечено точно (доверие 4) [37F0C233] (AR v2)
Трек 5 : извлечено точно (доверие 3) [71342A86] (AR v2)
Трек 6 : извлечено точно (доверие 4) [B11F24E9] (AR v2)
Трек 7 : извлечено точно (доверие 3) [11E31BCC] (AR v2)
Трек 8 : извлечено точно (доверие 4) [06C8B163] (AR v2)
Трек 9 : извлечено точно (доверие 4) [DBDE98E7] (AR v2)
Трек 10 : извлечено точно (доверие 4) [8E234747] (AR v2)

Все треки извлечены точно

Конец отчёта

==== Контрольная сумма отчёта F939245C3FFDC2E2C0559D86C29D190F7184B0F1FCCA2ED835CABCEDA80CAA3A ====

[CUETools log; Date: 20.04.2018 3:00:17; Version: 2.1.6]
[CTDB TOCID: MThzKmFEZsPvnjyq3l9vcOlE8xo-] found.
Track | CTDB Status
1 | (6/7) Accurately ripped
2 | (5/7) Accurately ripped
3 | (6/7) Accurately ripped
4 | (6/7) Accurately ripped
5 | (5/7) Accurately ripped
6 | (6/7) Accurately ripped
7 | (5/7) Accurately ripped
8 | (6/7) Accurately ripped
9 | (6/7) Accurately ripped
10 | (6/7) Accurately ripped
[AccurateRip ID: 000fad86-007f345c-830a2c0a] found.
Track [ CRC | V2 ] Status
01 [b0258b96|9feb1e5c] (0+4/4) Accurately ripped
02 [df7a0b62|19f04f8a] (0+3/3) Accurately ripped
03 [c66bef13|e8364e71] (0+4/4) Accurately ripped
04 [a6707e34|37f0c233] (0+4/4) Accurately ripped
05 [2d9ca087|71342a86] (0+3/3) Accurately ripped
06 [869f1d8f|b11f24e9] (0+4/4) Accurately ripped
07 [22eeb2fd|11e31bcc] (0+3/3) Accurately ripped
08 [99b16793|06c8b163] (0+4/4) Accurately ripped
09 [54613695|dbde98e7] (0+4/4) Accurately ripped
10 [7901f4aa|8e234747] (0+4/4) Accurately ripped

Track Peak [ CRC32 ] [W/O NULL] [ LOG ]
– 98,8 [7758E540] [0A319CAC] CRC32
01 98,8 [3C0BBE75] [0D5BC437]
02 98,8 [FE6AD81E] [6FB5E2FB]
03 98,8 [29188D0F] [399B6422]
04 98,8 [81B92AB1] [85829F4D]
05 98,8 [6DE5D05C] [F233C1A6]
06 98,8 [A2C115A3] [100668A6]
07 98,8 [BFC7D477] [3B10B0AE]
08 98,8 [855C3F51] [8EAFFAC5]
09 98,8 [F7CD98DE] [E411153C]
10 98,8 [861BFD06] [C4A587C7]

Climax Blues Band - Lucky For Some (1981) {2012, Remastered}


All thanks go to Angel Station

>>> Climax Blues Band in my Blog <<<

DOWNLOAD: