Code III - Planet Of Man (1974) [Reissue 2001]

Posted By: gribovar
Code III - Planet Of Man (1974) [Reissue 2001]

Code III - Planet Of Man (1974) [Reissue 2001]
EAC Rip | FLAC (image+.cue+log) - 246 MB | Covers (7 MB) included
Genre: Progressive Electronic, Krautrock | RAR 3% Rec. | Label: Won-Sin Music (WS 885 635-2)

An exceptional project from Manfred Schunke (vocals, electronic effects) and Klaus Schulze (drums) with Apama Chakravarti (on harmonium, tamboura, vocals), Ed Key (vocals, instruments). The concept is about Man creation and human, technological evolution throw ages. Musically the music alternates vibrant dronescapings, cosmic, electro-acoustic noises, esoteric doom like choirs and weird dreamy folk evocations. Their interlocking sound can be compared in some aspects to Organisation's embryonic electronic approach, Klaus Schulze first efforts in agitated drones and Popol Vuh / Deuter mystical sense of composition. Hermetic but monumental and now cult.

Tracklist:
01. Formations/The Genesis
a) Codes
b) Evolutions
02. Dawn Of An Era
a) Drohung
b) Der Mensch Kommt
03. Countdown/Phoenix Rising
Countdown: a) Hope; b) Disillusion; c) Escalation Of Violence
Phoenix Rising: a) Germination; b) Nova Vita

Total time: 49:50

Exact Audio Copy V0.99 prebeta 4 from 23. January 2008

Отчёт EAC об извлечении, выполненном 31. марта 2010, 0:57

CODE III / Planet Of Man

Дисковод: TSSTcorpCD/DVDW SH-S183A Adapter: 4 ID: 1

Режим чтения : Достоверность
Использование точного потока : Да
Отключение кэша аудио : Да
Использование указателей C2 : Нет

Коррекция смещения при чтении : 6
Способность читать области Lead-in и Lead-out : Нет
Заполнение пропущенных сэмплов тишиной : Да
Удаление блоков с тишиной в начале и конце : Нет
При вычислениях CRC использовались нулевые сэмплы : Да
Интерфейс : Установленный внешний ASPI-интерфейс

Выходной формат : Внутренние WAV-операции
Формат сэмплов : 44.100 Гц; 16 бит; стерео
Смещение при сжатии : 0


TOC извлечённого CD

Трек | Старт | Длительность | Начальный сектор | Конечный сектор
––––––––––––––––––––––––––––––––––-
1 | 0:00.00 | 17:47.51 | 0 | 80075
2 | 17:47.51 | 6:35.32 | 80076 | 109732
3 | 24:23.08 | 25:27.25 | 109733 | 224282


Характеристики диапазона извлечения и сообщения об ошибках

Выбранный диапазон

Имя файла D:\TEMP\CODE III - 1974 - Planet Of Man.wav

Пиковый уровень 95.3 %
Качество диапазона 100.0 %
CRC теста 0801C6C3
CRC копии 0801C6C3
Копирование… OK

Ошибок не произошло


AccurateRip: сводка

Трек 1 точное извлечение (доверие 1) [AED9244F]
Трек 2 точное извлечение (доверие 1) [6D118EFD]
Трек 3 точное извлечение (доверие 1) [B42383DE]

Все треки извлечены точно

Конец отчёта

[CUETools log; Date: 09.04.2017 0:10:17; Version: 2.1.4]
[CTDB TOCID: y2zuWMcbCYOTH9kER27xtGbusSM-] found.
Track | CTDB Status
1 | (3/3) Accurately ripped
2 | (3/3) Accurately ripped
3 | (3/3) Accurately ripped
[AccurateRip ID: 0006518c-001527f4-220bae03] found.
Track [ CRC | V2 ] Status
01 [aed9244f|524eb906] (2+0/2) Accurately ripped
02 [6d118efd|bfbae498] (2+0/2) Accurately ripped
03 [b42383de|5f29d75a] (2+0/2) Accurately ripped

Track Peak [ CRC32 ] [W/O NULL] [ LOG ]
– 95,3 [0801C6C3] [5213AACC] CRC32
01 90,4 [D1C27B02] [446734AC]
02 93,6 [ADDD0398] [2E3DF5B6]
03 95,3 [F1591BDF] [7C026095]

Thanks to spAceLover