Subcategories

Colin Hay - American Sunshine (2009)

Posted By: flac jacket
Colin Hay - American Sunshine (2009)

Colin Hay - American Sunshine (2009)
EAC Secure Rip | FLAC (Image + Cue + Log) - 286 MB | Complete Scans (Jpeg 600 dpi) - 326 MB | MP3 (CBR320 Kbps) - 102 MB
Rock, Pop | Compass Records | 7 4512 2 | 40:17 minutes | 5% WinRar Recovery | Hosted on: Uploaded & FilePost

American Sunshine is the tenth album by former Men at Work lead singer Colin Hay. The third release on Compass Records.

Continuing with the sound an spirit of his new millennium Californian makeover, 2009's American Sunshine picks up the thread from 2007's Are You Lookin' at Me?, offering a cheerfully mellow collection of easy rolling folk-pop. Hay's touch remains light, never pushing either his melodies or his wry quips yet relying on them both to fuel these gently charming songs. He remains infatuated with what happens under the Southern Californian sun, whether it's rhapsodizing over the state itself or cherishing a flirtation with a shop girl, and it's easy to share his affections thanks to his easy, tasteful tunes. Reviewed by Stephen Thomas Erlewine allmusic.com

Exact Audio Copy V1.0 beta 2 from 29. April 2011

EAC extraction logfile from 23. December 2012, 23:01

Colin Hay / American Sunshine

Used drive : HL-DT-STDVDRAM GH60N Adapter: 0 ID: 1

Read mode : Secure
Utilize accurate stream : Yes
Defeat audio cache : Yes
Make use of C2 pointers : No

Read offset correction : 667
Overread into Lead-In and Lead-Out : No
Fill up missing offset samples with silence : Yes
Delete leading and trailing silent blocks : No
Null samples used in CRC calculations : Yes
Used interface : Native Win32 interface for Win NT & 2000

Used output format : User Defined Encoder
Selected bitrate : 1024 kBit/s
Quality : High
Add ID3 tag : No
Command line compressor : C:\Program Files (x86)\Exact Audio Copy\Flac\flac.exe
Additional command line options : -V -5 -T "artist=%albumartist%" -T "title=%title%" -T "album=%albumtitle%" -T "date=%year%" -T "genre=%genre%" -T "tracknumber=%tracknr%" %source%


TOC of the extracted CD

Track | Start | Length | Start sector | End sector
––––––––––––––––––––––––––––-
1 | 0:00.00 | 3:56.11 | 0 | 17710
2 | 3:56.11 | 3:59.26 | 17711 | 35661
3 | 7:55.37 | 3:52.60 | 35662 | 53121
4 | 11:48.22 | 3:11.23 | 53122 | 67469
5 | 14:59.45 | 2:58.16 | 67470 | 80835
6 | 17:57.61 | 3:52.68 | 80836 | 98303
7 | 21:50.54 | 3:28.05 | 98304 | 113908
8 | 25:18.59 | 3:31.10 | 113909 | 129743
9 | 28:49.69 | 4:30.36 | 129744 | 150029
10 | 33:20.30 | 2:56.66 | 150030 | 163295
11 | 36:17.21 | 3:59.50 | 163296 | 181270


Range status and errors

Selected range

Filename C:\EAC\Colin Hay - (2009) American Sunshine\Colin Hay - American Sunshine.wav

Peak level 100.0 %
Extraction speed 1.6 X
Range quality 100.0 %
Test CRC 6C3310E1
Copy CRC 6C3310E1
Copy OK

No errors occurred


AccurateRip summary

Track 1 accurately ripped (confidence 3) [E0A73C1C] (AR v2)
Track 2 accurately ripped (confidence 3) [8D97CB00] (AR v2)
Track 3 accurately ripped (confidence 3) [BC3AD322] (AR v2)
Track 4 accurately ripped (confidence 3) [80704535] (AR v2)
Track 5 accurately ripped (confidence 3) [E2DBC9C8] (AR v2)
Track 6 accurately ripped (confidence 3) [6310144E] (AR v2)
Track 7 accurately ripped (confidence 3) [16326768] (AR v2)
Track 8 accurately ripped (confidence 3) [6C4C8F0F] (AR v2)
Track 9 accurately ripped (confidence 3) [85ED61FB] (AR v2)
Track 10 accurately ripped (confidence 3) [CFFCD206] (AR v2)
Track 11 accurately ripped (confidence 3) [81ABFB6E] (AR v2)

All tracks accurately ripped

End of status report

==== Log checksum 5ABD5C60327FE5BC238609AA9E35CC747CB3DFB0DA785D4842C68361612AE51A ====


Track Listing:

01. Oh California
02. Prison Time
03. There's Water Over You
04. I Came Into Your Store
05. No Time
06. Broken Love
07. I Can't Get Up Out Of This Bed
08. The End Of Wilhemina
09. Baby Can I See You Tonight?
10. Pleased To Almost Meet You
11. American Sunshine


Album Released: August 18, 2009


foobar2000 1.1.7 / Dynamic Range Meter 1.1.0
log date: 2013-01-30 11:53:15

––––––––––––––––––––––––––––––––––––––––
Analyzed: Colin Hay / American Sunshine
––––––––––––––––––––––––––––––––––––––––

DR Peak RMS Duration Track
––––––––––––––––––––––––––––––––––––––––
DR6 0.00 dB -7.49 dB 3:56 01-Oh California
DR5 0.00 dB -8.23 dB 3:59 02-Prison Time
DR7 -0.09 dB -8.86 dB 3:53 03-There's Water Over You
DR6 -0.09 dB -7.64 dB 3:11 04-I Came Into Your Store
DR6 -0.09 dB -7.26 dB 2:58 05-No Time
DR5 -0.09 dB -6.76 dB 3:53 06-Broken Love
DR7 -0.09 dB -8.76 dB 3:28 07-I Can't Get Up Out Of This Bed
DR5 -0.09 dB -7.24 dB 3:31 08-The End Of Wilhemina
DR10 -0.09 dB -11.29 dB 4:30 09-Baby Can I See You Tonight?
DR5 -0.09 dB -5.97 dB 2:57 10-Pleased To Almost Meet You
DR5 -0.09 dB -7.20 dB 4:00 11-American Sunshine
––––––––––––––––––––––––––––––––––––––––

Number of tracks: 11
Official DR value: DR6

Samplerate: 44100 Hz
Channels: 2
Bits per sample: 16
Bitrate: 945 kbps
Codec: FLAC
================================================================================

Colin Hay - American Sunshine (2009)

Ripped and Scanned from the Stadium Studios Library December 2012
5% WinRar Recovery